Joe Satriani - Shapeshifting (2020) [Official Digital Download 24/96]

Posted By: pyatak
Joe Satriani - Shapeshifting (2020) [Official Digital Download 24/96]

Joe Satriani - Shapeshifting (2020) [Official Digital Download 24/96]
FLAC (tracks) 24-bit/96 kHz | Front Cover | Time - 46:31 minutes | 0,98 GB
Rock | Label: Legacy Recordings, Official Digital Download

Joe Satriani was determined to try different things on Shapeshifting - a lot of different things.

“I started to think that that sounds like 15 different guitar players,” he says of his new album. “I know it’s the same guy, because it’s me, but it sounds like I’m really moving into an area where each melody requires me to almost be somebody else.”

Not that he's expecting fans to be fooled. "I’m well aware that you just can’t help but sound like yourself, we all know that anyway," he tells UCR. "All of my heroes are always identifiable to me from the first note. But from the artist side of it, it’s a wide world that we’re in, and we’re always trying to express ourselves in new ways. Sometimes we have to create these parameters that kick us in the ass to move into some new territory. It’s not always as recognizable or palpable to the fan, but it’s a source of inspiration to us, to the artist doing it. It’s just like somebody putting on a mask and finally being able to act. But you take off the mask and they’re too embarrassed to jump around and act like a fool."

Working with co-producer Jim Scott, bassist Chris Chaney, keyboardist Eric Caudieux and drummer Kenny Aronoff, who was briefly a touring member of the Sammy Hagar-fronted group Chickenfoot, which also includes Satriani. The guitarist set out to push himself into new worlds with each track. Lead single "Nineteen Eighty" is an unabashed love letter to a golden age of guitar heroes, while "Ali Farka, Dick Dale, an Alien and Me" envisions a late-night jam among the African music legend, the surf-rock pioneer and an out-of-this-world collaborator.

TRACKLIST

1. Joe Satriani - Shapeshifting
2. Joe Satriani - Big Distortion
3. Joe Satriani - All for Love
4. Joe Satriani - Ali Farka, Dick Dale, an Alien and Me
5. Joe Satriani - Teardrops
6. Joe Satriani - Perfect Dust
7. Joe Satriani - Nineteen Eighty
8. Joe Satriani - All My Friends Are Here
9. Joe Satriani - Spirits, Ghosts and Outlaws
10. Joe Satriani - Falling Stars
11. Joe Satriani - Waiting
12. Joe Satriani - Here the Blue River
13. Joe Satriani - Yesterday's Yesterday

foobar2000 1.3.16 / Dynamic Range Meter 1.1.1
log date: 2020-04-10 04:55:45

––––––––––––––––––––––––––––––––––––––––
Analyzed: Joe Satriani / Shapeshifting
––––––––––––––––––––––––––––––––––––––––

DR Peak RMS Duration Track
––––––––––––––––––––––––––––––––––––––––
DR9 -0.50 dB -11.13 dB 3:55 01-Shapeshifting
DR8 -0.50 dB -9.82 dB 4:14 02-Big Distortion
DR9 -0.50 dB -10.65 dB 2:32 03-All for Love
DR8 -0.50 dB -10.05 dB 3:42 04-Ali Farka, Dick Dale, an Alien and Me
DR8 -0.50 dB -10.64 dB 4:09 05-Teardrops
DR8 -0.50 dB -10.10 dB 3:30 06-Perfect Dust
DR9 -0.50 dB -10.07 dB 3:35 07-Nineteen Eighty
DR8 -0.50 dB -9.67 dB 3:24 08-All My Friends Are Here
DR9 -0.50 dB -10.47 dB 3:23 09-Spirits, Ghosts and Outlaws
DR8 -0.50 dB -9.99 dB 3:42 10-Falling Stars
DR10 -0.50 dB -13.42 dB 2:36 11-Waiting
DR8 -0.50 dB -10.52 dB 5:02 12-Here the Blue River
DR9 -0.50 dB -11.74 dB 2:48 13-Yesterday's Yesterday
––––––––––––––––––––––––––––––––––––––––

Number of tracks: 13
Official DR value: DR9

Samplerate: 96000 Hz
Channels: 2
Bits per sample: 24
Bitrate: 2915 kbps
Codec: FLAC
================================================================================



Thanks to the Original customer.