Prince - Sign O' The Times (Super Deluxe) (2020) [Official Digital Download]

Posted By: pyatak
Prince - Sign O' The Times (Super Deluxe) (2020) [Official Digital Download]

Prince - Sign O' The Times (Super Deluxe) (2020) [Official Digital Download]
FLAC (tracks) 24-bit/44.1 kHz | Front Cover | Time - 08:02:22 minutes | 5,38 GB
Pop, R&B | Label: NPG Records, Official Digital Download

The Super Deluxe Edition brings fans all the audio material that Prince officially released in 1987, as well as 45 previously unissued studio songs recorded between May 1979 and July 1987, and a complete live audio performance from the June 20, 1987 stop on the Sign O’ The Times Tour at Stadium Galgenwaard in Utrecht, The Netherlands.

In addition, both CD and vinyl sets also boast a brand-new DVD containing the complete, previously unreleased New Year’s Eve benefit concert at Paisley Park on December 31, 1987, which was Prince’s final performance of the Sign O’ The Times Tour stage show and his only on-stage collaboration with jazz legend Miles Davis.

TRACKLIST

01. Sign O' The Times (2020 Remaster)
02. Play In The Sunshine (2020 Remaster)
03. Housequake (2020 Remaster)
04. The Ballad Of Dorothy Parker (2020 Remaster)
05. It (2020 Remaster)
06. Starfish And Coffee (2020 Remaster)
07. Slow Love (2020 Remaster)
08. Hot Thing (2020 Remaster)
09. Forever In My Life (2020 Remaster)

CD2
01. U Got The Look (2020 Remaster)
02. If I Was Your Girlfriend (2020 Remaster)
03. Strange Relationship (2020 Remaster)
04. I Could Never Take The Place Of Your Man (2020 Remaster)
05. The Cross (2020 Remaster)
06. It's Gonna Be A Beautiful Night (2020 Remaster)
07. Adore (2020 Remaster)

CD3
01. Sign O' The Times (Edit) (2020 Remaster)
02. La, La, La, He, He, Hee (Edit) (2020 Remaster)
03. La, La, La, He, He, Hee (Highly Explosive) (2020 Remaster)
04. If I Was Your Girlfriend (Edit) (2020 Remaster)
05. Shockadelica (2020 Remaster)
06. Shockadelica (12" Long Version) (2020 Remaster)
07. U Got the Look (Long Look) (2020 Remaster)
08. Housequake (Edit) (2020 Remaster)
09. Housequake (7 Minutes MoQuake) (2020 Remaster)
10. I Could Never Take the Place of Your Man (Fade) (2020 Remaster)
11. Hot Thing (Edit) (2020 Remaster)
12. Hot Thing (Extended Remix) (2020 Remaster)
13. Hot Thing (Dub Version) (2020 Remaster)

CD4
01. I Could Never Take The Place Of Your Man (1979 Version) (2020 Remaster)
02. Teacher Teacher (1985 Version) (2020 Remaster)
03. All My Dreams (2020 Remaster)
04. Can I Play With U? (feat. Miles Davis) (2020 Remaster)
05. Wonderful Day (2020 Remaster)
06. Strange Relationship (2020 Remaster)
07. Visions (2020 Remaster)
08. The Ballad Of Dorothy Parker (With Horns; 2020 Remaster)
09. Witness 4 The Prosecution (Version 1) (2020 Remaster)
10. Power Fantastic (Live in Studio) (2020 Remaster)
11. And That Says What? (2020 Remaster)
12. Love And Sex (2020 Remaster)
13. A Place In Heaven (Prince Vocal) (2020 Remaster)
14. Colors (2020 Remaster)
15. Crystal Ball (7" Mix) (2020 Remaster)
16. Big Tall Wall (Version 1) (2020 Remaster)
17. Nevaeh Ni Ecalp A (2020 Remaster)
18. In A Large Room With No Light (2020 Remaster)

CD5
01. Train (2020 Remaster)
02. It Ain't Over 'Til The Fat Lady Sings (2020 Remaster)
03. Eggplant (Original Prince Vocal) (2020 Remaster)
04. Everybody Want What They Don't Got (2020 Remaster)
05. Blanche (2020 Remaster)
06. Soul Psychodelicide (1986 Master) (2020 Remaster)
07. The Ball (2020 Remaster)
08. Adonis And Bathsheba (2020 Remaster)
09. Forever In My Life (Early Vocal Run-Through) (2020 Remaster)
10. Crucial (Alternate Lyrics) (2020 Remaster)
11. The Cocoa Boys (2020 Remaster)
12. When The Dawn Of The Morning Comes (2020 Remaster)
13. Witness 4 The Prosecution (Version 2) (2020 Remaster)
14. It Be's Like That Sometimes (2020 Remaster)

CD6
01. Emotional Pump (2020 Remaster)
02. Rebirth Of The Flesh (Original Outro) (2020 Remaster)
03. Cosmic Day (2020 Remaster)
04. Walkin' In Glory (2020 Remaster)
05. Wally (2020 Remaster)
06. I Need A Man (2020 Remaster)
07. Promise To Be True (2020 Remaster)
08. Jealous Girl (Version 2) (2020 Remaster)
09. There's Something I Like About Being Your Fool (2020 Remaster)
10. Big Tall Wall (Version 2) (2020 Remaster)
11. A Place In Heaven (Lisa Vocal) (2020 Remaster)
12. Wonderful Day (12" Mix) (2020 Remaster)
13. Strange Relationship (1987 Shep Pettibone Club Mix) (2020 Remaster)

CD7
01. Intro/Sign O' The Times (Live in Utrecht) (2020 Remaster)
02. Play In The Sunshine (Live In Utrecht) (2020 Remaster)
03. Little Red Corvette (Live In Utrecht) (2020 Remaster)
04. Housequake (Live In Utrecht) (2020 Remaster)
05. Girls & Boys (Live In Utrecht) (2020 Remaster)
06. Slow Love (Live In Utrecht) (2020 Remaster)
07. Take The "A" Train / Pacemaker / I Could Never Take The Place Of Your Man (Live In Utrecht) (2020 Remaster)
08. Hot Thing (Live In Utrecht) (2020 Remaster)
09. Four (Includes Sheila E. Drum Solo) [Live In Utrecht] (2020 Remaster)
10. If I Was Your Girlfriend (Live In Utrecht) (2020 Remaster)

CD8
01. Let's Go Crazy (Live In Utrecht) (2020 Remaster)
02. When Doves Cry (Live In Utrecht) (2020 Remaster)
03. Purple Rain (Live In Utrecht) (2020 Remaster)
04. 1999 (Live In Utrecht) (2020 Remaster)
05. Forever In My Life (Live In Utrecht) (2020 Remaster)
06. Kiss (Live In Utrecht) (2020 Remaster)
07. The Cross (Live In Utrecht) (2020 Remaster)
08. It's Gonna Be A Beautiful Night (Live In Utrecht) (2020 Remaster)

foobar2000 1.3.16 / Dynamic Range Meter 1.1.1
log date: 2020-09-24 17:41:18

––––––––––––––––––––––––––––––––––––––––
Analyzed: Prince / Sign O' The Times (Super Deluxe)
––––––––––––––––––––––––––––––––––––––––

DR Peak RMS Duration Track
––––––––––––––––––––––––––––––––––––––––
DR10 -1.20 dB -12.77 dB 4:56 01-Sign O' The Times (2020 Remaster)
DR11 0.00 dB -13.13 dB 5:05 02-Play In The Sunshine (2020 Remaster)
DR11 0.00 dB -12.25 dB 4:40 03-Housequake (2020 Remaster)
DR14 0.00 dB -16.84 dB 4:03 04-The Ballad Of Dorothy Parker (2020 Remaster)
DR12 0.00 dB -13.66 dB 5:10 05-It (2020 Remaster)
DR15 0.00 dB -16.38 dB 2:50 06-Starfish And Coffee (2020 Remaster)
DR13 -0.38 dB -16.35 dB 4:22 07-Slow Love (2020 Remaster)
DR14 0.00 dB -16.14 dB 5:39 08-Hot Thing (2020 Remaster)
DR16 -0.14 dB -18.44 dB 3:32 09-Forever In My Life (2020 Remaster)
––––––––––––––––––––––––––––––––––––––––

Number of tracks: 9
Official DR value: DR13

Samplerate: 44100 Hz
Channels: 2
Bits per sample: 24
Bitrate: 1501 kbps
Codec: FLAC
================================================================================

foobar2000 1.3.16 / Dynamic Range Meter 1.1.1
log date: 2020-09-24 17:41:57

––––––––––––––––––––––––––––––––––––––––
Analyzed: Prince / Sign O' The Times (Super Deluxe)
––––––––––––––––––––––––––––––––––––––––

DR Peak RMS Duration Track
––––––––––––––––––––––––––––––––––––––––
DR12 0.00 dB -14.93 dB 3:46 01-U Got The Look (2020 Remaster)
DR14 -1.70 dB -17.54 dB 5:04 02-If I Was Your Girlfriend (2020 Remaster)
DR13 0.00 dB -13.88 dB 4:01 03-Strange Relationship (2020 Remaster)
DR11 0.00 dB -13.47 dB 6:29 04-I Could Never Take The Place Of Your Man (2020 Remaster)
DR11 -0.03 dB -15.41 dB 4:48 05-The Cross (2020 Remaster)
DR13 0.00 dB -14.09 dB 9:02 06-It's Gonna Be A Beautiful Night (2020 Remaster)
DR12 0.00 dB -14.96 dB 6:35 07-Adore (2020 Remaster)
––––––––––––––––––––––––––––––––––––––––

Number of tracks: 7
Official DR value: DR12

Samplerate: 44100 Hz
Channels: 2
Bits per sample: 24
Bitrate: 1517 kbps
Codec: FLAC
================================================================================

foobar2000 1.3.16 / Dynamic Range Meter 1.1.1
log date: 2020-09-24 17:43:15

––––––––––––––––––––––––––––––––––––––––
Analyzed: Prince / Sign O' The Times (Super Deluxe)
––––––––––––––––––––––––––––––––––––––––

DR Peak RMS Duration Track
––––––––––––––––––––––––––––––––––––––––
DR10 -1.09 dB -14.08 dB 3:41 01-Sign O' The Times (Edit) [2020 Remaster]
DR12 0.00 dB -14.00 dB 3:22 02-La, La, La, He, He, Hee (Edit) [2020 Remaster]
DR11 0.00 dB -12.44 dB 10:47 03-La, La, La, He, He, Hee (Highly Explosive) [2020 Remaster]
DR13 0.00 dB -15.00 dB 3:47 04-If I Was Your Girlfriend (Edit) [2020 Remaster]
DR12 0.00 dB -13.07 dB 3:31 05-Shockadelica (2020 Remaster)
DR11 0.00 dB -12.13 dB 6:13 06-Shockadelica (12" Long Version) [2020 Remaster]
DR11 0.00 dB -12.24 dB 6:41 07-U Got the Look (Long Look) [2020 Remaster]
DR11 0.00 dB -12.60 dB 3:22 08-Housequake (Edit) [2020 Remaster]
DR10 0.00 dB -12.15 dB 7:12 09-Housequake (7 Minutes MoQuake) [2020 Remaster]
DR10 0.00 dB -11.75 dB 3:39 10-I Could Never Take the Place of Your Man (Fade) [2020 Remaster]
DR12 0.00 dB -14.38 dB 3:41 11-Hot Thing (Edit) [2020 Remaster]
DR14 0.00 dB -15.06 dB 8:32 12-Hot Thing (Extended Remix) [2020 Remaster]
DR15 0.00 dB -16.17 dB 6:53 13-Hot Thing (Dub Version) [2020 Remaster]
––––––––––––––––––––––––––––––––––––––––

Number of tracks: 13
Official DR value: DR12

Samplerate: 44100 Hz
Channels: 2
Bits per sample: 24
Bitrate: 1510 kbps
Codec: FLAC
================================================================================

foobar2000 1.3.16 / Dynamic Range Meter 1.1.1
log date: 2020-09-24 17:44:07

––––––––––––––––––––––––––––––––––––––––
Analyzed: Prince / Sign O' The Times (Super Deluxe)
––––––––––––––––––––––––––––––––––––––––

DR Peak RMS Duration Track
––––––––––––––––––––––––––––––––––––––––
DR9 -0.06 dB -11.07 dB 3:13 01-I Could Never Take The Place Of Your Man (1979 Version) [2020 Remaster]
DR12 0.00 dB -13.45 dB 3:08 02-Teacher Teacher (1985 Version) [2020 Remaster]
DR12 0.00 dB -14.95 dB 7:24 03-All My Dreams (2020 Remaster)
DR12 0.00 dB -15.10 dB 6:40 04-Can I Play With U? (feat. Miles Davis) [2020 Remaster]
DR12 0.00 dB -14.12 dB 3:48 05-Wonderful Day (2020 Remaster)
DR13 -0.37 dB -15.23 dB 6:42 06-Strange Relationship (2020 Remaster)
DR13 -0.65 dB -18.10 dB 2:19 07-Visions (2020 Remaster)
DR13 0.00 dB -14.39 dB 4:56 08-The Ballad Of Dorothy Parker (With Horns) [2020 Remaster]
DR12 0.00 dB -13.63 dB 4:00 09-Witness 4 The Prosecution (Version 1) [2020 Remaster]
DR12 0.00 dB -16.80 dB 7:18 10-Power Fantastic (Live in Studio) [2020 Remaster]
DR13 -1.79 dB -16.63 dB 1:50 11-And That Says What? (2020 Remaster)
DR11 0.00 dB -13.32 dB 4:12 12-Love And Sex (2020 Remaster)
DR13 -0.33 dB -15.18 dB 2:58 13-A Place In Heaven (Prince Vocal) [2020 Remaster]
DR13 -0.05 dB -18.22 dB 1:01 14-Colors (2020 Remaster)
DR13 0.00 dB -15.46 dB 3:30 15-Crystal Ball (7" Mix) [2020 Remaster]
DR13 0.00 dB -14.55 dB 5:59 16-Big Tall Wall (Version 1) [2020 Remaster]
DR11 -4.75 dB -21.48 dB 2:33 17-Nevaeh Ni Ecalp A (2020 Remaster)
DR12 0.00 dB -13.47 dB 3:27 18-In A Large Room With No Light (2020 Remaster)
––––––––––––––––––––––––––––––––––––––––

Number of tracks: 18
Official DR value: DR12

Samplerate: 44100 Hz
Channels: 2
Bits per sample: 24
Bitrate: 1687 kbps
Codec: FLAC
================================================================================

foobar2000 1.3.16 / Dynamic Range Meter 1.1.1
log date: 2020-09-24 17:44:46

––––––––––––––––––––––––––––––––––––––––
Analyzed: Prince / Sign O' The Times (Super Deluxe)
––––––––––––––––––––––––––––––––––––––––

DR Peak RMS Duration Track
––––––––––––––––––––––––––––––––––––––––
DR11 0.00 dB -12.50 dB 4:22 01-Train (2020 Remaster)
DR13 0.00 dB -15.16 dB 2:22 02-It Ain't Over 'Til The Fat Lady Sings (2020 Remaster)
DR12 -0.22 dB -13.47 dB 5:19 03-Eggplant (Original Prince Vocal) [2020 Remaster]
DR12 -0.47 dB -14.42 dB 2:09 04-Everybody Want What They Don't Got (2020 Remaster)
DR13 0.00 dB -14.89 dB 5:37 05-Blanche (2020 Remaster)
DR14 0.00 dB -15.28 dB 12:37 06-Soul Psychodelicide (1986 Master) [2020 Remaster]
DR13 0.00 dB -14.26 dB 4:34 07-The Ball (2020 Remaster)
DR11 -0.25 dB -13.91 dB 5:28 08-Adonis And Bathsheba (2020 Remaster)
DR11 0.00 dB -12.88 dB 6:25 09-Forever In My Life (Early Vocal Run-Through) [2020 Remaster]
DR12 0.00 dB -13.59 dB 6:15 10-Crucial (Alternate Lyrics) [2020 Remaster]
DR12 0.00 dB -14.03 dB 6:06 11-The Cocoa Boys (2020 Remaster)
DR12 0.00 dB -13.37 dB 6:17 12-When The Dawn Of The Morning Comes (2020 Remaster)
DR12 0.00 dB -13.93 dB 5:03 13-Witness 4 The Prosecution (Version 2) [2020 Remaster]
DR11 -0.42 dB -13.33 dB 3:19 14-It Be's Like That Sometimes (2020 Remaster)
––––––––––––––––––––––––––––––––––––––––

Number of tracks: 14
Official DR value: DR12

Samplerate: 44100 Hz
Channels: 2
Bits per sample: 24
Bitrate: 1554 kbps
Codec: FLAC
================================================================================

foobar2000 1.3.16 / Dynamic Range Meter 1.1.1
log date: 2020-09-24 17:45:26

––––––––––––––––––––––––––––––––––––––––
Analyzed: Prince / Sign O' The Times (Super Deluxe)
––––––––––––––––––––––––––––––––––––––––

DR Peak RMS Duration Track
––––––––––––––––––––––––––––––––––––––––
DR11 0.00 dB -12.72 dB 4:59 01-Emotional Pump (2020 Remaster)
DR12 0.00 dB -13.30 dB 5:28 02-Rebirth Of The Flesh (Original Outro) [2020 Remaster]
DR12 0.00 dB -13.00 dB 5:39 03-Cosmic Day (2020 Remaster)
DR11 0.00 dB -12.69 dB 5:14 04-Walkin' In Glory (2020 Remaster)
DR11 0.00 dB -13.80 dB 4:45 05-Wally (2020 Remaster)
DR12 -1.13 dB -15.05 dB 5:33 06-I Need A Man (2020 Remaster)
DR12 0.00 dB -14.17 dB 3:38 07-Promise To Be True (2020 Remaster)
DR13 -0.01 dB -15.27 dB 4:52 08-Jealous Girl (Version 2) [2020 Remaster]
DR13 0.00 dB -14.68 dB 3:49 09-There's Something I Like About Being Your Fool (2020 Remaster)
DR13 0.00 dB -15.13 dB 5:46 10-Big Tall Wall (Version 2) [2020 Remaster]
DR13 0.00 dB -16.12 dB 2:46 11-A Place In Heaven (Lisa Vocal) [2020 Remaster]
DR12 0.00 dB -14.05 dB 7:34 12-Wonderful Day (12" Mix) [2020 Remaster]
DR12 0.00 dB -12.77 dB 7:08 13-Strange Relationship (1987 Shep Pettibone Club Mix) [2020 Remaster]
––––––––––––––––––––––––––––––––––––––––

Number of tracks: 13
Official DR value: DR12

Samplerate: 44100 Hz
Channels: 2
Bits per sample: 24
Bitrate: 1670 kbps
Codec: FLAC
================================================================================

foobar2000 1.3.16 / Dynamic Range Meter 1.1.1
log date: 2020-09-24 17:45:57

––––––––––––––––––––––––––––––––––––––––
Analyzed: Prince / Sign O' The Times (Super Deluxe)
––––––––––––––––––––––––––––––––––––––––

DR Peak RMS Duration Track
––––––––––––––––––––––––––––––––––––––––
DR14 0.00 dB -16.91 dB 5:36 01-Intro/Sign O' The Times (Live in Utrecht) [2020 Remaster]
DR13 0.00 dB -14.89 dB 4:36 02-Play In The Sunshine (Live In Utrecht) [2020 Remaster]
DR14 0.00 dB -17.40 dB 1:36 03-Little Red Corvette (Live In Utrecht) [2020 Remaster]
DR14 0.00 dB -16.57 dB 4:52 04-Housequake (Live In Utrecht) [2020 Remaster]
DR14 0.00 dB -16.04 dB 4:17 05-Girls & Boys (Live In Utrecht) [2020 Remaster]
DR14 0.00 dB -18.07 dB 5:06 06-Slow Love (Live In Utrecht) [2020 Remaster]
DR13 0.00 dB -17.24 dB 10:17 07-Take The "A" Train / Pacemaker / I Could Never Take The Place Of Your Man (Live In Utrecht) [2020 Remaster]
DR14 0.00 dB -17.72 dB 6:15 08-Hot Thing (Live In Utrecht) [2020 Remaster]
DR14 0.00 dB -17.07 dB 6:12 09-Four (Includes Sheila E. Drum Solo) [Live In Utrecht] [2020 Remaster]
DR15 -0.21 dB -18.89 dB 5:17 10-If I Was Your Girlfriend (Live In Utrecht) [2020 Remaster]
––––––––––––––––––––––––––––––––––––––––

Number of tracks: 10
Official DR value: DR14

Samplerate: 44100 Hz
Channels: 2
Bits per sample: 24
Bitrate: 1565 kbps
Codec: FLAC
================================================================================

foobar2000 1.3.16 / Dynamic Range Meter 1.1.1
log date: 2020-09-24 17:46:30

––––––––––––––––––––––––––––––––––––––––
Analyzed: Prince / Sign O' The Times (Super Deluxe)
––––––––––––––––––––––––––––––––––––––––

DR Peak RMS Duration Track
––––––––––––––––––––––––––––––––––––––––
DR12 0.00 dB -15.77 dB 6:10 01-Let's Go Crazy (Live In Utrecht) [2020 Remaster]
DR13 0.00 dB -16.90 dB 2:46 02-When Doves Cry (Live In Utrecht) [2020 Remaster]
DR14 0.00 dB -16.54 dB 5:40 03-Purple Rain (Live In Utrecht) [2020 Remaster]
DR13 0.00 dB -17.50 dB 5:54 04-1999 (Live In Utrecht) [2020 Remaster]
DR17 0.00 dB -20.77 dB 13:11 05-Forever In My Life (Live In Utrecht) [2020 Remaster]
DR14 0.00 dB -17.30 dB 3:33 06-Kiss (Live In Utrecht) [2020 Remaster]
DR13 0.00 dB -17.32 dB 7:44 07-The Cross (Live In Utrecht) [2020 Remaster]
DR13 0.00 dB -16.01 dB 13:55 08-It's Gonna Be A Beautiful Night (Live In Utrecht) [2020 Remaster]
––––––––––––––––––––––––––––––––––––––––

Number of tracks: 8
Official DR value: DR14

Samplerate: 44100 Hz
Channels: 2
Bits per sample: 24
Bitrate: 1640 kbps
Codec: FLAC
================================================================================



Thanks to the Original customer.