Suzanne Vega - An Evening Of New York Songs And Stories (2020) [Official Digital Download]

Posted By: pyatak
Suzanne Vega - An Evening Of New York Songs And Stories (2020) [Official Digital Download]

Suzanne Vega - An Evening Of New York Songs And Stories (2020) [Official Digital Download]
FLAC (tracks) 24-bit/44.1 kHz | Front Cover | Time - 01:03:04 minutes | 684 MB
Folk | Label: Cooking Vinyl Limited , Official Digital Download

Suzanne Vega will release a new album, An Evening of New York Songs and Stories in May.

On this record, Vega revisits familiar songs in her repertoire, as well as some hidden gems. It’s actually a live recording, made at New York’s Café Carlisle (on 14 March last year) on which she is backed by longtime guitarist, Gerry Leonard (who is amazing with Vega on stage), bassist Jeff Allen and keyboardist Jamie Edwards.

The album was produced by Gerry Leonard, mixed by Kevin Killen and mastered by Grammy Award winner, Bob Ludwig.

Sadly, the vinyl signed editions are now sold out. Vinyl is a gatefold package and the CD version comes in a fold-out six-panel digi-sleeve.

An Evening of New York Songs and Stories is being released by Cooking Vinyl on 11 September 2020.

TRACKLIST

1. Suzanne Vega - Marlene on the Wall
2. Suzanne Vega - Luka
3. Suzanne Vega - 'So How Many People Are Here from out of Town?'
4. Suzanne Vega - New York Is a Woman
5. Suzanne Vega - 'This Next Song Takes Place on 59th Street…'
6. Suzanne Vega - Frank and Eva
7. Suzanne Vega - 'So I Myself Came to New York City When I Was 2 ½ Years Old'
8. Suzanne Vega - Gypsy
9. Suzanne Vega - Freeze Tag
10. Suzanne Vega - Pornographer's Dream
11. Suzanne Vega - 'This Next Song Is Called New York Is My Destination'
12. Suzanne Vega - New York Is My Destination
13. Suzanne Vega - 'The First Time I Saw Lou Reed…'
14. Suzanne Vega - Walk on the Wild Side
15. Suzanne Vega - Ludlow Street
16. Suzanne Vega - Cracking
17. Suzanne Vega - 'And Now We've Got a Song About Those Times…'
18. Suzanne Vega - Some Journey
19. Suzanne Vega - 'I'm Gonna Close with This Song…'
20. Suzanne Vega - Tom's Diner
21. Suzanne Vega - 'Would You Like Another One?'
22. Suzanne Vega - Anniversary
23. Suzanne Vega - Tombstone
24. Suzanne Vega - Thin Man

foobar2000 1.3.16 / Dynamic Range Meter 1.1.1
log date: 2020-09-10 23:21:52

––––––––––––––––––––––––––––––––––––––––
Analyzed: Suzanne Vega / An Evening of New York Songs and Stories
––––––––––––––––––––––––––––––––––––––––

DR Peak RMS Duration Track
––––––––––––––––––––––––––––––––––––––––
DR9 -1.29 dB -12.95 dB 4:19 01-Marlene on the Wall
DR9 -1.74 dB -13.39 dB 4:04 02-Luka
DR12 -5.03 dB -25.13 dB 0:45 03-'So How Many People Are Here from out of Town?'
DR10 -1.30 dB -14.85 dB 3:16 04-New York Is a Woman
DR14 -10.06 dB -27.75 dB 0:39 05-'This Next Song Takes Place on 59th Street…'
DR9 -1.30 dB -12.05 dB 2:43 06-Frank and Eva
DR14 -6.78 dB -25.67 dB 0:27 07-'So I Myself Came to New York City When I Was 2 ½ Years Old'
DR8 -2.50 dB -13.18 dB 4:28 08-Gypsy
DR8 -1.60 dB -12.14 dB 2:53 09-Freeze Tag
DR8 -1.93 dB -12.00 dB 3:39 10-Pornographer's Dream
DR11 -5.92 dB -24.77 dB 0:22 11-'This Next Song Is Called New York Is My Destination'
DR8 -2.74 dB -14.05 dB 3:20 12-New York Is My Destination
DR16 -7.76 dB -27.05 dB 0:50 13-'The First Time I Saw Lou Reed…'
DR10 -2.06 dB -14.63 dB 4:16 14-Walk on the Wild Side
DR8 -2.22 dB -12.62 dB 3:34 15-Ludlow Street
DR11 -1.74 dB -15.53 dB 3:04 16-Cracking
DR11 -10.46 dB -25.47 dB 0:07 17-'And Now We've Got a Song About Those Times…'
DR8 -1.63 dB -12.53 dB 4:49 18-Some Journey
DR15 -8.07 dB -28.48 dB 0:10 19-'I'm Gonna Close with This Song…'
DR9 -2.35 dB -13.20 dB 5:04 20-Tom's Diner
DR11 -5.98 dB -24.91 dB 0:17 21-'Would You Like Another One?'
DR10 -1.52 dB -15.31 dB 3:03 22-Anniversary
DR7 -1.99 dB -11.17 dB 3:02 23-Tombstone
DR9 -1.34 dB -13.29 dB 4:04 24-Thin Man
––––––––––––––––––––––––––––––––––––––––

Number of tracks: 24
Official DR value: DR10

Samplerate: 44100 Hz
Channels: 2
Bits per sample: 24
Bitrate: 1463 kbps
Codec: FLAC
================================================================================



Thanks to the Original customer.