The Allman Brothers Band - Trouble No More: 50th Anniversary Collection (2020) [Official Digital Download]

Posted By: pyatak
The Allman Brothers Band - Trouble No More: 50th Anniversary Collection (2020) [Official Digital Download]

The Allman Brothers Band - Trouble No More: 50th Anniversary Collection (2020) [Official Digital Download]
FLAC (tracks) 24-bit/44.1 kHz | Front Cover | Time - 06:35:24 minutes | 2,62 GB
Blues Rock | Label: UMG Recording Inc., Official Digital Download

The Allman Brothers Band has announced the release of Trouble No More: 50th Anniversary Collection, a box set of rarities, unreleased tracks, live performances and classic songs. The box set, out February 28th via Island Mercury/UMe, celebrates the 50th anniversary of the rock band, and is available as a 10-LP or 5-CD box set or on digital.

The box set was produced by Allman Brothers Band historians and aficionados Bill Levenson, John Lynskey, and Kirk West, and collects 61 Allman Brothers Band classics, live performances and rarities, and includes seven previously unreleased tracks, including the original demo of “Trouble No More.” The songs have been remastered by Jason NeSmith at Chase Park Tranduction in Athens, Georgia, and the box set is arranged chronologically by era of the band.

TRACKLIST

CD1
01. Trouble No More (Demo)
02. Don't Want You No More
03. It's Not My Cross To Bear
04. Dreams
05. Whipping Post
06. I'm Gonna Move To the Outskirts of Town (Live At Ludlow Garage, April 11, 1970)
07. Midnight Rider
08. Revival
09. Don't Keep Me Wonderin'
10. Hoochie Coochie Man
11. Please Call Home
12. Statesboro Blues (Live At Fillmore East, March 13, 1971)
13. Stormy Monday (Live At Fillmore East, March 13, 1971)
14. In Memory of Elizabeth Reed (Live At Fillmore East, March 12, 1971)

CD2
01. One Way Out (Live At Fillmore East, June 27, 1971)
02. You Don't Love Me / Soul Serenade (Live At A&R Studios, August 26, 1971)
03. Hot 'Lanta (Live At A&R Studios, August 26, 1971)
04. Stand Back
05. Melissa
06. Blue Sky
07. Ain't Wastin Time No More (Live At Mar Y Sol Festival, Puerto Rico, April 2, 1972)
08. Wasted Words
09. Ramblin' Man
10. Southbound
11. Jessica
12. Early Morning Blues (Outtake)

CD3
01. Come and Go Blues (Live At Watkins Glen, New York, July 28, 1973)
02. Mountain Jam (Live At Watkins Glen, New York, July 28, 1973)
03. Can't Lose What You Never Had
04. Win, Lose Or Draw
05. High Falls
06. Crazy Love
07. Can't Take It With You
08. Pegasus
09. Just Ain't Easy (Live At Merriweather Post Pavilion, July 19, 1979)
10. Hell & High Water
11. Angeline
12. Leavin'
13. Never Knew How Much (I Needed You)

CD4
01. Good Clean Fun
02. Seven Turns
03. Gambler's Roll
04. End of the Line
05. Nobody Knows
06. Low Down Dirty Mean (Live At The Beacon Theatre, March 10 & 11, 1992)
07. Come On Into My Kitchen (Live At Radio & Records Convention, Los Angeles, June 11, 1992)
08. Sailin' 'Cross the Devil's Sea
09. Back Where It All Begins
10. Soulshine
11. No One To Run With
12. The Allman Brothers Band & Jack Pearson - I'm Not Crying (Live At The Beacon Theatre, March 13, 1999)

CD5
01. Loan Me a Dime (Live At World Music Theatre, August 26, 2000)
02. Desdemona (Live At The Beacon Theatre, March 25, 2001)
03. High Cost of Low Living
04. Old Before My Time
05. Blue Sky (Live At The Beacon Theatre, March 21, 2005)
06. Little Martha (Live At The Beacon Theatre, March 21, 2005)
07. Black Hearted Woman (Live At The Beacon Theatre, March 26, 2009)
08. The Sky Is Crying (Live At The Beacon Theatre, October 28, 2014)
09. Farewell Speeches (Live At The Beacon Theatre, October 28, 2014)
10. Trouble No More (Live At The Beacon Theatre, October 28, 2014)


CD1

foobar2000 1.3.16 / Dynamic Range Meter 1.1.1
log date: 2020-02-27 17:50:11

––––––––––––––––––––––––––––––––––––––––
Analyzed: The Allman Brothers Band / Trouble No More: 50th Anniversary Collection
––––––––––––––––––––––––––––––––––––––––

DR Peak RMS Duration Track
––––––––––––––––––––––––––––––––––––––––
DR8 -1.51 dB -12.00 dB 3:33 01-Trouble No More (Demo)
DR10 -0.02 dB -11.12 dB 2:25 02-Don't Want You No More
DR10 -0.02 dB -13.53 dB 5:04 03-It's Not My Cross To Bear
DR9 -0.04 dB -11.01 dB 7:22 04-Dreams
DR9 -0.02 dB -11.18 dB 5:20 05-Whipping Post
DR11 -0.25 dB -13.95 dB 9:18 06-I'm Gonna Move To The Outskirts Of Town (Live At Ludlow Garage, April 11, 1970)
DR11 -0.02 dB -13.46 dB 3:00 07-Midnight Rider
DR11 -0.02 dB -12.72 dB 4:07 08-Revival
DR10 -0.02 dB -12.33 dB 3:32 09-Don't Keep Me Wonderin'
DR9 -0.02 dB -11.02 dB 4:59 10-Hoochie Coochie Man
DR12 -0.02 dB -14.80 dB 4:03 11-Please Call Home
DR11 -0.03 dB -13.36 dB 4:21 12-Statesboro Blues (Live At Fillmore East, March 13, 1971)
DR12 -0.02 dB -15.68 dB 8:52 13-Stormy Monday (Live At Fillmore East, March 13, 1971)
DR11 -0.02 dB -13.06 dB 13:07 14-In Memory Of Elizabeth Reed (Live At Fillmore East, March 12, 1971)
––––––––––––––––––––––––––––––––––––––––

Number of tracks: 14
Official DR value: DR10

Samplerate: 44100 Hz
Channels: 2
Bits per sample: 24
Bitrate: 919 kbps
Codec: FLAC
================================================================================

CD2

foobar2000 1.3.16 / Dynamic Range Meter 1.1.1
log date: 2020-02-27 17:51:39

––––––––––––––––––––––––––––––––––––––––
Analyzed: The Allman Brothers Band / Trouble No More: 50th Anniversary Collection
––––––––––––––––––––––––––––––––––––––––

DR Peak RMS Duration Track
––––––––––––––––––––––––––––––––––––––––
DR12 -0.03 dB -14.26 dB 4:59 01-One Way Out (Live At Fillmore East, June 27, 1971)
DR8 -2.43 dB -13.55 dB 19:26 02-You Don't Love Me / Soul Serenade (Live At A&R Studios, August 26, 1971)
DR7 -3.04 dB -12.65 dB 6:08 03-Hot 'Lanta (Live At A&R Studios, August 26, 1971)
DR11 -0.15 dB -12.86 dB 3:26 04-Stand Back
DR12 -0.44 dB -14.80 dB 3:54 05-Melissa
DR10 -0.13 dB -11.55 dB 5:11 06-Blue Sky
DR10 -1.93 dB -14.65 dB 4:45 07-Ain't Wastin Time No More (Live At Mar Y Sol Festival, Puerto Rico, April 2, 1972)
DR9 -1.59 dB -12.81 dB 4:21 08-Wasted Words
DR10 -0.03 dB -12.17 dB 4:48 09-Ramblin' Man
DR10 -0.03 dB -11.74 dB 5:11 10-Southbound
DR9 -0.02 dB -10.93 dB 7:29 11-Jessica
DR12 -0.03 dB -14.37 dB 9:26 12-Early Morning Blues (Outtake)
––––––––––––––––––––––––––––––––––––––––

Number of tracks: 12
Official DR value: DR10

Samplerate: 44100 Hz
Channels: 2
Bits per sample: 24
Bitrate: 985 kbps
Codec: FLAC
================================================================================

CD3

foobar2000 1.3.16 / Dynamic Range Meter 1.1.1
log date: 2020-02-27 17:51:54

––––––––––––––––––––––––––––––––––––––––
Analyzed: The Allman Brothers Band / Trouble No More: 50th Anniversary Collection
––––––––––––––––––––––––––––––––––––––––

DR Peak RMS Duration Track
––––––––––––––––––––––––––––––––––––––––
DR12 -0.02 dB -13.14 dB 5:02 01-Come And Go Blues (Live At Watkins Glen, New York, July 28, 1973)
DR11 -0.03 dB -12.29 dB 12:19 02-Mountain Jam (Live At Watkins Glen, New York, July 28, 1973)
DR10 -0.02 dB -11.25 dB 5:50 03-Can't Lose What You Never Had
DR9 -0.03 dB -11.84 dB 4:45 04-Win, Lose Or Draw
DR9 -0.02 dB -11.28 dB 14:28 05-High Falls
DR10 -0.02 dB -11.28 dB 3:44 06-Crazy Love
DR11 -0.02 dB -12.84 dB 3:35 07-Can't Take It With You
DR11 -0.02 dB -12.60 dB 7:33 08-Pegasus
DR11 -0.03 dB -14.41 dB 5:04 09-Just Ain't Easy (Live At Merriweather Post Pavilion, July 19, 1979)
DR11 -0.61 dB -12.87 dB 3:37 10-Hell & High Water
DR11 -0.02 dB -13.27 dB 3:44 11-Angeline
DR11 -0.02 dB -12.61 dB 3:46 12-Leavin'
DR11 -0.02 dB -12.68 dB 4:28 13-Never Knew How Much (I Needed You)
––––––––––––––––––––––––––––––––––––––––

Number of tracks: 13
Official DR value: DR11

Samplerate: 44100 Hz
Channels: 2
Bits per sample: 24
Bitrate: 1039 kbps
Codec: FLAC
================================================================================


CD4

foobar2000 1.3.16 / Dynamic Range Meter 1.1.1
log date: 2020-02-27 17:52:55

––––––––––––––––––––––––––––––––––––––––
Analyzed: The Allman Brothers Band & Jack Pearson / Trouble No More: 50th Anniversary Collection (1)
The Allman Brothers Band / Trouble No More: 50th Anniversary Collection (2-12)
––––––––––––––––––––––––––––––––––––––––

DR Peak RMS Duration Track
––––––––––––––––––––––––––––––––––––––––
DR10 -0.02 dB -11.25 dB 7:44 12-I'm Not Crying (Live At The Beacon Theatre, March 13, 1999)
DR11 -0.02 dB -12.31 dB 5:09 01-Good Clean Fun
DR10 -0.02 dB -12.77 dB 5:07 02-Seven Turns
DR11 -0.02 dB -13.36 dB 6:45 03-Gambler's Roll
DR10 -0.02 dB -11.77 dB 4:40 04-End Of The Line
DR10 -0.02 dB -11.22 dB 10:59 05-Nobody Knows
DR8 -2.33 dB -13.32 dB 7:23 06-Low Down Dirty Mean (Live At The Beacon Theatre, March 10 & 11, 1992)
DR12 -0.03 dB -16.01 dB 5:06 07-Come On Into My Kitchen (Live At Radio & Records Convention, Los Angeles, June 11, 1992)
DR11 -0.22 dB -13.08 dB 4:57 08-Sailin' 'Cross The Devil's Sea
DR11 -1.20 dB -13.61 dB 9:10 09-Back Where It All Begins
DR10 -0.86 dB -12.83 dB 6:44 10-Soulshine
DR9 -0.96 dB -11.95 dB 6:00 11-No One To Run With
––––––––––––––––––––––––––––––––––––––––

Number of tracks: 12
Official DR value: DR10

Samplerate: 44100 Hz
Channels: 2
Bits per sample: 24
Bitrate: 965 kbps
Codec: FLAC
================================================================================

CD5



Thanks to the Original customer.