The Rolling Stones - Goats Head Soup (2020 Deluxe) (1973/2020) [Official Digital Download 24/96]

Posted By: pyatak
The Rolling Stones - Goats Head Soup (2020 Deluxe) (1973/2020) [Official Digital Download 24/96]

The Rolling Stones - Goats Head Soup (2020 Deluxe) (1973/2020) [Official Digital Download 24/96]
FLAC (tracks) 24-bit/96 kHz | Front Cover | Time - 02:53:10 minutes | 3,71 GB
Rock | Label: Polydor, Official Digital Download

Another prized jewel in the Rolling Stones' unmatched catalogue is restored to its full glory. Goats Head Soup Super Deluxe box sets features 35 tracks on three CDs & one Blu-ray disc (Dolby Atmos, 96kHz/24 bit high resolution stereo, and 96 kHz/24 bit DTS-HD Master Audio 5.1). Included are the new stereo album mix, sourced from the original session files, Rarities & Alternative mixes featuring three previously unreleased tracks, Scarlet, All The Rage & Criss Cross.

Also included is The Brussels Affair, recorded live at the Forest National Arena in October 1973. The 4 discs are housed in the boxset alongside a 120 page book with an incredible array of photos and 3 essays. 50 Years On – An Appreciation of Goats Head Soup by Ian McCann, Brussels Affair Live 1973 Tour by Nick Kent & The Story Of The Cover Art by Daryl Easlea. The set is completed with 4 x 1973 reproduction tour posters, rolled up within the packaging to avoid creases.

TRACKLIST

1. The Rolling Stones - Dancing With Mr D (2020)
2. The Rolling Stones - 100 Years Ago (2020)
3. The Rolling Stones - Coming Down Again (2020)
4. The Rolling Stones - Doo Doo Doo Doo Doo (Heartbreaker) (2020)
5. The Rolling Stones - Angie (2020)
6. The Rolling Stones - Silver Train (2020)
7. The Rolling Stones - Hide Your Love (2020)
8. The Rolling Stones - Winter (2020)
9. The Rolling Stones - Can You Hear The Music (2020)
10. The Rolling Stones - Star Star (2020)
11. The Rolling Stones - Scarlet
12. The Rolling Stones - All The Rage
13. The Rolling Stones - Criss Cross
14. The Rolling Stones - 100 Years Ago (Piano Demo)
15. The Rolling Stones - Dancing With Mr D (Instrumental)
16. The Rolling Stones - Heartbreaker (Instrumental)
17. The Rolling Stones - Hide Your Love (Alternate Mix)
18. The Rolling Stones - Dancing With Mr D
19. The Rolling Stones - Doo Doo Doo Doo Doo (Heartbreaker)
20. The Rolling Stones - Silver Train
21. The Rolling Stones - Scarlet (The War On Drugs Remix)
22. The Rolling Stones - Scarlet (The Killers & Jacques Lu Cont Remix)
23. The Rolling Stones - Brown Sugar (Live / Forest National Arena, Brussels / 17/10/73)
24. The Rolling Stones - Gimme Shelter (Live / Forest National Arena, Brussels / 17/10/73)
25. The Rolling Stones - Happy (Live / Forest National Arena, Brussels / 17/10/73)
26. The Rolling Stones - Tumbling Dice (Live / Forest National Arena, Brussels / 17/10/73)
27. The Rolling Stones - Star Star (Live / Forest National Arena, Brussels / 17/10/73)
28. The Rolling Stones - Dancing With Mr D (Live / Forest National Arena, Brussels / 17/10/73)
29. The Rolling Stones - Doo Doo Doo Doo Doo (Heartbreaker) (Live / Forest National Arena, Brussels / 17/10/73)
30. The Rolling Stones - Angie (Live / Forest National Arena, Brussels / 17/10/73)
31. The Rolling Stones - You Can't Always Get What You Want (Live / Forest National Arena, Brussels / 17/10/73)
32. The Rolling Stones - Midnight Rambler (Live / Forest National Arena, Brussels / 17/10/73)
33. The Rolling Stones - Honky Tonk Women (Live / Forest National Arena, Brussels / 17/10/73)
34. The Rolling Stones - All Down The Line (Live / Forest National Arena, Brussels / 17/10/73)
35. The Rolling Stones - Rip This Joint (Live / Forest National Arena, Brussels / 17/10/73)
36. The Rolling Stones - Jumpin' Jack Flash (Live / Forest National Arena, Brussels / 17/10/73)
37. The Rolling Stones - Street Fighting Man (Live / Forest National Arena, Brussels / 17/10/73)

foobar2000 1.3.16 / Dynamic Range Meter 1.1.1
log date: 2020-09-03 17:29:19

––––––––––––––––––––––––––––––––––––––––
Analyzed: The Rolling Stones / Goats Head Soup (2020 Deluxe)
––––––––––––––––––––––––––––––––––––––––

DR Peak RMS Duration Track
––––––––––––––––––––––––––––––––––––––––
DR6 0.00 dB -7.07 dB 4:52 01-Dancing With Mr D (2020)
DR6 0.00 dB -7.69 dB 3:58 02-100 Years Ago (2020)
DR7 0.00 dB -9.37 dB 5:54 03-Coming Down Again (2020)
DR6 0.00 dB -7.00 dB 3:27 04-Doo Doo Doo Doo Doo (Heartbreaker) (2020)
DR7 0.00 dB -8.85 dB 4:32 05-Angie (2020)
DR4 0.00 dB -5.36 dB 4:26 06-Silver Train (2020)
DR6 0.00 dB -6.81 dB 4:12 07-Hide Your Love (2020)
DR7 0.00 dB -8.21 dB 5:29 08-Winter (2020)
DR7 0.00 dB -8.39 dB 5:32 09-Can You Hear The Music (2020)
DR5 0.00 dB -6.40 dB 4:24 10-Star Star (2020)
DR6 0.00 dB -7.66 dB 3:44 11-Scarlet
DR6 0.00 dB -6.73 dB 4:11 12-All The Rage
DR6 0.00 dB -7.16 dB 4:32 13-Criss Cross
DR9 0.00 dB -11.04 dB 2:43 14-100 Years Ago (Piano Demo)
DR7 0.00 dB -8.26 dB 3:31 15-Dancing With Mr D (Instrumental)
DR7 0.00 dB -9.48 dB 3:18 16-Heartbreaker (Instrumental)
DR6 0.00 dB -7.58 dB 5:18 17-Hide Your Love (Alternate Mix)
DR6 0.00 dB -7.49 dB 4:34 18-Dancing With Mr D
DR7 0.00 dB -9.29 dB 3:26 19-Doo Doo Doo Doo Doo (Heartbreaker)
DR7 0.00 dB -8.00 dB 4:31 20-Silver Train
DR9 0.00 dB -10.69 dB 3:49 21-Scarlet (The War On Drugs Remix)
DR9 0.00 dB -11.10 dB 3:14 22-Scarlet (The Killers & Jacques Lu Cont Remix)
DR7 0.00 dB -8.01 dB 3:56 23-Brown Sugar (Live / Forest National Arena, Brussels / 17/10/73)
DR7 0.00 dB -8.56 dB 5:33 24-Gimme Shelter (Live / Forest National Arena, Brussels / 17/10/73)
DR7 0.00 dB -7.78 dB 3:14 25-Happy (Live / Forest National Arena, Brussels / 17/10/73)
DR7 0.00 dB -8.31 dB 5:04 26-Tumbling Dice (Live / Forest National Arena, Brussels / 17/10/73)
DR7 0.00 dB -7.42 dB 4:16 27-Star Star (Live / Forest National Arena, Brussels / 17/10/73)
DR7 0.00 dB -7.94 dB 4:38 28-Dancing With Mr D (Live / Forest National Arena, Brussels / 17/10/73)
DR7 0.00 dB -7.90 dB 5:03 29-Doo Doo Doo Doo Doo (Heartbreaker) (Live / Forest National Arena, Brussels / 17/10/73)
DR8 0.00 dB -10.03 dB 5:15 30-Angie (Live / Forest National Arena, Brussels / 17/10/73)
DR7 0.00 dB -8.01 dB 11:01 31-You Can't Always Get What You Want (Live / Forest National Arena, Brussels / 17/10/73)
DR6 0.00 dB -7.60 dB 12:53 32-Midnight Rambler (Live / Forest National Arena, Brussels / 17/10/73)
DR6 0.00 dB -7.07 dB 3:12 33-Honky Tonk Women (Live / Forest National Arena, Brussels / 17/10/73)
DR6 0.00 dB -6.92 dB 4:21 34-All Down The Line (Live / Forest National Arena, Brussels / 17/10/73)
DR6 0.00 dB -7.20 dB 2:25 35-Rip This Joint (Live / Forest National Arena, Brussels / 17/10/73)
DR5 0.00 dB -6.09 dB 3:27 36-Jumpin' Jack Flash (Live / Forest National Arena, Brussels / 17/10/73)
DR5 0.00 dB -5.93 dB 5:15 37-Street Fighting Man (Live / Forest National Arena, Brussels / 17/10/73)
––––––––––––––––––––––––––––––––––––––––

Number of tracks: 37
Official DR value: DR7

Samplerate: 96000 Hz
Channels: 2
Bits per sample: 24
Bitrate: 3264 kbps
Codec: FLAC
================================================================================



Thanks to the Original customer.