Adolfo Gutiérrez Arenas & Christopher Park - Evolution: Beethoven Complete Cello Sonatas (2020) [Of. Digital Download 24/96]

Posted By: delpotro
Adolfo Gutiérrez Arenas & Christopher Park - Evolution: Beethoven Complete Cello Sonatas (2020) [Of. Digital Download 24/96]

Adolfo Gutiérrez Arenas & Christopher Park - Evolution: Beethoven Complete Cello Sonatas (2020)
FLAC (tracks) 24-bit/96 kHz | Front Cover & Digital Booklet | Time - 110:57 minutes | 1,95 GB
Classical | Label: Odradek Records, Official Digital Download

Spanish cellist Adolfo Gutierrez Arenas and German-Korean pianist Christopher Park deliver refreshingly vigorous, even irreverent performances of the complete Beethoven Cello Sonatas, works that offer the listener a unique overview of the composer's evolving style.

This duo regularly performs all five Cello Sonatas together in their concert programmes because there are few examples, from any other composer, of a relatively short cycle in which the listener can experience such an insight into the artistic development of a titan like Beethoven. It is a journey of enormous and overwhelming intensity, from the confident statement of a composer sure that he was destined to be heard (Op. 5); the revelation of a new voice, powerful and certain of itself (Op. 69); and the transition into a more introspective, reclusive inner world (Op. 102). In the two Op. 5 Sonatas Beethoven lifts the cello from the realm of the orchestra or quartet; in Op. 69 he ennobles it, revealing it as a worthy equal to the violin. The two Op. 102 Sonatas are more elusive, their textures venturing along paths presaging a new language. Alfred Brendel wrote that these two works "continue to produce a violent commotion, just as they did with Beethoven's contemporaries", marking as they do "the start of a new style, so different that it defies definition".

Adolfo Gutierrez Arenas was awarded the Maurice Ravel Prize and made his debut with the London Symphony Orchestra before embarking on an illustrious career. "Adolfo is a cellist of exceptional ability, both as an instrumentalist and as a superbly gifted musician" (Bernard Greenhouse, cellist of the Beaux Arts Trio).

Christopher Park has been chosen as a 'Rising Star' by ECHO (European Concert Hall Organisation), and alongside his award-winning engagements as a soloist, he is passionately involved in chamber music, regularly collaborating with an array of prominent artists. "Christopher Park is a pianist who captivates with his fascinating technical mastery, astounding musical maturity, and a particularly intense performance style" – the jury awarding Park the Leonard Bernstein Award in 2014.

Tracklist:
Disc 1 (43:56)
1. Cello Sonata No. 1 in F Major, Op. 5, No. 1 : Ia. Adagio sostenuto (02:58)
2. Cello Sonata No. 1 in F Major, Op. 5, No. 1: Ib. Allegro (11:03)
3. Cello Sonata No. 1 in F Major, Op. 5, No. 1: II. Rondo. Allegro vivace (07:09)
4. Cello Sonata No. 2 in G Minor, Op. 5, No. 2: I. Adagio sostenuto ed espressivo (06:22)
5. Cello Sonata No. 2 in G Minor, Op. 5, No. 2: II. Allegro molto più tosto presto (07:45)
6. Cello Sonata No. 2 in G Minor, Op. 5, No. 2: III. Rondo. Allegro (08:39)

Disc 2 (01:06:59)
1. Cello Sonata No. 3 in A Major, Op. 69: I. Allegro, ma non tanto (13:20)
2. Cello Sonata No. 3 in A Major, Op. 69: II. Scherzo. Allegro molto (05:39)
3. Cello Sonata No. 3 in A Major, Op. 69: IIIa. Adagio cantabile (01:52)
4. Cello Sonata No. 3 in A Major, Op. 69: IIIb. Allegro vivace (07:18)
5. Cello Sonata No. 4 in C Major, Op. 102, No. 1: Ia. Andante (03:07)
6. Cello Sonata No. 4 in C Major, Op. 102, No. 1: Ib. Allegro vivace (05:16)
7. Cello Sonata No. 4 in C Major, Op. 102, No. 1: IIa. Adagio (03:25)
8. Cello Sonata No. 4 in C Major, Op. 102, No. 1: IIb. Allegro vivace (04:32)
9. Cello Sonata No. 5 in D Major, Op. 102, No. 2: I. Allegro con brio (06:53)
10. Cello Sonata No. 5 in D Major, Op. 102, No. 2: II. Adagio con molto sentimento d'affetto (10:51)
11. Cello Sonata No. 5 in D Major, Op. 102, No. 2: III. Allegro (04:46)

foobar2000 1.4.1 / Dynamic Range Meter 1.1.1
log date: 2020-09-18 14:10:09

––––––––––––––––––––––––––––––––––––––––
Analyzed: Adolfo Gutiérrez Arenas, Christopher Park / Evolution - Beethoven Complete Cello Sonatas
––––––––––––––––––––––––––––––––––––––––

DR Peak RMS Duration Track
––––––––––––––––––––––––––––––––––––––––
DR12 -7.81 dB -26.45 dB 2:59 01-Cello Sonata No. 1 in F major, Op. 5, No. 1 : Ia. Adagio sostenuto
DR14 -5.09 dB -23.74 dB 11:03 02-Cello Sonata No. 1 in F major, Op. 5, No. 1: Ib. Allegro
DR13 -5.40 dB -23.44 dB 7:09 03-Cello Sonata No. 1 in F major, Op. 5, No. 1: II. Rondo. Allegro vivace
DR15 -5.40 dB -27.11 dB 6:22 04-Cello Sonata No. 2 in G minor, Op. 5, No. 2: I. Adagio sostenuto ed espressivo
DR13 -4.28 dB -21.79 dB 7:45 05-Cello Sonata No. 2 in G minor, Op. 5, No. 2: II. Allegro molto più tosto presto
DR14 -5.60 dB -23.92 dB 8:40 06-Cello Sonata No. 2 in G minor, Op. 5, No. 2: III. Rondo. Allegro
DR13 -5.26 dB -23.77 dB 13:20 07-Cello Sonata No. 3 in A major, Op. 69: I. Allegro, ma non tanto
DR13 -3.79 dB -23.25 dB 5:39 08-Cello Sonata No. 3 in A major, Op. 69: II. Scherzo. Allegro molto
DR10 -12.62 dB -31.26 dB 1:52 09-Cello Sonata No. 3 in A major, Op. 69: IIIa. Adagio cantabile
DR14 -4.04 dB -23.23 dB 7:18 10-Cello Sonata No. 3 in A major, Op. 69: IIIb. Allegro vivace
DR13 -12.65 dB -31.16 dB 3:07 11-Cello Sonata No. 4 in C major, Op. 102, No. 1: Ia. Andante
DR14 -4.43 dB -21.46 dB 5:16 12-Cello Sonata No. 4 in C major, Op. 102, No. 1: Ib. Allegro vivace
DR13 -9.72 dB -28.26 dB 3:25 13-Cello Sonata No. 4 in C major, Op. 102, No. 1: IIa. Adagio
DR12 -5.65 dB -22.45 dB 4:32 14-Cello Sonata No. 4 in C major, Op. 102, No. 1: IIb. Allegro vivace
DR14 -4.22 dB -22.72 dB 6:53 15-Cello Sonata No. 5 in D major, Op. 102, No. 2: I. Allegro con brio
DR16 -8.26 dB -31.11 dB 10:51 16-Cello Sonata No. 5 in D major, Op. 102, No. 2: II. Adagio con molto sentimento d'affetto
DR14 -2.36 dB -22.37 dB 4:46 17-Cello Sonata No. 5 in D major, Op. 102, No. 2: III. Allegro
––––––––––––––––––––––––––––––––––––––––

Number of tracks: 17
Official DR value: DR13

Samplerate: 96000 Hz
Channels: 2
Bits per sample: 24
Bitrate: 2524 kbps
Codec: FLAC
================================================================================


Thanks to the Original customer!