Bruce Springsteen - Tracks (1998/2015) [Official Digital Download]

Posted By: HDV
Bruce Springsteen - Tracks (1998/2015) [Official Digital Download]

Bruce Springsteen - Tracks (1998/2015)
FLAC (tracks) 24-bit/44,1 kHz | Time - 253:22 minutes | 2,95 GB
Studio Master, Official Digital Download | Artwork: Front cover

"Tracks" is a four-disc box set by Bruce Springsteen, released in 1998 containing 66 songs. This box set mostly consists of never-before-released songs recorded during the sessions for his many albums, but also includes a number of single B-sides, as well as demos and alternate versions of already-released material. A treasure trove of material mostly left on the cutting-room floor from his early auditions for John Hammond through his work in the 1990s. Not a retrospective but an “alternate road map” and a glimpse at the ambition, development, and prolific creativity of a Rock icon.

For years, decades even, Bruce Springsteen was legendary for the amount of recordings he did not release. Every time he cut an album, he recorded a surplus of songs and left some out, not always on the basis of quality, but often because they simply didn't suit the mood of the record. It was inevitable that dedicated fans and collectors would bootleg these recordings, and for many years, he was one of the most popular bootlegged artists, rivaling even Bob Dylan. Dylan released a box set of unreleased songs in 1991, paving the way for the long-overdue appearance of a similar Springsteen set, Tracks, in 1998. Spanning four discs, it isn't entirely devoted to unreleased material – a few B-sides pop up here and there – nor is it truly definitive, since it misses a number of key outtakes, plus his original version of "Because the Night," the sole hit for Patti Smith. Instead, the compilation is an unassuming sampling of what's in the vaults, from his early acoustic demos to polished outtakes from Human Touch and Lucky Town. Along the way, there are a number of great songs – "Bishop Danced" is every bit as terrific as its legend, as are "Thundercrack," "Give the Girl a Kiss," "Hearts of Stone," "Roulette," and many others. Tracks merely offers fans an enjoyably sequenced selection of what was left behind. If the end result isn't as revelatory as some may have expected (even the acoustic "Born in the U.S.A.," powerful as it is, doesn't sound any different than you may have imagined it), it's because Springsteen is, at heart, a solid craftsman, not a blinding visionary like Dylan. That's why Tracks is for the dedicated fan, where The Bootleg Series and The Basement Tapes are flat-out essential for rock fans.

Tracklist:

CD1 #01 - Mary Queen of Arkansas
CD1 #02 - It's Hard to Be a Saint in the City
CD1 #03 - Growin' Up
CD1 #04 - Does This Bus Stop at 82nd Street
CD1 #05 - Bishop Danced
CD1 #06 - Santa Ana
CD1 #07 - Seaside Bar Song
CD1 #08 - Zero and Blind Terry
CD1 #09 - Linda Let Me Be the One
CD1 #10 - Thundercrack
CD1 #11 - Rendezvous
CD1 #12 - Give the Girl a Kiss
CD1 #13 - Iceman
CD1 #14 - Bring on the Night
CD1 #15 - So Young and in Love
CD1 #16 - Hearts of Stone
CD1 #17 - Don't Look Back

CD2 #01 - Restless Nights
CD2 #02 - A Good Man Is Hard to Find (Pittsburgh)
CD2 #03 - Roulette
CD2 #04 - Dollhouse
CD2 #05 - Where the Bands Are
CD2 #06 - Loose Ends
CD2 #07 - Living on the Edge of the World
CD2 #08 - Wages of Sin
CD2 #09 - Take 'em as They Come
CD2 #10 - Be True
CD2 #11 - Ricky Wants a Man of Her Own
CD2 #12 - I Wanna Be With You
CD2 #13 - Mary Lou
CD2 #14 - Stolen Car
CD2 #15 - Born in the U.S.A.
CD2 #16 - Johnny Bye-Bye
CD2 #17 - Shut Out the Light

CD3 #01 - Cynthia
CD3 #02 - My Love Will Not Let You Down
CD3 #03 - This Hard Land
CD3 #04 - Frankie
CD3 #05 - TV Movie
CD3 #06 - Stand on It
CD3 #07 - Lion's Den
CD3 #08 - Car Wash
CD3 #09 - Rockaway the Days
CD3 #10 - Brothers Under the Bridges
CD3 #11 - Man at the Top
CD3 #12 - Pink Cadillac
CD3 #13 - Two for the Road
CD3 #14 - Janey Don't You Lose Heart
CD3 #15 - When You Need Me
CD3 #16 - The Wish
CD3 #17 - The Honeymooners
CD3 #18 - Lucky Man

CD4 #01 - Leavin' Train
CD4 #02 - Seven Angels
CD4 #03 - Gave It a Name
CD4 #04 - Sad Eyes
CD4 #05 - My Lover Man
CD4 #06 - Over the Rise
CD4 #07 - When the Lights Go Out
CD4 #08 - Loose Change
CD4 #09 - Trouble in Paradise
CD4 #10 - Happy
CD4 #11 - Part Man, Part Monkey
CD4 #12 - Goin' Cali
CD4 #13 - Back in Your Arms
CD4 #14 - Brothers Under the Bridge

Analyzed: Bruce Springsteen / Tracks
––––––––––––––––––––––––––––––––––––––––

DR Peak RMS Duration Track
––––––––––––––––––––––––––––––––––––––––
DR13 -0.10 dB -17.83 dB 4:28 01-Mary Queen of Arkansas
DR13 -0.13 dB -16.43 dB 2:55 02-It's Hard to Be a Saint in the City
DR12 -1.08 dB -16.77 dB 2:41 03-Growin' Up
DR12 -0.11 dB -15.18 dB 2:03 04-Does This Bus Stop at 82nd Street
DR11 -0.10 dB -14.08 dB 4:22 05-Bishop Danced
DR10 -0.09 dB -12.36 dB 4:37 06-Santa Ana
DR9 -0.10 dB -10.32 dB 3:35 07-Seaside Bar Song
DR8 -0.10 dB -11.19 dB 5:58 08-Zero and Blind Terry
DR11 -0.03 dB -11.84 dB 4:27 09-Linda Let Me Be the One
DR8 -0.09 dB -10.07 dB 8:28 10-Thundercrack
DR7 -0.09 dB -8.91 dB 2:51 11-Rendezvous
DR7 -0.07 dB -8.13 dB 3:55 12-Give the Girl a Kiss
DR10 -0.10 dB -12.53 dB 3:19 13-Iceman
DR9 -0.10 dB -10.75 dB 2:40 14-Bring on the Night
DR10 -0.10 dB -10.46 dB 3:49 15-So Young and in Love
DR9 -0.10 dB -10.11 dB 4:32 16-Hearts of Stone
DR8 -0.10 dB -9.01 dB 3:00 17-Don't Look Back
DR8 0.00 dB -9.16 dB 3:47 01-Restless Nights
DR11 -0.10 dB -13.42 dB 3:18 02-A Good Man Is Hard to Find (Pittsburgh)
DR8 -0.10 dB -9.86 dB 3:56 03-Roulette
DR8 -0.09 dB -9.90 dB 3:34 04-Dollhouse
DR7 -0.06 dB -8.38 dB 3:46 05-Where the Bands Are
DR8 -0.10 dB -8.90 dB 4:04 06-Loose Ends
DR9 -0.07 dB -9.74 dB 4:19 07-Living on the Edge of the World
DR10 -0.09 dB -11.88 dB 4:54 08-Wages of Sin
DR7 -0.09 dB -8.25 dB 4:31 09-Take 'em as They Come
DR7 -0.09 dB -8.44 dB 3:42 10-Be True
DR9 -0.09 dB -9.88 dB 2:47 11-Ricky Wants a Man of Her Own
DR8 -0.08 dB -9.48 dB 3:23 12-I Wanna Be With You
DR9 -0.08 dB -9.73 dB 3:23 13-Mary Lou
DR10 -0.09 dB -12.99 dB 4:31 14-Stolen Car
DR9 -0.10 dB -11.46 dB 3:11 15-Born in the U.S.A.
DR9 -0.10 dB -11.39 dB 1:53 16-Johnny Bye-Bye
DR12 -0.10 dB -14.12 dB 3:51 17-Shut Out the Light
DR10 -0.08 dB -10.62 dB 4:15 01-Cynthia
DR9 -0.09 dB -10.47 dB 4:27 02-My Love Will Not Let You Down
DR9 -0.09 dB -10.49 dB 4:50 03-This Hard Land
DR9 -0.10 dB -11.52 dB 7:25 04-Frankie
DR9 -0.10 dB -10.11 dB 2:46 05-TV Movie
DR10 -0.03 dB -10.34 dB 3:07 06-Stand on It
DR9 0.00 dB -9.55 dB 2:19 07-Lion's Den
DR9 -0.07 dB -10.85 dB 2:08 08-Car Wash
DR9 -0.09 dB -11.12 dB 4:43 09-Rockaway the Days
DR9 -0.10 dB -9.78 dB 5:08 10-Brothers Under the Bridges
DR10 -0.09 dB -10.82 dB 3:24 11-Man at the Top
DR9 -0.09 dB -9.27 dB 3:37 12-Pink Cadillac
DR12 -1.07 dB -15.76 dB 2:00 13-Two for the Road
DR9 -0.09 dB -10.09 dB 3:28 14-Janey Don't You Lose Heart
DR10 -1.15 dB -13.16 dB 2:58 15-When You Need Me
DR8 -0.25 dB -10.76 dB 5:18 16-The Wish
DR12 -0.10 dB -15.82 dB 2:08 17-The Honeymooners
DR10 -0.10 dB -12.68 dB 3:31 18-Lucky Man
DR9 -0.09 dB -9.99 dB 4:07 01-Leavin' Train
DR8 -0.10 dB -9.96 dB 3:29 02-Seven Angels
DR11 -0.13 dB -13.30 dB 2:51 03-Gave It a Name
DR9 -0.09 dB -11.55 dB 3:50 04-Sad Eyes
DR7 -0.10 dB -9.17 dB 4:00 05-My Lover Man
DR11 -0.10 dB -12.74 dB 2:40 06-Over the Rise
DR10 -0.09 dB -12.42 dB 3:08 07-When the Lights Go Out
DR9 -0.12 dB -11.79 dB 4:22 08-Loose Change
DR8 -0.08 dB -9.98 dB 4:43 09-Trouble in Paradise
DR9 -0.13 dB -11.14 dB 4:55 10-Happy
DR9 -0.09 dB -10.55 dB 4:31 11-Part Man, Part Monkey
DR11 -0.41 dB -12.61 dB 3:04 12-Goin' Cali
DR8 -0.09 dB -10.06 dB 4:43 13-Back in Your Arms
DR8 -0.10 dB -10.65 dB 4:55 14-Brothers Under the Bridge
––––––––––––––––––––––––––––––––––––––––

Number of tracks: 66
Official DR value: DR9

Samplerate: 44100 Hz
Channels: 2
Bits per sample: 24
Bitrate: 1454 kbps
Codec: FLAC
================================================================================


Thanks to the Original customer!