Dennis Coffey - Instant Coffey (1974/2017) [Official Digital Download 24-bit/96kHz]

Posted By: HDV
Dennis Coffey - Instant Coffey (1974/2017) [Official Digital Download 24-bit/96kHz]

Dennis Coffey - Instant Coffey (1974/2017)
FLAC (tracks) 24-bit/96 kHz | Time - 44:40 minutes | 954 MB
Studio Master, Official Digital Download | Artwork: Front cover

Dennis Coffey is best-known for his 1971 Top 10 hit Scorpio, but his career spans far-beyond the reaches of just one song. His 1974 "Instant Coffey" wasn't a commercial success but continued to champion the sound of Detroit funk.

Dennis Coffey shifts gears with Instant Coffey, belying the record's title with his most ambitious outing to date. If anything, the album is at times too labored for its own good. The 11-minute opener, "Sonata," suffers from its epic pretensions and overwrought string arrangement, although its sinuously funky bridge calls to mind the kinetic energy of Coffey's strongest efforts. "Chicano" likewise benefits from the kind of mind-warping wah-wah guitar Coffey first introduced as a session player on Temptations classics like "Cloud Nine" and "Ball of Confusion," while a superb reading of Lalo Schifrin's "Theme from 'Enter the Dragon'" emphasizes Coffey's skills as an arranger, giving the composition some serious oomph with a thick, richly textured bassline. Best of all is "Outrageous (The Mind Excursion)," a wave of Funkadelic-inspired cosmic slop.

Tracklist:

01 - Sonata
02 - Moon Star
03 - Theme From Enter The Dragon
04 - Chicano
05 - A Time For Love
06 - Kathy
07 - Outrageous (The Mind Excursion)

Recorded at Crystal Sound by Andrew Berliner.

Analyzed: Dennis Coffey / Instant Coffey
––––––––––––––––––––––––––––––––––––––––

DR Peak RMS Duration Track
––––––––––––––––––––––––––––––––––––––––
DR10 -1.21 dB -13.00 dB 11:15 01-Sonata
DR13 -1.21 dB -18.45 dB 7:23 02-Moon Star
DR12 -1.21 dB -15.94 dB 3:13 03-Theme From Enter The Dragon
DR12 -1.21 dB -16.10 dB 5:12 04-Chicano
DR13 -1.21 dB -18.18 dB 6:09 05-A Time For Love
DR13 -1.21 dB -16.64 dB 3:53 06-Kathy
DR12 -1.21 dB -15.93 dB 7:35 07-Outrageous (The Mind Excursion)
––––––––––––––––––––––––––––––––––––––––

Number of tracks: 7
Official DR value: DR12

Samplerate: 96000 Hz
Channels: 2
Bits per sample: 24
Bitrate: 2889 kbps
Codec: FLAC
================================================================================


Thanks to the Original customer!

Dennis Coffey - Hot Coffey In DSD128