Johnny Cash - I Walk The Line (1964) [MFSL 2020] PS3 ISO + Hi-Res FLAC

Posted By: HDAtall
Johnny Cash - I Walk The Line (1964) [MFSL 2020] PS3 ISO + Hi-Res FLAC

Johnny Cash - I Walk The Line (1964) [MFSL 2020]
PS3 Rip | SACD ISO | DSD64 2.0 > 1-bit/2.8224 MHz | 32:30 minutes | Scans included | 465 MB
or FLAC (converted with foobar2000 to tracks) 24bit/96 kHz | Full Scans included | 384 MB
MONO | Mobile Fidelity Sound Lab # UDSACD 2197 Monoural

Originally released in 1964 on Columbia, produced by fellow Country Music Hall of Fame inductee Don Law, and featuring note-for-note re-recordings of several staples Johnny Cash made for Sun Records – including the title track, "Hey Porter", and "Big River" – as well as several new originals, I Walk the Line cemented the singer's place as the leading country artist of the era. Indeed, as the original liner notes state, "I Walk the Line offers Johnny Cash, renowned storyteller-in-song, at his creative and performing best". The album was certified Gold by the RIAA in 1967.

Now, for the first time in more than five decades, you can experience it in true-to-the-source mono courtesy of Mobile Fidelity's meticulously restored reissue. Mastered from the original mono master tapes and limited to 2,500 numbered copies, the audiophile label's hyper-clear disc broadcasts the inimitable sonics of the Man in Black's cut-from-bedrock baritone, earnest acoustic strumming, and hand-in-glove band with utmost clarity, directness, and realism.

Much has been rightly made about the sparse, deceivingly simple boom-chicka-boom sound of Cash's righthand men, otherwise known as the Tennessee Three: bassist Marshall Grant, guitarist Luther Perkins, and drummer W.S. "Fluke" Holland. On this collectible edition of I Walk the Line, the trio's steady, fundamental rhythms and fresh, driving beats resonate with a presence, solidity, and immediacy unavailable on any other Cash recording. Such are the advantages associated with going back to mono, which gets right to the core of the rough-and-tumble country tenor of songs such as "Folsom Prison Blues" and "I Walk the Line."

Tracklist:

01. I Walk The Line
02. Bad News
03. Folsom Prison Blues
04. Give My Love To Rose
05. Hey Porter
06. I Still Miss Someone
07. Understand Your Man
08. The Wreck Of The Old 97
09. Still In Town
10. Big River
11. Goodbye Little Darlin' Goodbye
12. Troublesome Waters

Mastered by Shawn R. Britton at Mobile Fidelity Sound Lab, Sebastopol, CA.

foobar2000 1.6 / Dynamic Range Meter 1.1.1

––––––––––––––––––––––––––––––––––––––––
Analyzed: Johnny Cash / I Walk The Line
––––––––––––––––––––––––––––––––––––––––

DR Peak RMS Duration Track
––––––––––––––––––––––––––––––––––––––––
DR12 -5.71 dB -18.82 dB 2:34 01-I Walk The Line
DR12 -6.36 dB -19.85 dB 2:55 02-Bad News
DR13 -6.45 dB -20.64 dB 2:35 03-Folsom Prison Blues
DR12 -5.98 dB -20.39 dB 2:20 04-Give My Love To Rose
DR12 -6.10 dB -19.45 dB 2:19 05-Hey Porter
DR12 -6.44 dB -20.51 dB 3:08 06-I Still Miss Someone
DR12 -7.80 dB -21.10 dB 2:42 07-Understand Your Man
DR12 -5.92 dB -19.30 dB 2:46 08-The Wreck Of The Old 97
DR11 -8.16 dB -20.97 dB 2:36 09-Still In Town
DR12 -6.51 dB -19.75 dB 2:18 10-Big River
DR12 -5.94 dB -19.78 dB 2:24 11-Goodbye Little Darlin' Goodbye
DR11 -5.88 dB -19.37 dB 3:52 12-Troublesome Waters
––––––––––––––––––––––––––––––––––––––––

Number of tracks: 12
Official DR value: DR12

Samplerate: 2822400 Hz / PCM Samplerate: 176400 Hz
Channels: 2
Bits per sample: 1
Bitrate: 5645 kbps
Codec: DSD64


Thanks to PS³SACD!
Uncompressed SACD ISO size > 1,33 GB
>