Subcategories

Black Sabbath: Collection (1970-2013) [21CD, Japanese Ed.]

Posted By: v3122
Black Sabbath: Collection (1970-2013) [21CD, Japanese Ed.]

Black Sabbath: Collection (1970-2013)
EAC | Flac(Image) + Cue + Log & MP3 CBR 320Kbps
21CD | Label: Various | ~ 6594 or 2866 Mb | Artwork(png) -> 851 Mb
Hard Rock / Classic Rock / Heavy Metal

Considered by many to be the first heavy metal band, Black Sabbath was formed in 1968 by Tony Iommi, Ozzy Osbourne, Geezer Butler and Bill Ward.
The band's original name was the Polka Tulk Blues Band (later shortened to Polka Tulk) and later on changed to Earth before becoming Black Sabbath inspired by an Italian horror movie of the same name.
The original line-up lasted until 1979, after which Osbourne was fired and replaced by Ronnie James Dio. The line-up changes would continue, with no line-up remaining intact for consecutive studio releases. Throughout the changes, only Tony Iommi and keyboardist Geoff Nicholls, who also joined the band in 1979, would remain with Black Sabbath, although Nicholls would not always be credited as a full member. In 1997, Iommi, Butler, Ward, and Osbourne reunited, touring and releasing a live album in 1998, although a long-rumored studio release did not appear (the group attempted to record a new album in 2001 with producer Rick Rubin but the sessions were scrapped). After that, the group periodically reunited to tour with Ozzy's "Ozzfest" tour. In 2004, longtime keyboardist Geoff Nicholls was replaced by Adam Wakeman for an Ozzfest tour. No reason was given for the replacement. In 2006, the original line-up was inducted into the Rock 'n' Roll Hall Of Fame.

In 2007, Tony Iommi, Geezer Butler, Ronnie James Dio, and drummer Vinny Appice (who were featured on 1981's "Mob Rules" and 1992's "Dehumanizer") announced that they would tour together as Heaven & Hell (with Iommi, who owns the Black Sabbath name, deciding to keep the Black Sabbath name solely for the original line-up in light of their Rock 'n' Roll HOF induction) to support a Dio-era greatest hits release, which also featured 3 new Dio/Iommi compositions. A brand new live album was released under the Heaven & Hell name that same year, followed by a studio album in 2009.

In 2009, Osbourne sued Iommi over control of the Black Sabbath name. The lawsuit was settled the following year. In late 2011, it was announced that the original line-up would be recording and touring. Shortly, afterward, Bill Ward dropped out, stating he had been given a contract that was "unsignable". The three remaining members opted to continue without him. In 2013, the band released "13", their first studio album with Osbourne in 34 years. The band played their final live show in Birmingham, UK, on February 4, 2017. Although the band has announced that full-scale touring is done, Tony Iommi has stated that the door is still open for future music and possible live appearances.

Line-Ups:
Guitar:
Tony Iommi - 1968-2017

Vocals:
Ozzy Osbourne - 1968-1977, 1978-1979, 1997-2017
Dave Walker - 1977-1978 (rehearsals and a TV appearance only)
Ronnie James Dio - 1979-1982, 1991-1992
Ian Gillan - 1983-1984
Glenn Hughes - 1985-1986
Ray Gillen - 1986-1987 (live only)
Tony Martin - 1987-1991, 1993-1996

Bass:
Geezer Butler - 1968-1984, 1991-1994, 1997-2017
Craig Gruber - 1979 (rehearsals only while Butler contemplated leaving the band, the extent of his participation has been disputed)
Gordon Copley -1985 (rehearsals and one studio track only)
Dave "The Beast" Spitz - 1985-1986, 1987 (live appearances only in 1987)
Bob Daisley - 1987 (studio only)
Jo Bert - 1987 (live only)
Laurence Cottle - 1988 (studio only)
Neil Murray - 1989-1992, 1995-1996

Drums:
Bill Ward - 1968-1980, 1983 (studio only in 1983), 1994 (live appearances), 1997-2011
Vinny Appice - 1981-1982, 1991-1992, 1998 (live only in 1998, filling in for a sick Bill Ward)
Bev Bevan - 1983-1984, 1987 (live only)
Eric Singer - 1985-1987
Terry Chimes - 1987-1988 (live only)
Cozy Powell - 1988-1991, 1994-1995
Bobby Rondinelli - 1993-1994, 1995 (live appearances only in 1995)
Mike Bordin - 1997 (live only, not a full member)
Brad Wilk - 2013 (studio only, not a full member)
Tommy Clufetos - 2012-2017 (live only, not a full member)

Keyboards:
Rick Wakeman - 1973 (studio only, not a full member)
Jezz Woodruffe - ?-1977 (not a full member)
Don Airey - 1978 (not a full member)
Geoff Nicholls - 1979-2004
Adam Wakeman - 2004-2017 (live only, not a full member)

~ discogs
Black Sabbath: Collection (1970-2013) [21CD, Japanese Ed.]

Black Sabbath: Collection (1970-2013):

Black Sabbath: Collection (1970-2013) [21CD, Japanese Ed.]

Tracklist CD01. 1970 Black Sabbath [1991 Japan TECP-23892 Teichiku]:

01. Black Sabbath - 6:20
02. The Wizard - 4:23
03. Behind The Wall Of Sleep - 3:38
04. N.I.B. - 6:06
05. Evil Woman (Don't Play Your Games With Me) - 3:26
06. Sleeping Village - 3:47
07. Warning - 10:31
08. Wicked World - 4:47

Exact Audio Copy V1.0 beta 3 from 29. August 2011

EAC extraction logfile from 22. February 2014, 12:55

Black Sabbath / Black Sabbath (TECP-23892)

Used drive : BUFFALO Optical Drive Adapter: 2 ID: 0

Read mode : Secure
Utilize accurate stream : Yes
Defeat audio cache : Yes
Make use of C2 pointers : No

Read offset correction : 6
Overread into Lead-In and Lead-Out : No
Fill up missing offset samples with silence : Yes
Delete leading and trailing silent blocks : No
Null samples used in CRC calculations : Yes
Used interface : Installed external ASPI interface

Used output format : User Defined Encoder
Selected bitrate : 1024 kBit/s
Quality : High
Add ID3 tag : No
Command line compressor : C:\Program Files\Exact Audio Copy\Flac\flac.exe
Additional command line options : -8 -V %source% -o %dest%


TOC of the extracted CD

Track | Start | Length | Start sector | End sector
––––––––––––––––––––––––––––-
1 | 0:00.00 | 6:20.22 | 0 | 28521
2 | 6:20.22 | 4:23.10 | 28522 | 48256
3 | 10:43.32 | 3:37.63 | 48257 | 64594
4 | 14:21.20 | 6:06.15 | 64595 | 92059
5 | 20:27.35 | 3:25.40 | 92060 | 107474
6 | 23:53.00 | 3:46.40 | 107475 | 124464
7 | 27:39.40 | 10:31.02 | 124465 | 171791
8 | 38:10.42 | 4:46.40 | 171792 | 193281


Range status and errors

Selected range

Filename C:\Black Sabbath - Black Sabbath (TECP-23892).wav

Peak level 97.9 %
Extraction speed 4.5 X
Range quality 100.0 %
Test CRC F09D2F28
Copy CRC F09D2F28
Copy OK

No errors occurred


AccurateRip summary

Track 1 accurately ripped (confidence 1) [225622E3] (AR v1)
Track 2 accurately ripped (confidence 1) [D0B5F358] (AR v1)
Track 3 accurately ripped (confidence 1) [18CB98B5] (AR v1)
Track 4 accurately ripped (confidence 1) [A71AD4F8] (AR v1)
Track 5 accurately ripped (confidence 1) [2547349F] (AR v1)
Track 6 accurately ripped (confidence 1) [8346A799] (AR v1)
Track 7 accurately ripped (confidence 1) [7DA93653] (AR v1)
Track 8 accurately ripped (confidence 1) [B4B67FC1] (AR v1)

All tracks accurately ripped

End of status report

==== Log checksum 5CCA928D053A9A9E893A8AC3365B5DD1D79BF18EB2931A426122C44103224EC7 ====


Black Sabbath: Collection (1970-2013) [21CD, Japanese Ed.]

Tracklist CD02. 1970 Paranoid [1991 Japan TECP-23893 Teichiku]:

01. War Pigs - 7:58
02. Paranoid - 2:53
03. Planet Caravan - 4:34
04. Iron Man - 5:58
05. Electric Funeral - 4:53
06. Hand of Doom - 7:08
07. Rat Salad - 2:31
08. Fairies Wear Boots - 6:14

Exact Audio Copy V1.0 beta 3 from 29. August 2011

EAC extraction logfile from 22. February 2014, 13:28

Black Sabbath / Paranoid (TECP-23893)

Used drive : BUFFALO Optical Drive Adapter: 2 ID: 0

Read mode : Secure
Utilize accurate stream : Yes
Defeat audio cache : Yes
Make use of C2 pointers : No

Read offset correction : 6
Overread into Lead-In and Lead-Out : No
Fill up missing offset samples with silence : Yes
Delete leading and trailing silent blocks : No
Null samples used in CRC calculations : Yes
Used interface : Installed external ASPI interface

Used output format : User Defined Encoder
Selected bitrate : 1024 kBit/s
Quality : High
Add ID3 tag : No
Command line compressor : C:\Program Files\Exact Audio Copy\Flac\flac.exe
Additional command line options : -8 -V %source% -o %dest%


TOC of the extracted CD

Track | Start | Length | Start sector | End sector
––––––––––––––––––––––––––––-
1 | 0:00.00 | 7:58.37 | 0 | 35886
2 | 7:58.37 | 2:52.65 | 35887 | 48851
3 | 10:51.27 | 4:33.50 | 48852 | 69376
4 | 15:25.02 | 5:57.65 | 69377 | 96216
5 | 21:22.67 | 4:52.48 | 96217 | 118164
6 | 26:15.40 | 7:07.65 | 118165 | 150254
7 | 33:23.30 | 2:31.17 | 150255 | 161596
8 | 35:54.47 | 6:14.20 | 161597 | 189666


Range status and errors

Selected range

Filename C:\Black Sabbath - Paranoid (TECP-23893).wav

Peak level 98.1 %
Extraction speed 4.5 X
Range quality 100.0 %
Test CRC B0B5F5BD
Copy CRC B0B5F5BD
Copy OK

No errors occurred


AccurateRip summary

Track 1 accurately ripped (confidence 2) [DEDF031E] (AR v2)
Track 2 accurately ripped (confidence 2) [8F7900AC] (AR v2)
Track 3 accurately ripped (confidence 2) [C16D490F] (AR v2)
Track 4 accurately ripped (confidence 2) [2133A363] (AR v2)
Track 5 accurately ripped (confidence 2) [0267D57D] (AR v2)
Track 6 accurately ripped (confidence 2) [C4178AF1] (AR v2)
Track 7 accurately ripped (confidence 2) [3C3C75E1] (AR v2)
Track 8 accurately ripped (confidence 2) [46E54A87] (AR v2)

All tracks accurately ripped

End of status report

==== Log checksum 18AAB6F89AB6244C12158AF9D8757DC80F4D4E42916D4019EBCB1BA154993517 ====


Black Sabbath: Collection (1970-2013) [21CD, Japanese Ed.]

Tracklist CD03. 1971 Master Of Reality [1991 Japan TECP-23938 Teichiku]:

01. Sweet Leaf - 5:06
02. After Forever - 5:27
03. Embryo - 0:28
04. Children Of The Grave - 5:17
05. Orchid - 1:31
06. Lord Of This World - 5:27
07. Solitude - 5:02
08. Into The Void - 6:13

Exact Audio Copy V1.0 beta 4 from 7. December 2014

EAC extraction logfile from 14. September 2015, 22:57

Black Sabbath / Master Of Reality (TECP-23938)

Used drive : HL-DT-STDVDRAM GSA-T10N Adapter: 1 ID: 0

Read mode : Secure
Utilize accurate stream : Yes
Defeat audio cache : Yes
Make use of C2 pointers : No

Read offset correction : 667
Overread into Lead-In and Lead-Out : No
Fill up missing offset samples with silence : Yes
Delete leading and trailing silent blocks : No
Null samples used in CRC calculations : Yes
Used interface : Native Win32 interface for Win NT & 2000

Used output format : User Defined Encoder
Selected bitrate : 1024 kBit/s
Quality : High
Add ID3 tag : No
Command line compressor : C:\Program Files\Exact Audio Copy\Flac\flac.exe
Additional command line options : -8 -V %source% -o %dest%


TOC of the extracted CD

Track | Start | Length | Start sector | End sector
––––––––––––––––––––––––––––-
1 | 0:00.00 | 5:05.57 | 0 | 22931
2 | 5:05.57 | 5:26.63 | 22932 | 47444
3 | 10:32.45 | 0:28.10 | 47445 | 49554
4 | 11:00.55 | 5:17.10 | 49555 | 73339
5 | 16:17.65 | 1:31.02 | 73340 | 80166
6 | 17:48.67 | 5:26.53 | 80167 | 104669
7 | 23:15.45 | 5:02.02 | 104670 | 127321
8 | 28:17.47 | 6:13.28 | 127322 | 155324


Range status and errors

Selected range

Filename C:\Black Sabbath - Master Of Reality (TECP-23938).wav

Peak level 94.3 %
Extraction speed 3.6 X
Range quality 100.0 %
Test CRC 6425A8C7
Copy CRC 6425A8C7
Copy OK

No errors occurred


AccurateRip summary

Track 1 accurately ripped (confidence 1) [E5E70273] (AR v2)
Track 2 accurately ripped (confidence 1) [958D2C33] (AR v2)
Track 3 accurately ripped (confidence 1) [8D6D5386] (AR v2)
Track 4 accurately ripped (confidence 1) [671E0ECB] (AR v2)
Track 5 accurately ripped (confidence 1) [52469A21] (AR v2)
Track 6 accurately ripped (confidence 1) [C9A3C49F] (AR v2)
Track 7 accurately ripped (confidence 1) [71BD14F8] (AR v2)
Track 8 accurately ripped (confidence 1) [285420A8] (AR v2)

All tracks accurately ripped

End of status report

–– CUETools DB Plugin V2.1.4

[CTDB TOCID: Tqvglpmyh88vciwNMlMJZ_VFiCY-] found
Submit result: Tqvglpmyh88vciwNMlMJZ_VFiCY- has been confirmed
Track | CTDB Status
1 | (1/1) Accurately ripped
2 | (1/1) Accurately ripped
3 | (1/1) Accurately ripped
4 | (1/1) Accurately ripped
5 | (1/1) Accurately ripped
6 | (1/1) Accurately ripped
7 | (1/1) Accurately ripped
8 | (1/1) Accurately ripped


==== Log checksum 7727A8E071C4CAA583CF9252695704BB17E267D9BBF33C22DCA566CA4D95B504 ====


Black Sabbath: Collection (1970-2013) [21CD, Japanese Ed.]

Tracklist CD04. 1972 Volume 4 [1991 Japan TECP-23894 Teichiku]:

01. Wheels Of Confusion - 8:03
02. Tomorrows Dream - 3:13
03. Changes - 4:46
04. FX - 1:43
05. Supernaut - 4:40
06. Snowblind - 5:34
07. Cornucopia - 3:55
08. Laguna Sunrise - 2:56
09. ST.Vitus Dance - 2:30
10. Under The Sun - 5:53

Exact Audio Copy V1.0 beta 4 from 7. December 2014

EAC extraction logfile from 14. September 2015, 23:39

Black Sabbath / Vol.4 (TECP-23894)

Used drive : HL-DT-STDVDRAM GSA-T10N Adapter: 1 ID: 0

Read mode : Secure
Utilize accurate stream : Yes
Defeat audio cache : Yes
Make use of C2 pointers : No

Read offset correction : 667
Overread into Lead-In and Lead-Out : No
Fill up missing offset samples with silence : Yes
Delete leading and trailing silent blocks : No
Null samples used in CRC calculations : Yes
Used interface : Native Win32 interface for Win NT & 2000

Used output format : User Defined Encoder
Selected bitrate : 1024 kBit/s
Quality : High
Add ID3 tag : No
Command line compressor : C:\Program Files\Exact Audio Copy\Flac\flac.exe
Additional command line options : -8 -V %source% -o %dest%


TOC of the extracted CD

Track | Start | Length | Start sector | End sector
––––––––––––––––––––––––––––-
1 | 0:00.00 | 8:02.58 | 0 | 36207
2 | 8:02.58 | 3:13.15 | 36208 | 50697
3 | 11:15.73 | 4:45.60 | 50698 | 72132
4 | 16:01.58 | 1:43.35 | 72133 | 79892
5 | 17:45.18 | 4:39.57 | 79893 | 100874
6 | 22:25.00 | 5:33.70 | 100875 | 125919
7 | 27:58.70 | 3:54.63 | 125920 | 143532
8 | 31:53.58 | 2:56.25 | 143533 | 156757
9 | 34:50.08 | 2:29.65 | 156758 | 167997
10 | 37:19.73 | 5:52.67 | 167998 | 194464


Range status and errors

Selected range

Filename C:\Black Sabbath - Vol.4 (TECP-23894).wav

Peak level 97.8 %
Extraction speed 3.7 X
Range quality 100.0 %
Test CRC 9E1C2C1B
Copy CRC 9E1C2C1B
Copy OK

No errors occurred


AccurateRip summary

Track 1 accurately ripped (confidence 1) [255B1735] (AR v2)
Track 2 accurately ripped (confidence 1) [EA3C7B8C] (AR v2)
Track 3 accurately ripped (confidence 1) [2D9AC515] (AR v2)
Track 4 accurately ripped (confidence 1) [07A984BA] (AR v2)
Track 5 accurately ripped (confidence 1) [D35D4498] (AR v1)
Track 6 accurately ripped (confidence 1) [9338B630] (AR v1)
Track 7 accurately ripped (confidence 1) [C291D0EE] (AR v2)
Track 8 accurately ripped (confidence 1) [CF593C61] (AR v2)
Track 9 accurately ripped (confidence 1) [563F3427] (AR v2)
Track 10 accurately ripped (confidence 1) [8D694164] (AR v2)

All tracks accurately ripped

End of status report

–– CUETools DB Plugin V2.1.4

[CTDB TOCID: cvzaarr18f51EW5d4i9PSZIul80-] disk not present in database
Submit result: cvzaarr18f51EW5d4i9PSZIul80- has been uploaded


==== Log checksum C683A605816598E414EB06D6FEF5294CDF2005F5B68E305ADB878F5FE24947C0 ====


Black Sabbath: Collection (1970-2013) [21CD, Japanese Ed.]

Tracklist CD05. 1973 Sabbath Bloody Sabbath [1991 Japan TECP-23937 Teichiku]:

01. Sabbath Bloody Sabbath - 5:46
02. A National Acrobat - 6:17
03. Fluff - 4:14
04. Sabbra Cadabra - 6:01
05. Killing Yourself To Live - 5:41
06. Who Are You - 4:12
07. Looking For Today - 5:06
08. Spiral Architect - 5:30

Exact Audio Copy V1.0 beta 4 from 7. December 2014

EAC extraction logfile from 16. September 2015, 22:28

Black Sabbath / Sabbath Bloody Sabbath (TECP-23937)

Used drive : HL-DT-STDVDRAM GSA-T10N Adapter: 1 ID: 0

Read mode : Secure
Utilize accurate stream : Yes
Defeat audio cache : Yes
Make use of C2 pointers : No

Read offset correction : 667
Overread into Lead-In and Lead-Out : No
Fill up missing offset samples with silence : Yes
Delete leading and trailing silent blocks : No
Null samples used in CRC calculations : Yes
Used interface : Native Win32 interface for Win NT & 2000

Used output format : User Defined Encoder
Selected bitrate : 1024 kBit/s
Quality : High
Add ID3 tag : No
Command line compressor : C:\Program Files\Exact Audio Copy\Flac\flac.exe
Additional command line options : -8 -V %source% -o %dest%


TOC of the extracted CD

Track | Start | Length | Start sector | End sector
––––––––––––––––––––––––––––-
1 | 0:00.00 | 5:45.72 | 0 | 25946
2 | 5:45.72 | 6:16.65 | 25947 | 54211
3 | 12:02.62 | 4:13.55 | 54212 | 73241
4 | 16:16.42 | 6:00.68 | 73242 | 100309
5 | 22:17.35 | 5:41.02 | 100310 | 125886
6 | 27:58.37 | 4:11.48 | 125887 | 144759
7 | 32:10.10 | 5:06.17 | 144760 | 167726
8 | 37:16.27 | 5:30.10 | 167727 | 192486


Range status and errors

Selected range

Filename C:\Black Sabbath - Sabbath Bloody Sabbath (TECP-23937).wav

Peak level 99.7 %
Extraction speed 3.8 X
Range quality 100.0 %
Test CRC B3F39380
Copy CRC B3F39380
Copy OK

No errors occurred


AccurateRip summary

Track 1 not present in database
Track 2 not present in database
Track 3 not present in database
Track 4 not present in database
Track 5 not present in database
Track 6 not present in database
Track 7 not present in database
Track 8 not present in database

None of the tracks are present in the AccurateRip database

End of status report

–– CUETools DB Plugin V2.1.4

[CTDB TOCID: HM2YChdDBCRWguNjMW2WQlRQqjY-] found
Submit result: HM2YChdDBCRWguNjMW2WQlRQqjY- has been confirmed
Track | CTDB Status
1 | (3/3) Accurately ripped
2 | (3/3) Accurately ripped
3 | (3/3) Accurately ripped
4 | (3/3) Accurately ripped
5 | (3/3) Accurately ripped
6 | (3/3) Accurately ripped
7 | (3/3) Accurately ripped
8 | (3/3) Accurately ripped


==== Log checksum C2613977C52EE4E9DA6BBF7C20F91BD1EF4EA38A2F2113DFB5DAF605E71A125C ====


Black Sabbath: Collection (1970-2013) [21CD, Japanese Ed.]

Tracklist CD06. 1975 Sabotage [1991 Japan TECP-23939 Teichiku]:

01. Hole In The Sky - 4:00
02. Don't Start (Too Late) - 0:49
03. Symptom Of The Universe - 6:29
04. Meglomania - 9:42
05. Thrill Of It All - 5:56
06. Supertzar - 3:44
07. Am I Going Insane (Radio) - 4:10
08. The Writ - 8:18

Exact Audio Copy V1.0 beta 4 from 7. December 2014

EAC extraction logfile from 16. September 2015, 23:20

Black Sabbath / Sabotage (TECP-23939)

Used drive : HL-DT-STDVDRAM GSA-T10N Adapter: 1 ID: 0

Read mode : Secure
Utilize accurate stream : Yes
Defeat audio cache : Yes
Make use of C2 pointers : No

Read offset correction : 667
Overread into Lead-In and Lead-Out : No
Fill up missing offset samples with silence : Yes
Delete leading and trailing silent blocks : No
Null samples used in CRC calculations : Yes
Used interface : Native Win32 interface for Win NT & 2000

Used output format : User Defined Encoder
Selected bitrate : 1024 kBit/s
Quality : High
Add ID3 tag : No
Command line compressor : C:\Program Files\Exact Audio Copy\Flac\flac.exe
Additional command line options : -8 -V %source% -o %dest%


TOC of the extracted CD

Track | Start | Length | Start sector | End sector
––––––––––––––––––––––––––––-
1 | 0:00.00 | 4:00.02 | 0 | 18001
2 | 4:00.02 | 0:49.33 | 18002 | 21709
3 | 4:49.35 | 6:29.17 | 21710 | 50901
4 | 11:18.52 | 9:41.73 | 50902 | 94549
5 | 21:00.50 | 5:55.52 | 94550 | 121226
6 | 26:56.27 | 3:43.68 | 121227 | 138019
7 | 30:40.20 | 4:10.10 | 138020 | 156779
8 | 34:50.30 | 8:18.00 | 156780 | 194129


Range status and errors

Selected range

Filename C:\Black Sabbath - Sabotage (TECP-23939).wav

Peak level 94.1 %
Extraction speed 3.8 X
Range quality 100.0 %
Test CRC 82A2C8F0
Copy CRC 82A2C8F0
Copy OK

No errors occurred


AccurateRip summary

Track 1 not present in database
Track 2 not present in database
Track 3 not present in database
Track 4 not present in database
Track 5 not present in database
Track 6 not present in database
Track 7 not present in database
Track 8 not present in database

None of the tracks are present in the AccurateRip database

End of status report

–– CUETools DB Plugin V2.1.4

[CTDB TOCID: qBWAaKmMr_r5rx1S8cx6Sg.vz6E-] disk not present in database
Submit result: qBWAaKmMr_r5rx1S8cx6Sg.vz6E- has been uploaded


==== Log checksum A68C5CF33D8D91DFA3B398E1BEBB686609AF852E74D36D124DE41908ED89AD53 ====


Black Sabbath: Collection (1970-2013) [21CD, Japanese Ed.]

Tracklist CD07. 1978 Never Say Die! [1990 Japan PHCR-2053 Vertigo]:

01. Never Say Die - 3:51
02. Johnny Blade - 6:29
03. Junior's Eyes - 6:43
04. A Hard Road - 6:03
05. Shock Wave - 5:16
06. Air Dance - 5:17
07. Over To You - 5:23
08. Breakout - 2:36
09. Swinging The Chain - 4:16

Exact Audio Copy V0.99 prebeta 4 from 23. January 2008

EAC extraction logfile from 29. April 2011, 0:28

Black Sabbath / Never Say Die (PHCR-2053)

Used drive : PLEXTOR DVDR PX-760A Adapter: 0 ID: 0

Read mode : Secure
Utilize accurate stream : Yes
Defeat audio cache : Yes
Make use of C2 pointers : No

Read offset correction : 30
Overread into Lead-In and Lead-Out : No
Fill up missing offset samples with silence : Yes
Delete leading and trailing silent blocks : No
Null samples used in CRC calculations : Yes
Used interface : Installed external ASPI interface

Used output format : Internal WAV Routines
Sample format : 44.100 Hz; 16 Bit; Stereo


TOC of the extracted CD

Track | Start | Length | Start sector | End sector
––––––––––––––––––––––––––––-
1 | 0:00.37 | 3:50.55 | 37 | 17341
2 | 3:51.17 | 6:29.10 | 17342 | 46526
3 | 10:20.27 | 6:43.10 | 46527 | 76761
4 | 17:03.37 | 6:03.10 | 76762 | 103996
5 | 23:06.47 | 5:15.68 | 103997 | 127689
6 | 28:22.40 | 5:17.12 | 127690 | 151476
7 | 33:39.52 | 5:23.18 | 151477 | 175719
8 | 39:02.70 | 2:35.67 | 175720 | 187411
9 | 41:38.62 | 4:15.40 | 187412 | 206576


Range status and errors

Selected range

Filename D:\bki71\Black Sabbath - Never Say Die (PHCR-2053).wav

Peak level 100.0 %
Range quality 100.0 %
Test CRC 88B304C1
Copy CRC 88B304C1
Copy OK

No errors occurred


AccurateRip summary

Track 1 accurately ripped (confidence 1) [6C525695]
Track 2 accurately ripped (confidence 1) [0242588C]
Track 3 accurately ripped (confidence 1) [08DEB7AD]
Track 4 accurately ripped (confidence 1) [C4B2EA26]
Track 5 accurately ripped (confidence 1) [B6394B9D]
Track 6 accurately ripped (confidence 1) [18820BF9]
Track 7 accurately ripped (confidence 1) [753F9C76]
Track 8 accurately ripped (confidence 1) [E207601B]
Track 9 accurately ripped (confidence 1) [6016685F]

All tracks accurately ripped

End of status report


Black Sabbath: Collection (1970-2013) [21CD, Japanese Ed.]

Tracklist CD08. 1980 Heaven And Hell [1986 Japan 32PD-129 Vertigo]:

01. Neon Knights - 3:54
02. Children Of The Sea - 5:36
03. Lady Evil - 4:27
04. Heaven And Hell - 6:59
05. Wishing Well - 4:07
06. Die Young - 4:46
07. Walk Away - 4:26
08. Lonely Is The Word - 5:48

Exact Audio Copy V1.0 beta 3 from 29. August 2011

EAC extraction logfile from 13. May 2014, 23:41

Black Sabbath / Heaven And Hell (32PD-129)

Used drive : BUFFALO Optical Drive Adapter: 2 ID: 0

Read mode : Secure
Utilize accurate stream : Yes
Defeat audio cache : Yes
Make use of C2 pointers : No

Read offset correction : 6
Overread into Lead-In and Lead-Out : No
Fill up missing offset samples with silence : Yes
Delete leading and trailing silent blocks : No
Null samples used in CRC calculations : Yes
Used interface : Installed external ASPI interface

Used output format : User Defined Encoder
Selected bitrate : 1024 kBit/s
Quality : High
Add ID3 tag : No
Command line compressor : C:\Program Files\Exact Audio Copy\Flac\flac.exe
Additional command line options : -8 -V %source% -o %dest%


TOC of the extracted CD

Track | Start | Length | Start sector | End sector
––––––––––––––––––––––––––––-
1 | 0:00.37 | 3:53.45 | 37 | 17556
2 | 3:54.07 | 5:35.48 | 17557 | 42729
3 | 9:29.55 | 4:26.42 | 42730 | 62721
4 | 13:56.22 | 6:59.05 | 62722 | 94151
5 | 20:55.27 | 4:06.65 | 94152 | 112666
6 | 25:02.17 | 4:45.38 | 112667 | 134079
7 | 29:47.55 | 4:25.40 | 134080 | 153994
8 | 34:13.20 | 5:48.25 | 153995 | 180119


Range status and errors

Selected range

Filename C:\Black Sabbath - Heaven And Hell (32PD-129).wav

Peak level 100.0 %
Extraction speed 4.4 X
Range quality 100.0 %
Test CRC 3E1119FA
Copy CRC 3E1119FA
Copy OK

No errors occurred


AccurateRip summary

Track 1 accurately ripped (confidence 1) [30655919] (AR v2)
Track 2 accurately ripped (confidence 1) [E58FB1AB] (AR v2)
Track 3 accurately ripped (confidence 1) [7853A35A] (AR v2)
Track 4 accurately ripped (confidence 1) [FD42E2BF] (AR v2)
Track 5 accurately ripped (confidence 1) [CE162CA5] (AR v2)
Track 6 accurately ripped (confidence 1) [091F2256] (AR v2)
Track 7 accurately ripped (confidence 1) [FAEF7ABE] (AR v2)
Track 8 accurately ripped (confidence 1) [78BD88CC] (AR v2)

All tracks accurately ripped

End of status report

==== Log checksum 6515D321D1D909B879DA4B400BD9DB293C3A3529E48FC9888F575F540018B237 ====


Black Sabbath: Collection (1970-2013) [21CD, Japanese Ed.]

Tracklist CD09. 1980 Heaven And Hell [1989 Japan 23PD-123 Vertigo]:

01. Neon Knights - 3:53
02. Children Of The Sea - 5:35
03. Lady Evil - 4:25
04. Heaven And Hell - 6:59
05. Wishing Well - 4:07
06. Die Young - 4:46
07. Walk Away - 4:26
08. Lonely Is The Word - 5:51

Exact Audio Copy V0.99 prebeta 4 from 23. January 2008

Отчёт EAC об извлечении, выполненном 29. января 2011, 18:01

Black Sabbath / Heaven And Hell (23PD-123)

Дисковод: PLEXTOR DVDR PX-760A Adapter: 0 ID: 0

Режим чтения : Достоверность
Использование точного потока : Да
Отключение кэша аудио : Да
Использование указателей C2 : Нет

Коррекция смещения при чтении : 30
Способность читать области Lead-in и Lead-out : Нет
Заполнение пропущенных сэмплов тишиной : Да
Удаление блоков с тишиной в начале и конце : Нет
При вычислениях CRC использовались нулевые сэмплы : Да
Интерфейс : Установленный внешний ASPI-интерфейс

Выходной формат : Внутренние WAV-операции
Формат сэмплов : 44.100 Гц; 16 бит; стерео


TOC извлечённого CD

Трек | Старт | Длительность | Начальный сектор | Конечный сектор
––––––––––––––––––––––––––––––––––-
1 | 0:00.37 | 3:53.15 | 37 | 17526
2 | 3:53.52 | 5:34.68 | 17527 | 42644
3 | 9:28.45 | 4:25.15 | 42645 | 62534
4 | 13:53.60 | 6:58.50 | 62535 | 93934
5 | 20:52.35 | 4:06.40 | 93935 | 112424
6 | 24:59.00 | 4:45.62 | 112425 | 133861
7 | 29:44.62 | 4:25.68 | 133862 | 153804
8 | 34:10.55 | 5:51.37 | 153805 | 180166


Характеристики диапазона извлечения и сообщения об ошибках

Выбранный диапазон

Имя файла D:\kos1871\Black Sabbath - Heaven And Hell (23PD-123).wav

Пиковый уровень 84.5 %
Качество диапазона 100.0 %
CRC теста AFA84F34
CRC копии AFA84F34
Копирование… OK

Ошибок не произошло


AccurateRip: сводка

Трек 1 точное извлечение (доверие 4) [3E1D9D3C]
Трек 2 точное извлечение (доверие 4) [AE6F2731]
Трек 3 точное извлечение (доверие 3) [44666EB7]
Трек 4 точное извлечение (доверие 3) [F19AD4AC]
Трек 5 точное извлечение (доверие 3) [06D88C28]
Трек 6 точное извлечение (доверие 3) [290CA144]
Трек 7 точное извлечение (доверие 3) [EBE2E617]
Трек 8 точное извлечение (доверие 3) [EE395007]

Все треки извлечены точно

Конец отчёта


Black Sabbath: Collection (1970-2013) [21CD, Japanese Ed.]

Tracklist CD10. 1981 Mob Rules [1989 Japan 23PD-126 Vertigo]:

01. Turn Up The Night - 3:43
02. Voodoo - 4:33
03. The Sign Of The Southern Cross - 7:50
04. E5150 - 2:50
05. The Mob Rules - 3:16
06. Country Girl - 4:03
07. Slipping Away - 3:46
08. Falling Off The Edge Of The World - 5:04
09. Over And Over - 5:31

Exact Audio Copy V0.99 prebeta 4 from 23. January 2008

Отчёт EAC об извлечении, выполненном 6. февраля 2011, 14:10

Black Sabbath / Mob Rules (23PD-126)

Дисковод: PLEXTOR DVDR PX-760A Adapter: 0 ID: 0

Режим чтения : Достоверность
Использование точного потока : Да
Отключение кэша аудио : Да
Использование указателей C2 : Нет

Коррекция смещения при чтении : 30
Способность читать области Lead-in и Lead-out : Нет
Заполнение пропущенных сэмплов тишиной : Да
Удаление блоков с тишиной в начале и конце : Нет
При вычислениях CRC использовались нулевые сэмплы : Да
Интерфейс : Установленный внешний ASPI-интерфейс

Выходной формат : Внутренние WAV-операции
Формат сэмплов : 44.100 Гц; 16 бит; стерео


TOC извлечённого CD

Трек | Старт | Длительность | Начальный сектор | Конечный сектор
––––––––––––––––––––––––––––––––––-
1 | 0:00.37 | 3:43.18 | 37 | 16779
2 | 3:43.55 | 4:33.27 | 16780 | 37281
3 | 8:17.07 | 7:50.00 | 37282 | 72531
4 | 16:07.07 | 2:50.20 | 72532 | 85301
5 | 18:57.27 | 3:15.45 | 85302 | 99971
6 | 22:12.72 | 4:03.35 | 99972 | 118231
7 | 26:16.32 | 3:46.18 | 118232 | 135199
8 | 30:02.50 | 5:04.10 | 135200 | 158009
9 | 35:06.60 | 5:30.42 | 158010 | 182801


Характеристики диапазона извлечения и сообщения об ошибках

Выбранный диапазон

Имя файла D:\kos1871\Black Sabbath - Mob Rules (23PD-126).wav

Пиковый уровень 100.0 %
Качество диапазона 99.9 %
CRC теста B29B6D54
CRC копии B29B6D54
Копирование… OK

Ошибок не произошло


AccurateRip: сводка

Трек 1 точное извлечение (доверие 4) [D0A7AA4A]
Трек 2 точное извлечение (доверие 4) [556F00CB]
Трек 3 точное извлечение (доверие 4) [47A57DD9]
Трек 4 точное извлечение (доверие 4) [6A196323]
Трек 5 точное извлечение (доверие 4) [1B6208E3]
Трек 6 точное извлечение (доверие 4) [3D7FFC3E]
Трек 7 точное извлечение (доверие 4) [66DF6475]
Трек 8 точное извлечение (доверие 4) [1004F254]
Трек 9 точное извлечение (доверие 4) [F6634155]

Все треки извлечены точно

Конец отчёта


Black Sabbath: Collection (1970-2013) [21CD, Japanese Ed.]

Tracklist CD11. 1983 Born Again [1990 Japan PHCR-2054 Vertigo]:

01. Trashed - 4:20
02. Stonehenge - 1:58
03. Disturbing The Priest - 5:56
04. The Dark - 0:45
05. Zero The Hero - 7:40
06. Digital Bitch - 3:44
07. Born Again - 6:41
08. Hot Line - 4:58
09. Keep It Warm - 5:39

Exact Audio Copy V0.99 prebeta 5 from 4. May 2009

Отчёт EAC об извлечении, выполненном 7. ноября 2010, 13:56

Black Sabbath / Born Again

Дисковод: HL-DT-STDVDRAM GSA-T20N Adapter: 1 ID: 0

Режим чтения : Достоверность
Использование точного потока : Да
Отключение кэша аудио : Да
Использование указателей C2 : Нет

Коррекция смещения при чтении : 667
Способность читать области Lead-in и Lead-out : Нет
Заполнение пропущенных сэмплов тишиной : Да
Удаление блоков с тишиной в начале и конце : Нет
При вычислениях CRC использовались нулевые сэмплы : Да
Интерфейс : Встроенный Win32-интерфейс для Win NT/2000

Выходной формат : Пользовательский кодировщик
Выбранный битрейт : 768 kBit/s
Качество : Высокий
Добавление ID3-тэга : Нет
Утилита сжатия : C:\Program Files\Exact Audio Copy\FLAC\FLAC.EXE
Дополнительные параметры : -8 -V %s


TOC извлечённого CD

Трек | Старт | Длительность | Начальный сектор | Конечный сектор
––––––––––––––––––––––––––––––––––-
1 | 0:00.37 | 4:20.15 | 37 | 19551
2 | 4:20.52 | 1:58.03 | 19552 | 28404
3 | 6:18.55 | 5:56.27 | 28405 | 55131
4 | 12:15.07 | 0:44.73 | 55132 | 58504
5 | 13:00.05 | 7:39.65 | 58505 | 92994
6 | 20:39.70 | 3:44.15 | 92995 | 109809
7 | 24:24.10 | 6:40.72 | 109810 | 139881
8 | 31:05.07 | 4:57.53 | 139882 | 162209
9 | 36:02.60 | 5:38.70 | 162210 | 187629


Характеристики диапазона извлечения и сообщения об ошибках

Выбранный диапазон

Имя файла D:\uTorrent.compl\Black Sabbath - 'Born Again' 1983 ( Japan 1 st Press Vertigo PHCR-2054 )\Black Sabbath - Born Again.wav

Пиковый уровень 100.0 %
Качество диапазона 100.0 %
CRC теста 604FB915
CRC копии 604FB915
Копирование… OK

Ошибок не произошло


AccurateRip: сводка

Трек 1 нет в базе данных
Трек 2 нет в базе данных
Трек 3 нет в базе данных
Трек 4 нет в базе данных
Трек 5 нет в базе данных
Трек 6 нет в базе данных
Трек 7 нет в базе данных
Трек 8 нет в базе данных
Трек 9 нет в базе данных

Ни одного трека нет в базе AccurateRip

Конец отчёта


Black Sabbath: Collection (1970-2013) [21CD, Japanese Ed.]

Tracklist CD12. 1986 Seventh Star [1990 Japan PHCR-2055 Vertigo]:

01. In For The Kill - 3:43
02. No Stranger To Love - 4:30
03. Turn To Stone - 3:30
04. Sphinx - 1:12
05. Seventh Star - 5:21
06. Danger Zone - 4:25
07. Heart Like A Wheel - 6:38
08. Angry Heart - 3:07
09. In Memory - 2:36

Exact Audio Copy V0.99 prebeta 5 from 4. May 2009

Отчёт EAC об извлечении, выполненном 29. августа 2011, 18:41

Black Sabbath / Seventh Star

Дисковод: ASUS SDRW-08D2S-U Adapter: 2 ID: 0

Режим чтения : Достоверность
Использование точного потока : Да
Отключение кэша аудио : Да
Использование указателей C2 : Нет

Коррекция смещения при чтении : 103
Способность читать области Lead-in и Lead-out : Нет
Заполнение пропущенных сэмплов тишиной : Да
Удаление блоков с тишиной в начале и конце : Нет
При вычислениях CRC использовались нулевые сэмплы : Да
Интерфейс : Встроенный Win32-интерфейс для Win NT/2000

Выходной формат : Пользовательский кодировщик
Выбранный битрейт : 768 kBit/s
Качество : Высокий
Добавление ID3-тэга : Нет
Утилита сжатия : C:\Program Files\Exact Audio Copy\FLAC\FLAC.EXE
Дополнительные параметры : -8 -V %s


TOC извлечённого CD

Трек | Старт | Длительность | Начальный сектор | Конечный сектор
––––––––––––––––––––––––––––––––––-
1 | 0:00.37 | 3:43.08 | 37 | 16769
2 | 3:43.45 | 4:29.47 | 16770 | 36991
3 | 8:13.17 | 3:30.18 | 36992 | 52759
4 | 11:43.35 | 1:11.42 | 52760 | 58126
5 | 12:55.02 | 5:21.13 | 58127 | 82214
6 | 18:16.15 | 4:25.02 | 82215 | 102091
7 | 22:41.17 | 6:38.05 | 102092 | 131946
8 | 29:19.22 | 3:07.08 | 131947 | 145979
9 | 32:26.30 | 2:35.57 | 145980 | 157661


Характеристики диапазона извлечения и сообщения об ошибках

Выбранный диапазон

Имя файла D:\uTorrent.compl\Black Sabbath - 'Seventh Star' 1986 ( Japan 1 st Press Vertigo PHCR-2055 )\Black Sabbath - Seventh Star.wav

Пиковый уровень 98.4 %
Качество диапазона 100.0 %
CRC теста 15785A65
CRC копии 15785A65
Копирование… OK

Ошибок не произошло


AccurateRip: сводка

Трек 1 точное извлечение (доверие 7) [25D39CD0]
Трек 2 точное извлечение (доверие 8) [3D1B3407]
Трек 3 точное извлечение (доверие 7) [441DD945]
Трек 4 точное извлечение (доверие 7) [8CA1979E]
Трек 5 точное извлечение (доверие 7) [52291F79]
Трек 6 точное извлечение (доверие 7) [6C4AA49D]
Трек 7 точное извлечение (доверие 7) [7CEF3A5F]
Трек 8 точное извлечение (доверие 8) [62D3ADE2]
Трек 9 точное извлечение (доверие 8) [5717EBF4]

Все треки извлечены точно

Конец отчёта


Black Sabbath: Collection (1970-2013) [21CD, Japanese Ed.]

Tracklist CD13. 1987 The Eternal Idol [1987 Germany for Japan 32PD-294 Vertigo]:

01. The Shining - 6:02
02. Ancient Warrior - 5:35
03. Hard Life To Live - 5:02
04. Glory Ride - 4:50
05. Born To Lose - 3:44
06. Nightmare - 5:23
07. Scarlet Pimpernel - 2:08
08. Lost Forever - 4:05
09. Eternal Idol - 6:35

Exact Audio Copy V1.0 beta 3 from 29. August 2011

EAC extraction logfile from 17. July 2013, 21:32

Black Sabbath / The Eternal Idol (32PD-294)

Used drive : BUFFALO Optical Drive Adapter: 2 ID: 0

Read mode : Secure
Utilize accurate stream : Yes
Defeat audio cache : Yes
Make use of C2 pointers : No

Read offset correction : 6
Overread into Lead-In and Lead-Out : No
Fill up missing offset samples with silence : Yes
Delete leading and trailing silent blocks : No
Null samples used in CRC calculations : Yes
Used interface : Native Win32 interface for Win NT & 2000

Used output format : User Defined Encoder
Selected bitrate : 1024 kBit/s
Quality : High
Add ID3 tag : No
Command line compressor : C:\Program Files\Exact Audio Copy\Flac\flac.exe
Additional command line options : -8 -V %source% -o %dest%


TOC of the extracted CD

Track | Start | Length | Start sector | End sector
––––––––––––––––––––––––––––-
1 | 0:00.33 | 6:01.62 | 33 | 27169
2 | 6:02.20 | 5:35.13 | 27170 | 52307
3 | 11:37.33 | 5:02.00 | 52308 | 74957
4 | 16:39.33 | 4:50.00 | 74958 | 96707
5 | 21:29.33 | 3:44.10 | 96708 | 113517
6 | 25:13.43 | 5:22.65 | 113518 | 137732
7 | 30:36.33 | 2:08.00 | 137733 | 147332
8 | 32:44.33 | 4:05.00 | 147333 | 165707
9 | 36:49.33 | 6:35.25 | 165708 | 195357


Range status and errors

Selected range

Filename C:\BLACK SABBATH\Black Sabbath - The Eternal Idol (32PD-294).wav

Peak level 97.7 %
Extraction speed 4.1 X
Range quality 100.0 %
Test CRC 409E1BBC
Copy CRC 409E1BBC
Copy OK

No errors occurred


AccurateRip summary

Track 1 accurately ripped (confidence 8) [AB776C67] (AR v2)
Track 2 accurately ripped (confidence 8) [AE5CE41C] (AR v2)
Track 3 accurately ripped (confidence 8) [DC1A06DD] (AR v2)
Track 4 accurately ripped (confidence 8) [835DB0BD] (AR v2)
Track 5 accurately ripped (confidence 8) [E605A057] (AR v2)
Track 6 accurately ripped (confidence 8) [3ECF44C0] (AR v2)
Track 7 accurately ripped (confidence 8) [D3590B56] (AR v2)
Track 8 accurately ripped (confidence 8) [D4654475] (AR v2)
Track 9 accurately ripped (confidence 8) [DADC7D93] (AR v2)

All tracks accurately ripped

End of status report

==== Log checksum 55895ED430C508BF245F92BBD028A90076D99B2697F83F0B052D370BC33836A9 ====


Black Sabbath: Collection (1970-2013) [21CD, Japanese Ed.]

Tracklist CD14. 1987 The Eternal Idol [1993 Japan PHCR-4117 Vertigo]:

01. The Shining - 6:02
02. Ancient Warrior - 5:36
03. Hard Life To Love - 5:00
04. Glory Ride - 4:50
05. Born To Lose - 3:44
06. Nightmare - 5:21
07. Scarlet Pimpernel - 2:08
08. Lost Forever - 4:09
09. Eternal Idol - 6:36

Exact Audio Copy V1.0 beta 3 from 29. August 2011

EAC extraction logfile from 18. May 2013, 15:13

Black Sabbath / The Eternal Idol (Japan PHCR-4117)

Used drive : BUFFALO Optical Drive Adapter: 2 ID: 0

Read mode : Secure
Utilize accurate stream : Yes
Defeat audio cache : Yes
Make use of C2 pointers : No

Read offset correction : 6
Overread into Lead-In and Lead-Out : No
Fill up missing offset samples with silence : Yes
Delete leading and trailing silent blocks : No
Null samples used in CRC calculations : Yes
Used interface : Native Win32 interface for Win NT & 2000

Used output format : User Defined Encoder
Selected bitrate : 1024 kBit/s
Quality : High
Add ID3 tag : No
Command line compressor : C:\Program Files\Exact Audio Copy\Flac\flac.exe
Additional command line options : -8 -V %source% -o %dest%


TOC of the extracted CD

Track | Start | Length | Start sector | End sector
––––––––––––––––––––––––––––-
1 | 0:00.37 | 6:01.62 | 37 | 27173
2 | 6:02.24 | 5:35.73 | 27174 | 52371
3 | 11:38.22 | 5:00.22 | 52372 | 74893
4 | 16:38.44 | 4:50.28 | 74894 | 96671
5 | 21:28.72 | 3:44.00 | 96672 | 113471
6 | 25:12.72 | 5:21.37 | 113472 | 137583
7 | 30:34.34 | 2:07.40 | 137584 | 147148
8 | 32:41.74 | 4:08.68 | 147149 | 165816
9 | 36:50.67 | 6:35.55 | 165817 | 195496


Range status and errors

Selected range

Filename H:\BLACK SABBATH\Discography\Black Sabbath - The Eternal Idol (Japan PHCR-4117).wav

Peak level 94.4 %
Extraction speed 1.5 X
Range quality 100.0 %
Test CRC 23256F19
Copy CRC 23256F19
Copy OK

No errors occurred


AccurateRip summary

Track 1 not present in database
Track 2 not present in database
Track 3 not present in database
Track 4 not present in database
Track 5 not present in database
Track 6 not present in database
Track 7 not present in database
Track 8 not present in database
Track 9 not present in database

None of the tracks are present in the AccurateRip database

End of status report

==== Log checksum 9681E7F1D5A23FB54AB0B9CF849CDB9A2604A40DD5F624A1F995AFB41435B0DA ====


Black Sabbath: Collection (1970-2013) [21CD, Japanese Ed.]

Tracklist CD15. 1989 Headless Cross [1989 Japan VDP-1449 Victor]:

01. The Gates Of Hell - 1:06
02. Headless Cross - 6:30
03. Devil & Daughter - 4:44
04. When Death Calls - 6:56
05. Kill In The Spirit World - 5:11
06. Call Of The Wild - 5:19
07. Black Moon - 4:06
08. Nightwing - 6:37

Exact Audio Copy V0.99 prebeta 5 from 4. May 2009

EAC extraction logfile from 28. August 2011, 17:28

Black Sabbath / Headless Cross

Used drive : HL-DT-STDVDRAM GSA-T20N Adapter: 1 ID: 0

Read mode : Secure
Utilize accurate stream : Yes
Defeat audio cache : Yes
Make use of C2 pointers : No

Read offset correction : 667
Overread into Lead-In and Lead-Out : No
Fill up missing offset samples with silence : Yes
Delete leading and trailing silent blocks : No
Null samples used in CRC calculations : Yes
Used interface : Native Win32 interface for Win NT & 2000

Used output format : User Defined Encoder
Selected bitrate : 1024 kBit/s
Quality : High
Add ID3 tag : No
Command line compressor : C:\Program Files\FLAC\flac.exe
Additional command line options : -8 -V -T "ARTIST=%a" -T "TITLE=%t" -T "ALBUM=%g" -T "DATE=%y" -T "TRACKNUMBER=%n" -T "GENRE=%m" -T "COMMENT=EAC FLAC -8" %s


TOC of the extracted CD

Track | Start | Length | Start sector | End sector
––––––––––––––––––––––––––––-
1 | 0:00.37 | 1:06.05 | 37 | 4991
2 | 1:06.42 | 6:30.08 | 4992 | 34249
3 | 7:36.50 | 4:44.20 | 34250 | 55569
4 | 12:20.70 | 6:56.05 | 55570 | 86774
5 | 19:17.00 | 5:10.67 | 86775 | 110091
6 | 24:27.67 | 5:19.25 | 110092 | 134041
7 | 29:47.17 | 4:06.15 | 134042 | 152506
8 | 33:53.32 | 6:37.13 | 152507 | 182294


Range status and errors

Selected range

Filename C:\Users\Yorrik\Music\Black Sabbath - Headless Cross.wav

Peak level 100.0 %
Range quality 100.0 %
Test CRC B426E1DC
Copy CRC B426E1DC
Copy OK

No errors occurred


AccurateRip summary

Track 1 accurately ripped (confidence 3) [D01457B7]
Track 2 accurately ripped (confidence 3) [153EE0EF]
Track 3 accurately ripped (confidence 4) [7E509F15]
Track 4 accurately ripped (confidence 4) [9F71E7F3]
Track 5 accurately ripped (confidence 4) [8DBC8FE1]
Track 6 accurately ripped (confidence 4) [F1793B57]
Track 7 accurately ripped (confidence 4) [A6A67409]
Track 8 accurately ripped (confidence 4) [E459BBB0]

All tracks accurately ripped

End of status report


Black Sabbath: Collection (1970-2013) [21CD, Japanese Ed.]

Tracklist CD16. 1990 Tyr [1990 Japan VICP-67 Victor]:

01. Anno Mundi - 6:13
02. The Law Maker - 3:55
03. Jerusalem - 4:00
04. The Sabbath Stones - 6:48
05. The Battle Of Tyr - 1:09
06. Odin's Court - 2:43
07. Valhalla - 4:42
08. Feels Good To Me - 5:44
09. Heaven In Black - 4:07

Exact Audio Copy V0.99 prebeta 5 from 4. May 2009

Отчёт EAC об извлечении, выполненном 1. июня 2012, 19:55

Black Sabbath / Tyr

Дисковод: ASUS SDRW-08D2S-U Adapter: 2 ID: 0

Режим чтения : Достоверность
Использование точного потока : Да
Отключение кэша аудио : Да
Использование указателей C2 : Нет

Коррекция смещения при чтении : 103
Способность читать области Lead-in и Lead-out : Нет
Заполнение пропущенных сэмплов тишиной : Да
Удаление блоков с тишиной в начале и конце : Нет
При вычислениях CRC использовались нулевые сэмплы : Да
Интерфейс : Встроенный Win32-интерфейс для Win NT/2000

Выходной формат : Пользовательский кодировщик
Выбранный битрейт : 768 kBit/s
Качество : Высокий
Добавление ID3-тэга : Нет
Утилита сжатия : C:\Program Files\Exact Audio Copy\FLAC\FLAC.EXE
Дополнительные параметры : -8 -V %s


TOC извлечённого CD

Трек | Старт | Длительность | Начальный сектор | Конечный сектор
––––––––––––––––––––––––––––––––––-
1 | 0:00.37 | 6:13.25 | 37 | 28036
2 | 6:13.62 | 3:54.68 | 28037 | 45654
3 | 10:08.55 | 4:00.10 | 45655 | 63664
4 | 14:08.65 | 6:47.65 | 63665 | 94254
5 | 20:56.55 | 1:08.70 | 94255 | 99424
6 | 22:05.50 | 2:42.65 | 99425 | 111639
7 | 24:48.40 | 4:42.32 | 111640 | 132821
8 | 29:30.72 | 5:44.33 | 132822 | 158654
9 | 35:15.30 | 4:06.57 | 158655 | 177161


Характеристики диапазона извлечения и сообщения об ошибках

Выбранный диапазон

Имя файла D:\uTorrent.compl\Black Sabbath - Tyr 1990 ( Japan 1st Press VICP-67 )\Black Sabbath - Tyr.wav

Пиковый уровень 100.0 %
Качество диапазона 100.0 %
CRC теста 015264F7
CRC копии 015264F7
Копирование… OK

Ошибок не произошло


AccurateRip: сводка

Трек 1 точность не определена (достоверность 3) [8D7F517A], AccurateRip вернул [15603D31]
Трек 2 точность не определена (достоверность 3) [B8B27642], AccurateRip вернул [5EF78491]
Трек 3 точность не определена (достоверность 3) [9B6D401C], AccurateRip вернул [8696D5D4]
Трек 4 точность не определена (достоверность 3) [6022854E], AccurateRip вернул [B0A1B100]
Трек 5 точность не определена (достоверность 2) [A46F1E81], AccurateRip вернул [C3979359]
Трек 6 точность не определена (достоверность 2) [4937A8F9], AccurateRip вернул [E4D5D01F]
Трек 7 точность не определена (достоверность 2) [BCC87040], AccurateRip вернул [58312885]
Трек 8 точность не определена (достоверность 3) [96416B80], AccurateRip вернул [3817F472]
Трек 9 точность не определена (достоверность 3) [E082A4BC], AccurateRip вернул [2F0E6FC9]

Ни один трек не прошёл проверки на точность
В вашей базе может быть иной вариант штамповки диска

Конец отчёта


Black Sabbath: Collection (1970-2013) [21CD, Japanese Ed.]

Tracklist CD17. 1992 Dehumanizer [1992 Japan TOCP-7255 I.R.S.]:

01. Computer God - 6:15
02. After All (The Dead) - 5:41
03. TV Crimes - 4:03
04. Letters From Earth - 4:17
05. Master Of Insanity - 5:56
06. Time Machine - 4:16
07. Sins Of The Father - 4:47
08. Too Late - 6:56
09. I - 5:13
10. Buried Alive - 4:53
11. Time Machine (Wayne's World Version) - 4:19

Exact Audio Copy V0.99 prebeta 5 from 4. May 2009

Отчёт EAC об извлечении, выполненном 18. мая 2010, 20:44

Black Sabbath / Dehumanizer

Дисковод: HL-DT-STDVDRAM GSA-T20N Adapter: 1 ID: 0

Режим чтения : Достоверность
Использование точного потока : Да
Отключение кэша аудио : Да
Использование указателей C2 : Нет

Коррекция смещения при чтении : 667
Способность читать области Lead-in и Lead-out : Нет
Заполнение пропущенных сэмплов тишиной : Да
Удаление блоков с тишиной в начале и конце : Нет
При вычислениях CRC использовались нулевые сэмплы : Да
Интерфейс : Встроенный Win32-интерфейс для Win NT/2000

Выходной формат : Пользовательский кодировщик
Выбранный битрейт : 768 kBit/s
Качество : Высокий
Добавление ID3-тэга : Нет
Утилита сжатия : C:\Program Files\Exact Audio Copy\FLAC\FLAC.EXE
Дополнительные параметры : -8 -V %s


TOC извлечённого CD

Трек | Старт | Длительность | Начальный сектор | Конечный сектор
––––––––––––––––––––––––––––––––––-
1 | 0:00.00 | 6:14.70 | 0 | 28119
2 | 6:14.70 | 5:41.20 | 28120 | 53714
3 | 11:56.15 | 4:02.45 | 53715 | 71909
4 | 15:58.60 | 4:17.07 | 71910 | 91191
5 | 20:15.67 | 5:55.38 | 91192 | 117854
6 | 26:11.30 | 4:15.42 | 117855 | 137021
7 | 30:26.72 | 4:46.58 | 137022 | 158529
8 | 35:13.55 | 6:55.50 | 158530 | 189704
9 | 42:09.30 | 5:13.02 | 189705 | 213181
10 | 47:22.32 | 4:53.05 | 213182 | 235161
11 | 52:15.37 | 4:18.63 | 235162 | 254574


Характеристики диапазона извлечения и сообщения об ошибках

Выбранный диапазон

Имя файла D:\uTorrent.compl\Black Sabbath - 'Dehumanizer' 1992 ( Japan 1 st press TOCP-7255 )\Black Sabbath - Dehumanizer.wav

Пиковый уровень 100.0 %
Качество диапазона 100.0 %
CRC теста 140639B0
CRC копии 140639B0
Копирование… OK

Ошибок не произошло


AccurateRip: сводка

Трек 1 нет в базе данных
Трек 2 нет в базе данных
Трек 3 нет в базе данных
Трек 4 нет в базе данных
Трек 5 нет в базе данных
Трек 6 нет в базе данных
Трек 7 нет в базе данных
Трек 8 нет в базе данных
Трек 9 нет в базе данных
Трек 10 нет в базе данных
Трек 11 нет в базе данных

Ни одного трека нет в базе AccurateRip

Конец отчёта


Black Sabbath: Collection (1970-2013) [21CD, Japanese Ed.]

Tracklist CD18. 1994 Cross Purposes [1994 Japan TOCP-8128 I.R.S.]:

01. I Witness - 4:59
02. Cross of Thorns - 4:34
03. Psychophobia - 3:15
04. Virtual Death - 5:49
05. Immaculate Deception - 4:15
06. Dying for Love - 5:54
07. Back to Eden - 3:57
08. The Hand That Rocks the Cradle - 4:30
09. Cardinal Sin - 4:21
10. Evil Eye - 6:00
11. What's The Use - 3:03

Exact Audio Copy V0.99 prebeta 5 from 4. May 2009

Отчёт EAC об извлечении, выполненном 28. июля 2011, 19:12

Black Sabbath / Cross Purposes

Дисковод: ASUS SDRW-08D2S-U Adapter: 2 ID: 0

Режим чтения : Достоверность
Использование точного потока : Да
Отключение кэша аудио : Да
Использование указателей C2 : Нет

Коррекция смещения при чтении : 103
Способность читать области Lead-in и Lead-out : Нет
Заполнение пропущенных сэмплов тишиной : Да
Удаление блоков с тишиной в начале и конце : Нет
При вычислениях CRC использовались нулевые сэмплы : Да
Интерфейс : Встроенный Win32-интерфейс для Win NT/2000

Выходной формат : Пользовательский кодировщик
Выбранный битрейт : 768 kBit/s
Качество : Высокий
Добавление ID3-тэга : Нет
Утилита сжатия : C:\Program Files\Exact Audio Copy\FLAC\FLAC.EXE
Дополнительные параметры : -8 -V %s


TOC извлечённого CD

Трек | Старт | Длительность | Начальный сектор | Конечный сектор
––––––––––––––––––––––––––––––––––-
1 | 0:00.00 | 4:59.32 | 0 | 22456
2 | 4:59.32 | 4:34.20 | 22457 | 43026
3 | 9:33.52 | 3:14.70 | 43027 | 57646
4 | 12:48.47 | 5:49.30 | 57647 | 83851
5 | 18:38.02 | 4:15.00 | 83852 | 102976
6 | 22:53.02 | 5:53.60 | 102977 | 129511
7 | 28:46.62 | 3:57.33 | 129512 | 147319
8 | 32:44.20 | 4:30.15 | 147320 | 167584
9 | 37:14.35 | 4:21.32 | 167585 | 187191
10 | 41:35.67 | 5:59.68 | 187192 | 214184
11 | 47:35.60 | 3:03.30 | 214185 | 227939


Характеристики диапазона извлечения и сообщения об ошибках

Выбранный диапазон

Имя файла D:\uTorrent.compl\Black Sabbath - 'Cross Purposes' 1994 ( Japan 1st Press TOCP-8128 )\Black Sabbath - Cross Purposes.wav

Пиковый уровень 100.0 %
Качество диапазона 100.0 %
CRC теста AF41CBB7
CRC копии AF41CBB7
Копирование… OK

Ошибок не произошло


AccurateRip: сводка

Трек 1 точное извлечение (доверие 2) [04AF2D5E]
Трек 2 точное извлечение (доверие 2) [B55A7B81]
Трек 3 точное извлечение (доверие 2) [9CB4E0D6]
Трек 4 точное извлечение (доверие 2) [240652DE]
Трек 5 точное извлечение (доверие 2) [6129B328]
Трек 6 точное извлечение (доверие 2) [C8A199D5]
Трек 7 точное извлечение (доверие 2) [6368A098]
Трек 8 точное извлечение (доверие 2) [A5B460EE]
Трек 9 точное извлечение (доверие 2) [B5EE8B16]
Трек 10 точное извлечение (доверие 2) [F75EEA91]
Трек 11 точное извлечение (доверие 2) [AEC99D35]

Все треки извлечены точно

Конец отчёта


Black Sabbath: Collection (1970-2013) [21CD, Japanese Ed.]

Tracklist CD19. 1995 Forbidden [1995 Japan TOCP-8586 I.R.S.]:

01. The Illusion Of Power - 4:54
02. Get A Grip - 4:00
03. Can't Get Close Enough - 4:29
04. Shaking Off The Chains - 4:04
05. I Won't Cry For You - 4:48
06. Guilty As Hell - 3:29
07. Sick And Tired - 3:32
08. Rusty Angels - 5:01
09. Forbidden - 3:49
10. Kiss Of Death - 6:09
11. Loser Gets It All - 2:56

Exact Audio Copy V0.99 prebeta 4 from 23. January 2008

Отчёт EAC об извлечении, выполненном 25. июля 2011, 18:34

Black Sabbath / Forbidden

Дисковод: Optiarc DVD RW AD-7200A Adapter: 0 ID: 0

Режим чтения : Достоверность
Использование точного потока : Да
Отключение кэша аудио : Да
Использование указателей C2 : Нет

Коррекция смещения при чтении : 48
Способность читать области Lead-in и Lead-out : Нет
Заполнение пропущенных сэмплов тишиной : Да
Удаление блоков с тишиной в начале и конце : Нет
При вычислениях CRC использовались нулевые сэмплы : Да
Интерфейс : Встроенный Win32-интерфейс для Win NT/2000

Выходной формат : Пользовательский кодировщик
Выбранный битрейт : 768 kBit/s
Качество : Высокий
Добавление ID3-тэга : Нет
Утилита сжатия : C:\Program Files\Exact Audio Copy\FLAC\FLAC.EXE
Дополнительные параметры : -6 -V -T "ARTIST=%a" -T "TITLE=%t" -T "ALBUM=%g" -T "DATE=%y" -T "TRACKNUMBER=%n" -T "GENRE=%m" -T "COMMENT=%e" %s -o %d


TOC извлечённого CD

Трек | Старт | Длительность | Начальный сектор | Конечный сектор
––––––––––––––––––––––––––––––––––-
1 | 0:00.32 | 4:54.18 | 32 | 22099
2 | 4:54.50 | 3:59.67 | 22100 | 40091
3 | 8:54.42 | 4:28.65 | 40092 | 60256
4 | 13:23.32 | 4:04.15 | 60257 | 78571
5 | 17:27.47 | 4:48.03 | 78572 | 100174
6 | 22:15.50 | 3:28.65 | 100175 | 115839
7 | 25:44.40 | 3:31.70 | 115840 | 131734
8 | 29:16.35 | 5:00.50 | 131735 | 154284
9 | 34:17.10 | 3:49.30 | 154285 | 171489
10 | 38:06.40 | 6:09.10 | 171490 | 199174
11 | 44:15.50 | 2:55.47 | 199175 | 212346


Характеристики диапазона извлечения и сообщения об ошибках

Выбранный диапазон

Имя файла D:\RUTRACKER\images\Black Sabbath - Forbidden\Black Sabbath - Forbidden.wav

Пиковый уровень 99.2 %
Качество диапазона 100.0 %
CRC теста B6A58984
CRC копии B6A58984
Копирование… OK

Ошибок не произошло


AccurateRip: сводка

Трек 1 точное извлечение (доверие 3) [E85AA477]
Трек 2 точное извлечение (доверие 3) [E8C337ED]
Трек 3 точное извлечение (доверие 3) [44AC5303]
Трек 4 точное извлечение (доверие 3) [DAAC3D13]
Трек 5 точное извлечение (доверие 3) [CF974DB4]
Трек 6 точное извлечение (доверие 3) [A090E6B0]
Трек 7 точное извлечение (доверие 3) [7FF2A23C]
Трек 8 точное извлечение (доверие 3) [942ECBEF]
Трек 9 точное извлечение (доверие 3) [85B25C64]
Трек 10 точное извлечение (доверие 3) [5D29C4F1]
Трек 11 точное извлечение (доверие 3) [95F53B1F]

Все треки извлечены точно

Конец отчёта


Black Sabbath: Collection (1970-2013) [21CD, Japanese Ed.]

Tracklist CD20-21. 2013 13 [2013 Japan SHM-CD, UICN -1034~5 Universal]:

01. End Of The Beginning - 8:06
02. God Is Dead? - 8:52
03. Loner - 5:00
04. Zeitgeist - 4:38
05. Age Of Reason - 7:01
06. Live Forever - 4:46
07. Damaged Soul - 7:52
08. Dear Father - 7:15
09. Naivete In Black (Bonus Track) - 3:51

Exact Audio Copy V1.0 beta 3 from 29. August 2011

EAC extraction logfile from 26. June 2013, 20:35

Black Sabbath / 13 (Japan SHM-CD, UICN -1034)

Used drive : PIONEER DVD-RW DVR-219L Adapter: 1 ID: 0

Read mode : Secure
Utilize accurate stream : Yes
Defeat audio cache : Yes
Make use of C2 pointers : No

Read offset correction : 6
Overread into Lead-In and Lead-Out : No
Fill up missing offset samples with silence : Yes
Delete leading and trailing silent blocks : No
Null samples used in CRC calculations : Yes
Used interface : Native Win32 interface for Win NT & 2000

Used output format : Internal WAV Routines
Sample format : 44.100 Hz; 16 Bit; Stereo


TOC of the extracted CD

Track | Start | Length | Start sector | End sector
––––––––––––––––––––––––––––-
1 | 0:00.00 | 8:06.17 | 0 | 36466
2 | 8:06.17 | 8:52.20 | 36467 | 76386
3 | 16:58.37 | 4:59.70 | 76387 | 98881
4 | 21:58.32 | 4:37.45 | 98882 | 119701
5 | 26:36.02 | 7:01.19 | 119702 | 151295
6 | 33:37.21 | 4:46.33 | 151296 | 172778
7 | 38:23.54 | 7:51.49 | 172779 | 208152
8 | 46:15.28 | 7:14.47 | 208153 | 240749
9 | 53:30.00 | 3:50.63 | 240750 | 258062


Range status and errors

Selected range

Filename D:\.www.AvaxHome.ru\Black Sabbath - 13 (Japan SHM-CD, UICN -1034).wav

Peak level 100.0 %
Extraction speed 7.1 X
Range quality 99.9 %
Test CRC 9C4F9247
Copy CRC 9C4F9247
Copy OK

No errors occurred


AccurateRip summary

Track 1 not present in database
Track 2 not present in database
Track 3 not present in database
Track 4 not present in database
Track 5 not present in database
Track 6 not present in database
Track 7 not present in database
Track 8 not present in database
Track 9 not present in database

None of the tracks are present in the AccurateRip database

End of status report

–– CUETools DB Plugin V2.1.4

[CTDB TOCID: 3x9h6z73bVsymxfkYPvVcWweUHU-] found
Submit result: 3x9h6z73bVsymxfkYPvVcWweUHU- has been confirmed
Track | CTDB Status
1 | (5/5) Accurately ripped
2 | (5/5) Accurately ripped
3 | (5/5) Accurately ripped
4 | (5/5) Accurately ripped
5 | (5/5) Accurately ripped
6 | (5/5) Accurately ripped
7 | (5/5) Accurately ripped
8 | (5/5) Accurately ripped
9 | (5/5) Accurately ripped


==== Log checksum 9D884129B1ACF7F24C5E467EA362DAEE6AB47B03C35BE5EBD323009B6053B1C2 ====



01. Methademic - 5:58
02. Peace of Mind - 3:41
03. Pariah - 5:35

Exact Audio Copy V1.0 beta 3 from 29. August 2011

EAC extraction logfile from 26. June 2013, 17:57

Black Sabbath / 13 (Japan SHM-CD, UICN -1035)

Used drive : PIONEER DVD-RW DVR-219L Adapter: 1 ID: 0

Read mode : Secure
Utilize accurate stream : Yes
Defeat audio cache : Yes
Make use of C2 pointers : No

Read offset correction : 6
Overread into Lead-In and Lead-Out : No
Fill up missing offset samples with silence : Yes
Delete leading and trailing silent blocks : No
Null samples used in CRC calculations : Yes
Used interface : Native Win32 interface for Win NT & 2000

Used output format : Internal WAV Routines
Sample format : 44.100 Hz; 16 Bit; Stereo


TOC of the extracted CD

Track | Start | Length | Start sector | End sector
––––––––––––––––––––––––––––-
1 | 0:00.00 | 5:58.16 | 0 | 26865
2 | 5:58.16 | 3:40.57 | 26866 | 43422
3 | 9:38.73 | 5:34.46 | 43423 | 68518


Range status and errors

Selected range

Filename D:\.www.AvaxHome.ru\Black Sabbath - 13 (Japan SHM-CD, UICN -1035).wav

Peak level 100.0 %
Extraction speed 5.3 X
Range quality 100.0 %
Test CRC C34FCF56
Copy CRC C34FCF56
Copy OK

No errors occurred


AccurateRip summary

Track 1 not present in database
Track 2 not present in database
Track 3 not present in database

None of the tracks are present in the AccurateRip database

End of status report

–– CUETools DB Plugin V2.1.4

[CTDB TOCID: qHG.jV1tdLHYvzgVMoh.UDuMYHo-] found
Submit result: already submitted
Track | CTDB Status
1 | ( 99/100) Accurately ripped
2 | ( 99/100) Accurately ripped
3 | ( 97/100) Accurately ripped


==== Log checksum D3F9A139C9F672274BC79A28D283E4E4BBE0CA6A309EECC630F46F50C1408BB5 ====


All thanks go to the original releasers

Black Sabbath in my Blog

Download Black Sabbath: Collection (1970-2013):