Subcategories

Creedence Clearwater Revival - The Singles Collection (2009)

Posted By: popsakov
Creedence Clearwater Revival - The Singles Collection (2009)

Creedence Clearwater Revival - The Singles Collection (2009)
2CD | EAC Rip | FLAC (Tracks) + Cue + m3u + Log ~ 635 Mb | MP3 CBR320 ~ 230 Mb
Full Scans ~ 46 Mb | 00:49:47 + 00:45:55 | RAR 5% Recovery
Country Rock / Roots Rock / Psychedelic Rock / Blues Rock / Classic Rock
Fantasy Records / Concord Music Group #FAN-31752

Creedence Clearwater Revival were one of the definitive bands of the late 1960s, creating iconic hit singles along the way. "Bad Moon Rising", "Suzie Q", "Green River" and "I Put A Spell On You" are jukebox staples to this day on both sides of the Atlantic. The complete U.S. singles collection presented in their original mixes for the first time in over 40 years! Thirty tracks on two cds, each screened with a vintage fantasy record label. The cds are housed in a standard jewel case, together with a 20-page booklet that includes new liner notes by ben fong-torres.

The 2009 Singles Collection offers something that the many other previous Creedence Clearwater Revival compilations do not: the band's A-sides and B-sides presented complete and in chronological order, plus a DVD containing the five promo clips CCR released ("Sweet Hitch-Hiker," "I Heard It Through the Grapevine," "Bootleg," "I Put a Spell on You," "Lookin' Out My Back Door"). This focus means there are songs here that never make most CCR hits collections – the A-side "Porterville," but generally flips like "Call It Pretending," "Walk on the Water," "Door to Door," and "Tearin' Up the Country," plus the "45 Revolutions Per Minute" oddity – but apart from that, this covers familiar, albeit still enjoyable, territory.

~ Stephen Thomas Erlewine, All Music

***************

Track List CD1:

01. Porterville [2:17]
02. Call It Pretending [2:10]
03. Suzie Q. (Pt. 1) [4:38]
04. Suzie Q. (Pt. 2) [3:52]
05. I Put A Spell On You [4:33]
06. Walk On The Water [4:42]
07. Proud Mary [3:12]
08. Born On The Bayou [3:50]
09. Bad Moon Rising [2:21]
10. Lodi [3:13]
11. Green River [2:36]
12. Commotion [2:42]
13. Fortunate Son [2:21]
14. Down On The Corner [2:42]
15. Travelin' Band [2:08]
16. Who'll Stop The Rain [2:28]

Exact Audio Copy V0.99 prebeta 5 from 4. May 2009

EAC extraction logfile from 3. November 2009, 19:11

Creedence Clearwater Revival / The Singles Collection (Disc One)

Used drive : DVDRW IDE 16X Adapter: 1 ID: 1

Read mode : Secure
Utilize accurate stream : Yes
Defeat audio cache : Yes
Make use of C2 pointers : No

Read offset correction : 12
Overread into Lead-In and Lead-Out : No
Fill up missing offset samples with silence : Yes
Delete leading and trailing silent blocks : No
Null samples used in CRC calculations : Yes
Used interface : Native Win32 interface for Win NT & 2000
Gap handling : Appended to previous track

Used output format : User Defined Encoder
Selected bitrate : 320 kBit/s
Quality : High
Add ID3 tag : No
Command line compressor : C:\Program Files\FLAC\flac.exe
Additional command line options : -8 -V -T "ARTIST=%a" -T "TITLE=%t" -T "ALBUM=%g" -T "DATE=%y" -T "TRACKNUMBER=%n" -T "GENRE=%m" -T "COMMENT=EAC FLAC 1.2.1 -8" %s


TOC of the extracted CD

Track | Start | Length | Start sector | End sector
––––––––––––––––––––––––––––-
1 | 0:00.00 | 2:17.24 | 0 | 10298
2 | 2:17.24 | 2:10.19 | 10299 | 20067
3 | 4:27.43 | 4:38.09 | 20068 | 40926
4 | 9:05.52 | 3:52.09 | 40927 | 58335
5 | 12:57.61 | 4:33.35 | 58336 | 78845
6 | 17:31.21 | 4:41.53 | 78846 | 99973
7 | 22:12.74 | 3:12.02 | 99974 | 114375
8 | 25:25.01 | 3:50.04 | 114376 | 131629
9 | 29:15.05 | 2:20.71 | 131630 | 142200
10 | 31:36.01 | 3:12.69 | 142201 | 156669
11 | 34:48.70 | 2:36.29 | 156670 | 168398
12 | 37:25.24 | 2:42.27 | 168399 | 180575
13 | 40:07.51 | 2:21.16 | 180576 | 191166
14 | 42:28.67 | 2:41.61 | 191167 | 203302
15 | 45:10.53 | 2:08.22 | 203303 | 212924
16 | 47:19.00 | 2:28.15 | 212925 | 224039


Track 1

Filename E:\Creedence Clearwater Revival - The Singles Collection (2009) [FLAC] (2-CD with Bonus DVD5 NTSC)\Disc One\01 - Porterville.wav

Pre-gap length 0:00:02.00

Peak level 98.8 %
Track quality 100.0 %
Test CRC C86CDECE
Copy CRC C86CDECE
Track not present in AccurateRip database
Copy OK

Track 2

Filename E:\Creedence Clearwater Revival - The Singles Collection (2009) [FLAC] (2-CD with Bonus DVD5 NTSC)\Disc One\02 - Call It Pretending.wav

Peak level 98.8 %
Track quality 100.0 %
Test CRC 64F74144
Copy CRC 64F74144
Track not present in AccurateRip database
Copy OK

Track 3

Filename E:\Creedence Clearwater Revival - The Singles Collection (2009) [FLAC] (2-CD with Bonus DVD5 NTSC)\Disc One\03 - Suzie Q. (Pt. 1).wav

Peak level 98.8 %
Track quality 100.0 %
Test CRC D827C0E7
Copy CRC D827C0E7
Track not present in AccurateRip database
Copy OK

Track 4

Filename E:\Creedence Clearwater Revival - The Singles Collection (2009) [FLAC] (2-CD with Bonus DVD5 NTSC)\Disc One\04 - Suzie Q. (Pt. 2).wav

Peak level 98.8 %
Track quality 99.9 %
Test CRC 99C8F216
Copy CRC 99C8F216
Track not present in AccurateRip database
Copy OK

Track 5

Filename E:\Creedence Clearwater Revival - The Singles Collection (2009) [FLAC] (2-CD with Bonus DVD5 NTSC)\Disc One\05 - I Put A Spell On You.wav

Peak level 98.8 %
Track quality 100.0 %
Test CRC BC5A0AB4
Copy CRC BC5A0AB4
Track not present in AccurateRip database
Copy OK

Track 6

Filename E:\Creedence Clearwater Revival - The Singles Collection (2009) [FLAC] (2-CD with Bonus DVD5 NTSC)\Disc One\06 - Walk On The Water.wav

Peak level 98.8 %
Track quality 100.0 %
Test CRC AA468431
Copy CRC AA468431
Track not present in AccurateRip database
Copy OK

Track 7

Filename E:\Creedence Clearwater Revival - The Singles Collection (2009) [FLAC] (2-CD with Bonus DVD5 NTSC)\Disc One\07 - Proud Mary.wav

Peak level 98.8 %
Track quality 100.0 %
Test CRC A5A96393
Copy CRC A5A96393
Track not present in AccurateRip database
Copy OK

Track 8

Filename E:\Creedence Clearwater Revival - The Singles Collection (2009) [FLAC] (2-CD with Bonus DVD5 NTSC)\Disc One\08 - Born On The Bayou.wav

Peak level 98.8 %
Track quality 100.0 %
Test CRC CAB5509D
Copy CRC CAB5509D
Track not present in AccurateRip database
Copy OK

Track 9

Filename E:\Creedence Clearwater Revival - The Singles Collection (2009) [FLAC] (2-CD with Bonus DVD5 NTSC)\Disc One\09 - Bad Moon Rising.wav

Peak level 98.8 %
Track quality 100.0 %
Test CRC CD856EB8
Copy CRC CD856EB8
Track not present in AccurateRip database
Copy OK

Track 10

Filename E:\Creedence Clearwater Revival - The Singles Collection (2009) [FLAC] (2-CD with Bonus DVD5 NTSC)\Disc One\10 - Lodi.wav

Peak level 98.8 %
Track quality 99.9 %
Test CRC AA854B23
Copy CRC AA854B23
Track not present in AccurateRip database
Copy OK

Track 11

Filename E:\Creedence Clearwater Revival - The Singles Collection (2009) [FLAC] (2-CD with Bonus DVD5 NTSC)\Disc One\11 - Green River.wav

Peak level 98.8 %
Track quality 99.9 %
Test CRC AC66EF61
Copy CRC AC66EF61
Track not present in AccurateRip database
Copy OK

Track 12

Filename E:\Creedence Clearwater Revival - The Singles Collection (2009) [FLAC] (2-CD with Bonus DVD5 NTSC)\Disc One\12 - Commotion.wav

Peak level 98.8 %
Track quality 99.9 %
Test CRC F74FC116
Copy CRC F74FC116
Track not present in AccurateRip database
Copy OK

Track 13

Filename E:\Creedence Clearwater Revival - The Singles Collection (2009) [FLAC] (2-CD with Bonus DVD5 NTSC)\Disc One\13 - Fortunate Son.wav

Peak level 98.8 %
Track quality 100.0 %
Test CRC FE4AF95A
Copy CRC FE4AF95A
Track not present in AccurateRip database
Copy OK

Track 14

Filename E:\Creedence Clearwater Revival - The Singles Collection (2009) [FLAC] (2-CD with Bonus DVD5 NTSC)\Disc One\14 - Down On The Corner.wav

Peak level 98.8 %
Track quality 100.0 %
Test CRC 81B4840E
Copy CRC 81B4840E
Track not present in AccurateRip database
Copy OK

Track 15

Filename E:\Creedence Clearwater Revival - The Singles Collection (2009) [FLAC] (2-CD with Bonus DVD5 NTSC)\Disc One\15 - Travelin' Band.wav

Peak level 98.8 %
Track quality 100.0 %
Test CRC 631ED6E8
Copy CRC 631ED6E8
Track not present in AccurateRip database
Copy OK

Track 16

Filename E:\Creedence Clearwater Revival - The Singles Collection (2009) [FLAC] (2-CD with Bonus DVD5 NTSC)\Disc One\16 - Who'll Stop The Rain.wav

Peak level 98.8 %
Track quality 100.0 %
Test CRC C62C6146
Copy CRC C62C6146
Track not present in AccurateRip database
Copy OK


None of the tracks are present in the AccurateRip database

No errors occurred

End of status report

[CUETools log; Date: 26.05.2020 18:29:03; Version: 2.1.6]
[CTDB TOCID: s21MKdebCUcKudmoysOXQ1ljxOI-] found.
Track | CTDB Status
1 | (90/90) Accurately ripped
2 | (90/90) Accurately ripped
3 | (90/90) Accurately ripped
4 | (90/90) Accurately ripped
5 | (90/90) Accurately ripped
6 | (90/90) Accurately ripped
7 | (90/90) Accurately ripped
8 | (90/90) Accurately ripped
9 | (90/90) Accurately ripped
10 | (89/90) Accurately ripped
11 | (90/90) Accurately ripped
12 | (90/90) Accurately ripped
13 | (90/90) Accurately ripped
14 | (89/90) Accurately ripped
15 | (90/90) Accurately ripped
16 | (88/90) Accurately ripped
[AccurateRip ID: 001f0849-01723c66-e80bab10] found.
Track [ CRC | V2 ] Status
01 [273e6d67|af163b35] (25+48/73) Accurately ripped
02 [c6308616|5e4cb056] (25+48/73) Accurately ripped
03 [a34bd23c|2e8535fa] (25+48/73) Accurately ripped
04 [a88da16a|dfc9b04e] (25+48/73) Accurately ripped
05 [539c4604|01e04a87] (25+48/73) Accurately ripped
06 [68dc39f3|e323fa05] (25+48/73) Accurately ripped
07 [59b5ac5a|36f2d0b1] (25+49/74) Accurately ripped
08 [2bee723c|adb55cff] (25+48/73) Accurately ripped
09 [3133b93b|e20a80b3] (25+49/74) Accurately ripped
10 [6eacaa71|09160763] (26+48/74) Accurately ripped
11 [59bc8da5|248bf934] (25+48/73) Accurately ripped
12 [b6042495|ebcf0f62] (25+47/72) Accurately ripped
13 [be34f6a6|055619c2] (25+47/72) Accurately ripped
14 [c5781fd5|de9f2b4f] (25+48/73) Accurately ripped
15 [d91165c3|ee4b42f5] (26+48/74) Accurately ripped
16 [d1e52591|70112b32] (26+48/74) Accurately ripped

Track Peak [ CRC32 ] [W/O NULL] [ LOG ]
– 98,8 [D9B702A3] [0EF3A801]
01 98,8 [C86CDECE] [109578DA] CRC32
02 98,8 [64F74144] [81036DF9] CRC32
03 98,8 [D827C0E7] [B170DD8A] CRC32
04 98,8 [99C8F216] [F22A1FA9] CRC32
05 98,8 [BC5A0AB4] [6CBA3B40] CRC32
06 98,8 [AA468431] [CCA52FED] CRC32
07 98,8 [A5A96393] [74E94F8C] CRC32
08 98,8 [CAB5509D] [8CE4384B] CRC32
09 98,8 [CD856EB8] [916CBC88] CRC32
10 98,8 [AA854B23] [B6E9B55D] CRC32
11 98,8 [AC66EF61] [59213939] CRC32
12 98,8 [F74FC116] [8BA1A957] CRC32
13 98,8 [FE4AF95A] [684842C8] CRC32
14 98,8 [81B4840E] [EDC8A235] CRC32
15 98,8 [631ED6E8] [615314FF] CRC32
16 98,8 [C62C6146] [A0B3FD0C] CRC32

Track List CD2:

01. Run Through The Jungle [3:09]
02. Up Around The Bend [2:41]
03. Long As I Can See The Light [3:31]
04. Lookin' Out My Back Door [2:34]
05. Have You Ever Seen The Rain? [2:41]
06. Hey Tonight [2:42]
07. Sweet Hitch-Hiker [2:57]
08. Door To Door [2:06]
09. Someday Never Comes [4:02]
10. Tearin' Up The Country [2:16]
11. I Heard It Through The Grapevine (single edit) [3:52]
12. Good Golly, Miss Molly [2:45]
13. 45 Revolutions Per Minute (Part I) (stereo) [3:19]
14. 45 Revolutions Per Minute (Part II) (stereo) [7:20]

Exact Audio Copy V0.99 prebeta 5 from 4. May 2009

EAC extraction logfile from 3. November 2009, 19:58

Creedence Clearwater Revival / The Singles Collection (Disc Two)

Used drive : DVDRW IDE 16X Adapter: 1 ID: 1

Read mode : Secure
Utilize accurate stream : Yes
Defeat audio cache : Yes
Make use of C2 pointers : No

Read offset correction : 12
Overread into Lead-In and Lead-Out : No
Fill up missing offset samples with silence : Yes
Delete leading and trailing silent blocks : No
Null samples used in CRC calculations : Yes
Used interface : Native Win32 interface for Win NT & 2000
Gap handling : Appended to previous track

Used output format : User Defined Encoder
Selected bitrate : 320 kBit/s
Quality : High
Add ID3 tag : No
Command line compressor : C:\Program Files\FLAC\flac.exe
Additional command line options : -8 -V -T "ARTIST=%a" -T "TITLE=%t" -T "ALBUM=%g" -T "DATE=%y" -T "TRACKNUMBER=%n" -T "GENRE=%m" -T "COMMENT=EAC FLAC 1.2.1 -8" %s


TOC of the extracted CD

Track | Start | Length | Start sector | End sector
––––––––––––––––––––––––––––-
1 | 0:00.00 | 3:08.56 | 0 | 14155
2 | 3:08.56 | 2:41.09 | 14156 | 26239
3 | 5:49.65 | 3:30.54 | 26240 | 42043
4 | 9:20.44 | 2:34.30 | 42044 | 53623
5 | 11:54.74 | 2:40.50 | 53624 | 65673
6 | 14:35.49 | 2:42.17 | 65674 | 77840
7 | 17:17.66 | 2:57.16 | 77841 | 91131
8 | 20:15.07 | 2:06.24 | 91132 | 100605
9 | 22:21.31 | 4:02.33 | 100606 | 118788
10 | 26:23.64 | 2:15.48 | 118789 | 128961
11 | 28:39.37 | 3:52.35 | 128962 | 146396
12 | 32:31.72 | 2:44.52 | 146397 | 158748
13 | 35:16.49 | 3:18.49 | 158749 | 173647
14 | 38:35.23 | 7:20.08 | 173648 | 206655


Track 1

Filename E:\Creedence Clearwater Revival - The Singles Collection (2009) [FLAC] (2-CD with Bonus DVD5 NTSC)\Disc Two\01 - Run Through The Jungle.wav

Pre-gap length 0:00:02.00

Peak level 98.8 %
Track quality 100.0 %
Test CRC 9ADD0D36
Copy CRC 9ADD0D36
Track not present in AccurateRip database
Copy OK

Track 2

Filename E:\Creedence Clearwater Revival - The Singles Collection (2009) [FLAC] (2-CD with Bonus DVD5 NTSC)\Disc Two\02 - Up Around The Bend.wav

Peak level 98.8 %
Track quality 100.0 %
Test CRC 0927C265
Copy CRC 0927C265
Track not present in AccurateRip database
Copy OK

Track 3

Filename E:\Creedence Clearwater Revival - The Singles Collection (2009) [FLAC] (2-CD with Bonus DVD5 NTSC)\Disc Two\03 - Long As I Can See The Light.wav

Peak level 98.8 %
Track quality 100.0 %
Test CRC 08154D3E
Copy CRC 08154D3E
Track not present in AccurateRip database
Copy OK

Track 4

Filename E:\Creedence Clearwater Revival - The Singles Collection (2009) [FLAC] (2-CD with Bonus DVD5 NTSC)\Disc Two\04 - Lookin' Out My Back Door.wav

Peak level 98.8 %
Track quality 99.9 %
Test CRC 7FD538B2
Copy CRC 7FD538B2
Track not present in AccurateRip database
Copy OK

Track 5

Filename E:\Creedence Clearwater Revival - The Singles Collection (2009) [FLAC] (2-CD with Bonus DVD5 NTSC)\Disc Two\05 - Have You Ever Seen The Rain .wav

Peak level 98.8 %
Track quality 100.0 %
Test CRC 9E8B7209
Copy CRC 9E8B7209
Track not present in AccurateRip database
Copy OK

Track 6

Filename E:\Creedence Clearwater Revival - The Singles Collection (2009) [FLAC] (2-CD with Bonus DVD5 NTSC)\Disc Two\06 - Hey Tonight.wav

Peak level 98.8 %
Track quality 100.0 %
Test CRC 64603926
Copy CRC 64603926
Track not present in AccurateRip database
Copy OK

Track 7

Filename E:\Creedence Clearwater Revival - The Singles Collection (2009) [FLAC] (2-CD with Bonus DVD5 NTSC)\Disc Two\07 - Sweet Hitch-Hiker.wav

Peak level 98.8 %
Track quality 100.0 %
Test CRC 0DB9DEC6
Copy CRC 0DB9DEC6
Track not present in AccurateRip database
Copy OK

Track 8

Filename E:\Creedence Clearwater Revival - The Singles Collection (2009) [FLAC] (2-CD with Bonus DVD5 NTSC)\Disc Two\08 - Door To Door.wav

Peak level 98.8 %
Track quality 100.0 %
Test CRC 99EEE954
Copy CRC 99EEE954
Track not present in AccurateRip database
Copy OK

Track 9

Filename E:\Creedence Clearwater Revival - The Singles Collection (2009) [FLAC] (2-CD with Bonus DVD5 NTSC)\Disc Two\09 - Someday Never Comes.wav

Peak level 98.8 %
Track quality 100.0 %
Test CRC D4EF77E1
Copy CRC D4EF77E1
Track not present in AccurateRip database
Copy OK

Track 10

Filename E:\Creedence Clearwater Revival - The Singles Collection (2009) [FLAC] (2-CD with Bonus DVD5 NTSC)\Disc Two\10 - Tearin' Up The Country.wav

Peak level 98.8 %
Track quality 100.0 %
Test CRC FB3E67FD
Copy CRC FB3E67FD
Track not present in AccurateRip database
Copy OK

Track 11

Filename E:\Creedence Clearwater Revival - The Singles Collection (2009) [FLAC] (2-CD with Bonus DVD5 NTSC)\Disc Two\11 - I Heard It Through The Grapevine (single edit).wav

Peak level 98.8 %
Track quality 100.0 %
Test CRC 506E4C2B
Copy CRC 506E4C2B
Track not present in AccurateRip database
Copy OK

Track 12

Filename E:\Creedence Clearwater Revival - The Singles Collection (2009) [FLAC] (2-CD with Bonus DVD5 NTSC)\Disc Two\12 - Good Golly, Miss Molly.wav

Peak level 98.8 %
Track quality 99.9 %
Test CRC 93EDB28A
Copy CRC 93EDB28A
Track not present in AccurateRip database
Copy OK

Track 13

Filename E:\Creedence Clearwater Revival - The Singles Collection (2009) [FLAC] (2-CD with Bonus DVD5 NTSC)\Disc Two\13 - 45 Revolutions Per Minute (Part I) (stereo).wav

Peak level 98.8 %
Track quality 100.0 %
Test CRC 96F265F9
Copy CRC 96F265F9
Track not present in AccurateRip database
Copy OK

Track 14

Filename E:\Creedence Clearwater Revival - The Singles Collection (2009) [FLAC] (2-CD with Bonus DVD5 NTSC)\Disc Two\14 - 45 Revolutions Per Minute (Part II) (stereo).wav

Peak level 98.8 %
Track quality 100.0 %
Test CRC 37600718
Copy CRC 37600718
Track not present in AccurateRip database
Copy OK


None of the tracks are present in the AccurateRip database

No errors occurred

End of status report

[CUETools log; Date: 26.05.2020 18:30:31; Version: 2.1.6]
[CTDB TOCID: FBk_Y21dCFeEIbDrVtPDsr1vLJY-] found.
Track | CTDB Status
1 | (92/92) Accurately ripped
2 | (92/92) Accurately ripped
3 | (92/92) Accurately ripped
4 | (92/92) Accurately ripped
5 | (92/92) Accurately ripped
6 | (92/92) Accurately ripped
7 | (92/92) Accurately ripped
8 | (92/92) Accurately ripped
9 | (92/92) Accurately ripped
10 | (92/92) Accurately ripped
11 | (92/92) Accurately ripped
12 | (92/92) Accurately ripped
13 | (89/92) Accurately ripped
14 | (92/92) Accurately ripped
[AccurateRip ID: 00156e66-00e6055f-b20ac30e] found.
Track [ CRC | V2 ] Status
01 [c2529c1e|cd018987] (23+48/71) Accurately ripped
02 [152f8eaf|27587061] (23+48/71) Accurately ripped
03 [c2900120|cf9c1083] (23+48/71) Accurately ripped
04 [f9283b8e|41633830] (23+48/71) Accurately ripped
05 [ddcc219c|0117b90b] (23+48/71) Accurately ripped
06 [a8a9a296|213bce74] (23+48/71) Accurately ripped
07 [38875fed|19568481] (23+48/71) Accurately ripped
08 [0fea9ac8|14fb9a54] (23+48/71) Accurately ripped
09 [f5e41153|aaeae2e5] (23+48/71) Accurately ripped
10 [d353bc2b|197b6fc1] (23+48/71) Accurately ripped
11 [ee8e35e2|b0e8e5bf] (24+49/73) Accurately ripped
12 [8554d389|adb3f7fc] (23+48/71) Accurately ripped
13 [1d3a9ce0|ea984380] (23+47/70) Accurately ripped
14 [3493df40|cfe945b6] (23+48/71) Accurately ripped

Track Peak [ CRC32 ] [W/O NULL] [ LOG ]
– 98,8 [7B19D433] [8585B6DF]
01 98,8 [9ADD0D36] [4765DC9A] CRC32
02 98,8 [0927C265] [551BD411] CRC32
03 98,8 [08154D3E] [36684E9C] CRC32
04 98,8 [7FD538B2] [A27EF3B0] CRC32
05 98,8 [9E8B7209] [5D3A6A78] CRC32
06 98,8 [64603926] [10D26517] CRC32
07 98,8 [0DB9DEC6] [C9296031] CRC32
08 98,8 [99EEE954] [613B8C58] CRC32
09 98,8 [D4EF77E1] [7038A20F] CRC32
10 98,8 [FB3E67FD] [3E65B00A] CRC32
11 98,8 [506E4C2B] [C53D4192] CRC32
12 98,8 [93EDB28A] [CBC3436F] CRC32
13 98,8 [96F265F9] [7A1BB6F3] CRC32
14 98,8 [37600718] [3C31B7C8] CRC32

Creedence Clearwater Revival - The Singles Collection (2009)


All thanks go to the original ripper(s) …

>>> CCR in my Blog <<<

DOWNLOAD: