Subcategories

Foreigner: Discography & Video (1977 - 2019) [9CD + 9LP + 10DVD]

Posted By: v3122
Foreigner: Discography & Video (1977 - 2019) [9CD + 9LP + 10DVD]

Foreigner: Discography & Video (1977 - 2019)
EAC | Flac(Image) + Cue + Log & MP3 CBR 320Kbps
9CD | Label: Various | ~ 2259 or 941 Mb | Artwork -> 486 Mb
9LP | Vinyl Rip 24/192 & 16/44.1 | Flac(Image + Cue) > 16.28 or 2.68 Gb
MP3 CBR 320Kbps > 966 Mb | Artwork(jpg) > 752 Mb
10DVD | NTSC 4:3 & 16:9 (720x480) VBR / PAL 16:9 (720x576) VBR
Dolby AC3, 2 ch / Dolby AC3, 6 ch / DTS, 6 ch / LinearPCM, 2 ch
Classic Rock / Hard Rock / AOR

Foreigner is a British–American rock band, originally formed in New York City & London in 1976 by veteran English musician and ex–Spooky Tooth member Mick Jones, and fellow Briton and ex–King Crimson member Ian McDonald along with American vocalist Lou Gramm.

Jones came up with the band's name as he, McDonald and Dennis Elliott were British, while Gramm, Al Greenwood and Ed Gagliardi were American. Their biggest hit single, "I Want to Know What Love Is", topped the United Kingdom and United States charts among others. Another one of their hit singles, "Waiting for a Girl Like You", peaked at number two on the US chart for a record-setting 10 weeks. They are one of the world's best-selling bands of all time with worldwide sales of more than 80 million records, including 37.5 million records in the US.

Current band members are Kelly Hansen (lead vocals and percussion); Mick Jones (lead and rhythm guitar, keyboard, backing and lead vocals); Thom Gimbel (rhythm guitar, keyboard, backing vocals, saxophone, and flute); Jeff Pilson (bass and backing vocals); Michael Bluestein (keyboard and backing vocals); Bruce Watson (lead and rhythm guitar, backing vocals); and Chris Frazier (drums and percussion)…

~ wiki
Foreigner: Discography & Video (1977 - 2019) [9CD + 9LP + 10DVD]

Foreigner: Discography & Video (1977 - 2019):

Foreigner: Discography & Video (1977 - 2019) [9CD + 9LP + 10DVD]

Tracklist CD01. 1977 - Foreigner ( West Germany Press For US, Atlantic 19109-2/Europe 250 356, Target CD):

01. Feels Like the First Time
02. Cold as Ice
03. Starrider
04. Headknocker
05. The Damage Is Done
06. Long, Long Way From Home
07. Woman Oh Woman
08. At War With the World
09. Fool for You Anyway
10. I Need You

Exact Audio Copy V0.99 prebeta 5 from 4. May 2009

Отчёт EAC об извлечении, выполненном 25. февраля 2011, 19:47

Foreigner / Foreigner

Дисковод: ASUS SDRW-08D2S-U Adapter: 2 ID: 0

Режим чтения : Достоверность
Использование точного потока : Да
Отключение кэша аудио : Да
Использование указателей C2 : Нет

Коррекция смещения при чтении : 103
Способность читать области Lead-in и Lead-out : Нет
Заполнение пропущенных сэмплов тишиной : Да
Удаление блоков с тишиной в начале и конце : Нет
При вычислениях CRC использовались нулевые сэмплы : Да
Интерфейс : Встроенный Win32-интерфейс для Win NT/2000

Выходной формат : Пользовательский кодировщик
Выбранный битрейт : 768 kBit/s
Качество : Высокий
Добавление ID3-тэга : Нет
Утилита сжатия : C:\Program Files\Exact Audio Copy\FLAC\FLAC.EXE
Дополнительные параметры : -8 -V %s


TOC извлечённого CD

Трек | Старт | Длительность | Начальный сектор | Конечный сектор
––––––––––––––––––––––––––––––––––-
1 | 0:00.32 | 3:52.55 | 32 | 17486
2 | 3:53.12 | 3:23.65 | 17487 | 32776
3 | 7:17.02 | 4:03.23 | 32777 | 51024
4 | 11:20.25 | 3:05.17 | 51025 | 64916
5 | 14:25.42 | 4:17.53 | 64917 | 84244
6 | 18:43.20 | 2:56.62 | 84245 | 97506
7 | 21:40.07 | 3:52.65 | 97507 | 114971
8 | 25:32.72 | 4:26.23 | 114972 | 134944
9 | 29:59.20 | 4:17.07 | 134945 | 154226
10 | 34:16.27 | 5:11.18 | 154227 | 177569


Характеристики диапазона извлечения и сообщения об ошибках

Выбранный диапазон

Имя файла D:\uTorrent.compl\Foreigner - Studio Discography 1977 - 1991 (Original Japan & West Germany 1st Press )\'Foreigner' 1977 ( West Germany Press For US, Atlantic 19109-2-Europe 250 356, Target CD )\Foreigner - Foreigner.wav

Пиковый уровень 89.1 %
Качество диапазона 99.9 %
CRC теста CA4BF822
CRC копии CA4BF822
Копирование… OK

Ошибок не произошло


AccurateRip: сводка

Трек 1 точное извлечение (доверие 14) [F8E808F5]
Трек 2 точное извлечение (доверие 14) [45F55B56]
Трек 3 точное извлечение (доверие 14) [58C89B94]
Трек 4 точное извлечение (доверие 14) [213961EF]
Трек 5 точное извлечение (доверие 14) [8FF49466]
Трек 6 точное извлечение (доверие 14) [25559174]
Трек 7 точное извлечение (доверие 14) [481B282E]
Трек 8 точное извлечение (доверие 14) [0F5C1180]
Трек 9 точное извлечение (доверие 14) [9DC016CF]
Трек 10 точное извлечение (доверие 13) [8BEADF00]

Все треки извлечены точно

Конец отчёта


[CUETools log; Date: 27.04.2020 17:06:46; Version: 2.1.4]
Pregap length 00:00:32.
[AccurateRip ID: 000e2fa8-00722236-76093f0a] found.
Track [ CRC | V2 ] Status
01 [f8e808f5|9e23d968] (18+22/40) Accurately ripped
02 [45f55b56|ce45e9c4] (18+22/40) Accurately ripped
03 [58c89b94|a2b78c6d] (18+22/40) Accurately ripped
04 [213961ef|fa24880d] (17+21/38) Accurately ripped
05 [8ff49466|22b7a98e] (18+21/39) Accurately ripped
06 [25559174|a7ea9e4f] (18+22/40) Accurately ripped
07 [481b282e|e04574d9] (17+23/40) Accurately ripped
08 [0f5c1180|9e3f2172] (17+23/40) Accurately ripped
09 [9dc016cf|b7babf7c] (18+22/40) Accurately ripped
10 [8beadf00|1cbc9ef2] (16+22/38) Accurately ripped

Track Peak [ CRC32 ] [W/O NULL] [ LOG ]
– 89,1 [CA4BF822] [9F3E8DD9] CRC32
01 89,1 [AFAD889B] [9A8383F5]
02 89,1 [C50AEF53] [80E00B69]
03 89,1 [4EC2909F] [538C045D]
04 89,1 [1C2D0F75] [B9A6545E]
05 89,1 [0D0F6447] [EA8E07CD]
06 89,1 [46476299] [CBFBF51E]
07 89,1 [12F9616F] [B58791CE]
08 89,1 [6621A5EE] [F81D171E]
09 89,1 [9ADB4E52] [B0254F59]
10 85,1 [2B1A7E20] [1C3AED3A]


Foreigner: Discography & Video (1977 - 2019) [9CD + 9LP + 10DVD]

Tracklist CD02. 1978 - Double Vision (Atlantic 250 476, Germany):

01. Hot blooded [0:04:25.72]
02. Blue morning, blue day [0:03:09.58]
03. You're all I am [0:03:21.50]
04. Back where you belong [0:03:14.10]
05. Love has taken its toll [0:03:29.05]
06. Double vision [0:03:43.15]
07. Tramontane (Instrumental) [0:03:55.22]
08. I have waited so long [0:04:07.03]
09. Lonely children [0:03:35.65]
10. Spellbinder [0:04:45.57]

Exact Audio Copy V1.0 beta 1 from 15. November 2010

EAC extraction logfile from 19. December 2010, 18:02

Foreigner / Double Vision (19999-2)

Used drive : TEAC DV-W516GDM Adapter: 0 ID: 1

Read mode : Secure
Utilize accurate stream : Yes
Defeat audio cache : Yes
Make use of C2 pointers : No

Read offset correction : 6
Overread into Lead-In and Lead-Out : No
Fill up missing offset samples with silence : Yes
Delete leading and trailing silent blocks : No
Null samples used in CRC calculations : Yes
Used interface : Native Win32 interface for Win NT & 2000

Used output format : User Defined Encoder
Selected bitrate : 896 kBit/s
Quality : High
Add ID3 tag : No
Command line compressor : C:\Program Files\Exact Audio Copy 1.0\Flac\flac.exe
Additional command line options : -8 -V %s


TOC of the extracted CD

Track | Start | Length | Start sector | End sector
––––––––––––––––––––––––––––-
1 | 0:00.00 | 4:25.72 | 0 | 19946
2 | 4:25.72 | 3:09.58 | 19947 | 34179
3 | 7:35.55 | 3:21.50 | 34180 | 49304
4 | 10:57.30 | 3:14.10 | 49305 | 63864
5 | 14:11.40 | 3:29.05 | 63865 | 79544
6 | 17:40.45 | 3:43.15 | 79545 | 96284
7 | 21:23.60 | 3:55.22 | 96285 | 113931
8 | 25:19.07 | 4:07.03 | 113932 | 132459
9 | 29:26.10 | 3:35.65 | 132460 | 148649
10 | 33:02.00 | 4:45.57 | 148650 | 170081


Range status and errors

Selected range

Filename C:\Olaf der Weisse\Foreigner . 1978 . Double Vision (19999-2)\Foreigner - Double Vision (19999-2).wav

Peak level 100.0 %
Extraction speed 0.2 X
Range quality 100.0 %
Test CRC 05B30FFB
Copy CRC 05B30FFB
Copy OK

No errors occurred


AccurateRip summary

Track 1 accurately ripped (confidence 3) [0B1A927F]
Track 2 accurately ripped (confidence 3) [B6FC9C0C]
Track 3 accurately ripped (confidence 3) [E44633BD]
Track 4 accurately ripped (confidence 2) [91C6F903]
Track 5 accurately ripped (confidence 3) [A965CB4C]
Track 6 accurately ripped (confidence 3) [71525C2E]
Track 7 accurately ripped (confidence 3) [DFF29528]
Track 8 accurately ripped (confidence 3) [6716575D]
Track 9 accurately ripped (confidence 2) [3A3DE258]
Track 10 accurately ripped (confidence 2) [788E601F]

All tracks accurately ripped

End of status report


[CUETools log; Date: 27.04.2020 16:57:37; Version: 2.1.4]
[AccurateRip ID: 000ddbdb-006ef34b-9308db0a] found.
Track [ CRC | V2 ] Status
01 [0b1a927f|5e8040bd] (03+03/52) Accurately ripped
02 [b6fc9c0c|28274fe8] (04+03/53) Accurately ripped
03 [e44633bd|692d76d4] (04+03/52) Accurately ripped
04 [91c6f903|eba962a6] (03+04/53) Accurately ripped
05 [a965cb4c|32a5c957] (04+03/52) Accurately ripped
06 [71525c2e|bc1e1bb3] (04+03/53) Accurately ripped
07 [dff29528|5539d6c3] (04+03/53) Accurately ripped
08 [6716575d|e6fdaca1] (04+03/50) Accurately ripped
09 [3a3de258|ef97df13] (03+03/50) Accurately ripped
10 [788e601f|9e3fbb26] (03+03/52) Accurately ripped
Offsetted by -1270:
01 [24fd1f03] (15/52) Accurately ripped
02 [2d309930] (15/53) Accurately ripped
03 [51439949] (15/52) Accurately ripped
04 [bd6b8e31] (15/53) Accurately ripped
05 [86ec9f1c] (15/52) Accurately ripped
06 [1a177e7a] (15/53) Accurately ripped
07 [233ea9aa] (15/53) Accurately ripped
08 [de682f5b] (15/50) Accurately ripped
09 [86313ce0] (15/50) Accurately ripped
10 [9296c163] (15/52) Accurately ripped

Track Peak [ CRC32 ] [W/O NULL] [ LOG ]
– 100,0 [05B30FFB] [BCE170DE] CRC32
01 84,4 [85C12D4E] [DAE8BEA8]
02 78,0 [B9DAD5FA] [7DBDC327]
03 75,7 [45FC0450] [FFEF1032]
04 100,0 [0B1D0966] [5561897A]
05 77,8 [8AB78DD8] [F7BA81F6]
06 100,0 [54937A36] [F51CA0DA]
07 77,5 [2B0233BD] [441D3B06]
08 82,6 [F16EAD4D] [5D0C1FC2]
09 91,4 [50DDF0F7] [0E55A28F]
10 76,3 [E2B2AC69] [9F1EB636]


Foreigner: Discography & Video (1977 - 2019) [9CD + 9LP + 10DVD]

Tracklist CD03. 1979 - Head Games (Japan Warner-Pioneer 32XP-153, West Germany Press For Japan, Target CD):

01. Dirty White Boy
02. Love On The Telephone
03. Women
04. I'll Get Even With You
05. Seventeen
06. Head Games
07. The Modern Day
08. Blinded By Science
09. Do What You Like
10. Rev On The Red Line

Exact Audio Copy V0.99 prebeta 5 from 4. May 2009

Отчёт EAC об извлечении, выполненном 14. ноября 2010, 21:09

Foreigner / Head Games

Дисковод: HL-DT-STDVDRAM GSA-T20N Adapter: 1 ID: 0

Режим чтения : Достоверность
Использование точного потока : Да
Отключение кэша аудио : Да
Использование указателей C2 : Нет

Коррекция смещения при чтении : 667
Способность читать области Lead-in и Lead-out : Нет
Заполнение пропущенных сэмплов тишиной : Да
Удаление блоков с тишиной в начале и конце : Нет
При вычислениях CRC использовались нулевые сэмплы : Да
Интерфейс : Встроенный Win32-интерфейс для Win NT/2000

Выходной формат : Пользовательский кодировщик
Выбранный битрейт : 768 kBit/s
Качество : Высокий
Добавление ID3-тэга : Нет
Утилита сжатия : C:\Program Files\Exact Audio Copy\FLAC\FLAC.EXE
Дополнительные параметры : -8 -V %s


TOC извлечённого CD

Трек | Старт | Длительность | Начальный сектор | Конечный сектор
––––––––––––––––––––––––––––––––––-
1 | 0:00.33 | 3:38.37 | 33 | 16419
2 | 3:38.70 | 3:17.50 | 16420 | 31244
3 | 6:56.45 | 3:24.23 | 31245 | 46567
4 | 10:20.68 | 3:41.22 | 46568 | 63164
5 | 14:02.15 | 4:35.73 | 63165 | 83862
6 | 18:38.13 | 3:39.37 | 83863 | 100324
7 | 22:17.50 | 3:26.08 | 100325 | 115782
8 | 25:43.58 | 4:55.20 | 115783 | 137927
9 | 30:39.03 | 3:58.60 | 137928 | 155837
10 | 34:37.63 | 3:34.52 | 155838 | 171939


Характеристики диапазона извлечения и сообщения об ошибках

Выбранный диапазон

Имя файла D:\uTorrent.compl\Foreigner - 'Head Games' 1979 ( 32XP-153 West Germany Press For Japan Target CD )\Foreigner - Head Games.wav

Пиковый уровень 92.7 %
Качество диапазона 100.0 %
CRC теста 48113522
CRC копии 48113522
Копирование… OK

Ошибок не произошло


AccurateRip: сводка

Трек 1 точное извлечение (доверие 20) [C33C96DE]
Трек 2 точное извлечение (доверие 22) [50FA658E]
Трек 3 точное извлечение (доверие 22) [BB5A2BEA]
Трек 4 точное извлечение (доверие 22) [9A89094B]
Трек 5 точное извлечение (доверие 22) [D0F0C2CA]
Трек 6 точное извлечение (доверие 22) [1A90797E]
Трек 7 точное извлечение (доверие 22) [16648F01]
Трек 8 точное извлечение (доверие 22) [611A941F]
Трек 9 точное извлечение (доверие 22) [99CD59EF]
Трек 10 точное извлечение (доверие 22) [8BEB44B5]

Все треки извлечены точно

Конец отчёта


[CUETools log; Date: 27.04.2020 17:08:31; Version: 2.1.4]
Pregap length 00:00:33.
[AccurateRip ID: 000e15e4-0071b366-7008f40a] found.
Track [ CRC | V2 ] Status
01 [c33c96de|82036a9d] (24+36/82) Accurately ripped
02 [50fa658e|a42e1f9d] (26+37/86) Accurately ripped
03 [bb5a2bea|f8199eeb] (26+37/87) Accurately ripped
04 [9a89094b|2116a3a6] (26+37/86) Accurately ripped
05 [d0f0c2ca|84f478f8] (26+37/87) Accurately ripped
06 [1a90797e|75bb4088] (26+37/87) Accurately ripped
07 [16648f01|8d069a7e] (26+37/86) Accurately ripped
08 [611a941f|82d7d0c6] (26+36/84) Accurately ripped
09 [99cd59ef|75d7ae84] (26+37/86) Accurately ripped
10 [8beb44b5|95b1ac61] (26+37/86) Accurately ripped
Offsetted by 1878:
01 [a4034589] (05/82) Accurately ripped
02 [8abd1e07] (05/86) Accurately ripped
03 [2cfaa5ac] (06/87) Accurately ripped
04 [a88f56f7] (06/86) Accurately ripped
05 [ab51fd64] (06/87) Accurately ripped
06 [47ffe8b8] (06/87) Accurately ripped
07 [d4ae32ae] (06/86) Accurately ripped
08 [a0ccfc2b] (06/84) Accurately ripped
09 [aac854e6] (06/86) Accurately ripped
10 [ed61cd35] (06/86) Accurately ripped
Offsetted by 2897:
01 [9aa44c92] (02/82) Accurately ripped
02 [1f6e51be] (02/86) Accurately ripped
03 [992bab70] (02/87) Accurately ripped
04 [cbc3c37b] (02/86) Accurately ripped
05 [de9c02e1] (02/87) Accurately ripped
06 [2720b385] (02/87) Accurately ripped
07 [0d40df8e] (02/86) Accurately ripped
08 [948f40f4] (02/84) Accurately ripped
09 [7773be86] (02/86) Accurately ripped
10 [d6ffe35a] (02/86) Accurately ripped
Offsetted by 6:
01 [6c7ddf50] (00/82) No match (V2 was not tested)
02 [0224ec9e] (00/86) No match (V2 was not tested)
03 [b84086a2] (00/87) No match (V2 was not tested)
04 [2e8b3d03] (00/86) No match (V2 was not tested)
05 [0fcc4434] (00/87) No match (V2 was not tested)
06 [c331f488] (00/87) No match (V2 was not tested)
07 [1fcf62dc] (00/86) No match (V2 was not tested)
08 [57402cac] (00/84) No match (V2 was not tested)
09 [98655127] (00/86) No match (V2 was not tested)
10 [062cc8a9] (00/86) No match (V2 was not tested)
Offsetted by 1718:
01 [67791a35] (00/82) No match (V2 was not tested)
02 [16a00096] (00/86) No match (V2 was not tested)
03 [2f3f76de] (00/87) No match (V2 was not tested)
04 [78bbe6be] (00/86) No match (V2 was not tested)
05 [1f1f2d04] (00/87) No match (V2 was not tested)
06 [b72dc258] (00/87) No match (V2 was not tested)
07 [26a798ec] (00/86) No match (V2 was not tested)
08 [705095c2] (00/84) No match (V2 was not tested)
09 [9868bea8] (00/86) No match (V2 was not tested)
10 [cf61a31a] (00/86) No match (V2 was not tested)

Track Peak [ CRC32 ] [W/O NULL] [ LOG ]
– 92,7 [48113522] [9011C393] CRC32
01 82,0 [3DAE5476] [79D8549A]
02 92,7 [B1009A8B] [3A0DE9EE]
03 89,1 [0C5B2E76] [A51033B6]
04 85,7 [7BE8539A] [0EFE6493]
05 92,1 [0D7D697C] [FC00E459]
06 87,0 [3CB71E30] [D4AA986A]
07 91,3 [D5B56BD6] [721BB73E]
08 89,7 [6651A7AA] [C3B8A96E]
09 82,8 [3E52994A] [293851D8]
10 86,6 [48323451] [36009C9A]


Foreigner: Discography & Video (1977 - 2019) [9CD + 9LP + 10DVD]

Tracklist CD04. 1981 - 4 (Atlantic 250 796, Germany):

01. Night Life [0:03:49.65]
02. Juke Box Hero [0:04:19.57]
03. Break It Up [0:04:13.10]
04. Waiting for a Girl Like You [0:04:52.40]
05. Luanne [0:03:26.03]
06. Urgent [0:04:31.10]
07. I'm Gonna Win [0:04:52.10]
08. Woman in Black [0:04:46.20]
09. Girl on the Moon [0:03:52.62]
10. Don't Let Go [0:03:48.53]

Exact Audio Copy V1.0 beta 1 from 15. November 2010

EAC extraction logfile from 19. December 2010, 18:56

Foreigner / 4 (16999-2)

Used drive : TEAC DV-W516GDM Adapter: 0 ID: 1

Read mode : Secure
Utilize accurate stream : Yes
Defeat audio cache : Yes
Make use of C2 pointers : No

Read offset correction : 6
Overread into Lead-In and Lead-Out : No
Fill up missing offset samples with silence : Yes
Delete leading and trailing silent blocks : No
Null samples used in CRC calculations : Yes
Used interface : Native Win32 interface for Win NT & 2000

Used output format : User Defined Encoder
Selected bitrate : 896 kBit/s
Quality : High
Add ID3 tag : No
Command line compressor : C:\Program Files\Exact Audio Copy 1.0\Flac\flac.exe
Additional command line options : -8 -V %s


TOC of the extracted CD

Track | Start | Length | Start sector | End sector
––––––––––––––––––––––––––––-
1 | 0:01.00 | 3:49.65 | 75 | 17314
2 | 3:50.65 | 4:19.57 | 17315 | 36796
3 | 8:10.47 | 4:13.10 | 36797 | 55781
4 | 12:23.57 | 4:52.40 | 55782 | 77721
5 | 17:16.22 | 3:26.03 | 77722 | 93174
6 | 20:42.25 | 4:31.10 | 93175 | 113509
7 | 25:13.35 | 4:52.10 | 113510 | 135419
8 | 30:05.45 | 4:46.20 | 135420 | 156889
9 | 34:51.65 | 3:52.62 | 156890 | 174351
10 | 38:44.52 | 3:48.53 | 174352 | 191504


Range status and errors

Selected range

Filename C:\Olaf der Weisse\Foreigner . 1981 . 4 (16999-2)\Foreigner - 4 (16999-2).wav

Peak level 85.8 %
Extraction speed 0.1 X
Range quality 100.0 %
Test CRC BB978EE9
Copy CRC BB978EE9
Copy OK

No errors occurred


AccurateRip summary

Track 1 accurately ripped (confidence 144) [8EFFE7CB]
Track 2 accurately ripped (confidence 148) [F9FD0EC8]
Track 3 accurately ripped (confidence 147) [3196139E]
Track 4 accurately ripped (confidence 148) [D365E097]
Track 5 accurately ripped (confidence 149) [95623B87]
Track 6 accurately ripped (confidence 146) [DBEA70F6]
Track 7 accurately ripped (confidence 149) [360FDA66]
Track 8 accurately ripped (confidence 147) [9DE96D1C]
Track 9 accurately ripped (confidence 147) [67F3AE34]
Track 10 accurately ripped (confidence 143) [AE35E254]

All tracks accurately ripped

End of status report


[CUETools log; Date: 27.04.2020 17:00:12; Version: 2.1.4]
Pregap length 00:01:00.
[AccurateRip ID: 00100f7f-008106db-7709f80a] found.
Track [ CRC | V2 ] Status
01 [8effe7cb|624cda6d] (184+200/397) Accurately ripped
02 [f9fd0ec8|d4299208] (188+200/402) Accurately ripped
03 [3196139e|aef18d33] (187+200/403) Accurately ripped
04 [d365e097|4633a18e] (189+200/404) Accurately ripped
05 [95623b87|588d7639] (190+200/404) Accurately ripped
06 [dbea70f6|9567be42] (187+200/401) Accurately ripped
07 [360fda66|61929a07] (190+200/403) Accurately ripped
08 [9de96d1c|a3f05153] (187+200/402) Accurately ripped
09 [67f3ae34|fe80bf49] (187+200/401) Accurately ripped
10 [ae35e254|02e83acc] (181+200/395) Accurately ripped
Offsetted by -79:
01 [b0e76867] (003/397) Accurately ripped
02 [fbadb20e] (003/402) Accurately ripped
03 [8815e342] (005/403) Accurately ripped
04 [6c7c6d08] (004/404) Accurately ripped
05 [9e96f7a1] (003/404) Accurately ripped
06 [be0f6c86] (004/401) Accurately ripped
07 [ee7aa636] (004/403) Accurately ripped
08 [b3430320] (004/402) Accurately ripped
09 [fb4dd4b2] (004/401) Accurately ripped
10 [a0733247] (004/395) Accurately ripped

Track Peak [ CRC32 ] [W/O NULL] [ LOG ]
– 85,8 [BB978EE9] [2C078338] CRC32
01 84,8 [AC92B1D9] [B9512BEA]
02 85,8 [96997830] [C865BA01]
03 81,6 [23451D56] [B1299304]
04 68,4 [5DD93DA7] [185D6B2A]
05 79,7 [9FA4F952] [A514F816]
06 82,9 [885E178E] [4E96C2F0]
07 80,0 [A5AD7072] [098B7D74]
08 80,4 [6A45FA97] [D4BDAC6F]
09 70,2 [99BD141B] [FD7DF705]
10 76,7 [125DF20C] [6EF1722C]


Foreigner: Discography & Video (1977 - 2019) [9CD + 9LP + 10DVD]

Tracklist CD05. 1984 - Agent Provocateur (West Germany Press For US, Atlantic 81999-2, Target CD):

01. Tooth And Nail
02. That Was Yesterday
03. I Want To Know What Love Is
04. Growing Up The Hard Way
05. Reaction To Action
06. Stranger In My Own House
07. A Love In Vain
08. Down On Love
09. Two Different Worlds
10. She's Too Tough

Exact Audio Copy V0.99 prebeta 5 from 4. May 2009

Отчёт EAC об извлечении, выполненном 25. февраля 2011, 20:38

Foreigner / Agent Provocateur

Дисковод: ASUS SDRW-08D2S-U Adapter: 2 ID: 0

Режим чтения : Достоверность
Использование точного потока : Да
Отключение кэша аудио : Да
Использование указателей C2 : Нет

Коррекция смещения при чтении : 103
Способность читать области Lead-in и Lead-out : Нет
Заполнение пропущенных сэмплов тишиной : Да
Удаление блоков с тишиной в начале и конце : Нет
При вычислениях CRC использовались нулевые сэмплы : Да
Интерфейс : Встроенный Win32-интерфейс для Win NT/2000

Выходной формат : Пользовательский кодировщик
Выбранный битрейт : 768 kBit/s
Качество : Высокий
Добавление ID3-тэга : Нет
Утилита сжатия : C:\Program Files\Exact Audio Copy\FLAC\FLAC.EXE
Дополнительные параметры : -8 -V %s


TOC извлечённого CD

Трек | Старт | Длительность | Начальный сектор | Конечный сектор
––––––––––––––––––––––––––––––––––-
1 | 0:00.32 | 3:55.20 | 32 | 17676
2 | 3:55.52 | 3:50.15 | 17677 | 34941
3 | 7:45.67 | 5:05.38 | 34942 | 57854
4 | 12:51.30 | 4:14.15 | 57855 | 76919
5 | 17:05.45 | 3:59.50 | 76920 | 94894
6 | 21:05.20 | 5:04.35 | 94895 | 117729
7 | 26:09.55 | 4:30.25 | 117730 | 138004
8 | 30:40.05 | 4:10.67 | 138005 | 156821
9 | 34:50.72 | 4:31.18 | 156822 | 177164
10 | 39:22.15 | 3:09.37 | 177165 | 191376


Характеристики диапазона извлечения и сообщения об ошибках

Выбранный диапазон

Имя файла D:\uTorrent.compl\Foreigner - Studio Discography 1977 - 1991 (Original Japan & West Germany 1st Press )\'Agent Provocateur' 1984 ( West Germany Press For US, Atlantic 81199-2, Target CD )\Foreigner - Agent Provocateur.wav

Пиковый уровень 92.5 %
Качество диапазона 100.0 %
CRC теста 230C19B8
CRC копии 230C19B8
Копирование… OK

Ошибок не произошло


AccurateRip: сводка

Трек 1 точное извлечение (доверие 34) [7222CCB9]
Трек 2 точное извлечение (доверие 34) [B32E6D70]
Трек 3 точное извлечение (доверие 33) [F0FD7151]
Трек 4 точное извлечение (доверие 34) [4D9CC2D2]
Трек 5 точное извлечение (доверие 34) [01AC60D2]
Трек 6 точное извлечение (доверие 34) [E5639AA5]
Трек 7 точное извлечение (доверие 34) [3AA33798]
Трек 8 точное извлечение (доверие 34) [9E5114B3]
Трек 9 точное извлечение (доверие 34) [6AE9A438]
Трек 10 точное извлечение (доверие 34) [900FE04A]

Все треки извлечены точно

Конец отчёта


[CUETools log; Date: 27.04.2020 17:04:54; Version: 2.1.4]
Pregap length 00:00:32.
[AccurateRip ID: 001039fc-008256fb-8309f70a] found.
Track [ CRC | V2 ] Status
01 [7222ccb9|7eadf58c] (043+073/207) Accurately ripped
02 [b32e6d70|b204e202] (043+074/209) Accurately ripped
03 [f0fd7151|8945cef2] (042+074/209) Accurately ripped
04 [4d9cc2d2|d63ee7ad] (043+074/206) Accurately ripped
05 [01ac60d2|6afffaf6] (043+074/207) Accurately ripped
06 [e5639aa5|a3ddb95d] (043+074/208) Accurately ripped
07 [3aa33798|69280d30] (043+074/205) Accurately ripped
08 [9e5114b3|3d6a13ec] (044+074/206) Accurately ripped
09 [6ae9a438|a6a28ceb] (043+074/205) Accurately ripped
10 [900fe04a|c9f568d2] (043+073/201) Accurately ripped
Offsetted by -126:
01 [abb1bba3] (034/207) Accurately ripped
02 [97c4636e] (035/209) Accurately ripped
03 [cf5eade7] (035/209) Accurately ripped
04 [51dca8d8] (034/206) Accurately ripped
05 [83e8c822] (034/207) Accurately ripped
06 [83ed8d49] (034/208) Accurately ripped
07 [a44504ba] (034/205) Accurately ripped
08 [1dc74c97] (034/206) Accurately ripped
09 [2e9bea40] (034/205) Accurately ripped
10 [07b10de8] (032/201) Accurately ripped

Track Peak [ CRC32 ] [W/O NULL] [ LOG ]
– 92,5 [230C19B8] [B332BDBB] CRC32
01 89,4 [D3591ECA] [3A3A0D00]
02 79,9 [6648B590] [CA0E9354]
03 89,1 [66A6CB60] [A9404583]
04 84,9 [D89AB5CD] [924E36FD]
05 86,5 [9A5F4D50] [F5A23E5E]
06 87,2 [B71ED341] [15CF91EE]
07 92,5 [6352DFB6] [A5110D98]
08 77,8 [FE8A28E0] [37001E74]
09 75,3 [5A2489FA] [26F690D7]
10 85,3 [300182A6] [F1B325AA]


Foreigner: Discography & Video (1977 - 2019) [9CD + 9LP + 10DVD]

Tracklist CD06. 1987 - Inside Information (Japan Warner-Pioneer 32XD-916):

01. Heart Turns To Stone
02. Can't Wait
03. Say You Will
04. I Don't Want To Live Without You
05. Counting Every Minute
06. Inside Information
07. The Beat Of My Heart
08. Face To Face
09. Out Of The Blue
10. A Night To Remember

Exact Audio Copy V1.0 beta 3 from 29. August 2011

EAC extraction logfile from 10. May 2015, 12:24

Foreigner / Inside Information

Used drive : PLEXTOR DVDR PX-L890SA Adapter: 3 ID: 1

Read mode : Secure
Utilize accurate stream : Yes
Defeat audio cache : Yes
Make use of C2 pointers : No

Read offset correction : 6
Overread into Lead-In and Lead-Out : No
Fill up missing offset samples with silence : Yes
Delete leading and trailing silent blocks : No
Null samples used in CRC calculations : Yes
Used interface : Native Win32 interface for Win NT & 2000

Used output format : User Defined Encoder
Selected bitrate : 768 kBit/s
Quality : High
Add ID3 tag : No
Command line compressor : C:\Program Files (x86)\Exact Audio Copy\Flac\flac.exe
Additional command line options : -V -8 -T "Date=%year%" -T "Genre=%genre%" %source%


TOC of the extracted CD

Track | Start | Length | Start sector | End sector
––––––––––––––––––––––––––––-
1 | 0:00.00 | 4:34.12 | 0 | 20561
2 | 4:34.12 | 4:31.25 | 20562 | 40911
3 | 9:05.37 | 4:14.70 | 40912 | 60031
4 | 13:20.32 | 4:56.08 | 60032 | 82239
5 | 18:16.40 | 4:12.00 | 82240 | 101139
6 | 22:28.40 | 4:12.37 | 101140 | 120076
7 | 26:41.02 | 5:12.48 | 120077 | 143524
8 | 31:53.50 | 3:56.20 | 143525 | 161244
9 | 35:49.70 | 4:44.30 | 161245 | 182574
10 | 40:34.25 | 4:09.65 | 182575 | 201314


Range status and errors

Selected range

Filename H:\MUSIC\Foreigner\1987. Foreigner - Inside Information (Warner-Pioneer 32XD-916, Japan)\Foreigner - Inside Information.wav

Peak level 100.0 %
Extraction speed 8.1 X
Range quality 99.9 %
Test CRC C0F8C235
Copy CRC C0F8C235
Copy OK

No errors occurred


AccurateRip summary

Track 1 accurately ripped (confidence 11) [77859F47] (AR v2)
Track 2 accurately ripped (confidence 11) [DBD0BBA0] (AR v2)
Track 3 accurately ripped (confidence 11) [7320AA75] (AR v2)
Track 4 accurately ripped (confidence 11) [2E691C08] (AR v2)
Track 5 accurately ripped (confidence 11) [2EF8B4B9] (AR v2)
Track 6 accurately ripped (confidence 11) [DC1ED1D2] (AR v2)
Track 7 accurately ripped (confidence 11) [DEDC73A8] (AR v2)
Track 8 accurately ripped (confidence 11) [4011F5BF] (AR v2)
Track 9 accurately ripped (confidence 11) [09536F66] (AR v2)
Track 10 accurately ripped (confidence 11) [4663ACF2] (AR v2)

All tracks accurately ripped

End of status report

==== Log checksum FDEA198C2E54DCB064DDF7082CB779093548AA377E0F19D6B43E44E7A4C7030C ====


[CUETools log; Date: 29.03.2020 9:17:26; Version: 2.1.4]
[AccurateRip ID: 0010fe17-0087d62c-780a7c0a] found.
Track [ CRC | V2 ] Status
01 [6571da26|77859f47] (00+20/20) Accurately ripped
02 [346853e8|dbd0bba0] (00+20/20) Accurately ripped
03 [27d8984e|7320aa75] (00+20/20) Accurately ripped
04 [01e57ad5|2e691c08] (00+20/20) Accurately ripped
05 [0a021140|2ef8b4b9] (00+20/20) Accurately ripped
06 [3ca94f5a|dc1ed1d2] (00+20/20) Accurately ripped
07 [1191a517|dedc73a8] (00+20/20) Accurately ripped
08 [30b11814|4011f5bf] (00+20/20) Accurately ripped
09 [2f772016|09536f66] (00+20/20) Accurately ripped
10 [7ba88850|4663acf2] (00+20/20) Accurately ripped

Track Peak [ CRC32 ] [W/O NULL] [ LOG ]
– 100,0 [C0F8C235] [C97790F9] CRC32
01 100,0 [1C9D8D5C] [70A8C3FD]
02 95,1 [1DA41F5D] [91E0DC93]
03 82,9 [83E074A7] [4C6B06C9]
04 74,0 [EB05C154] [DA7CBE06]
05 91,7 [18C1ACC3] [41896DEF]
06 94,9 [251A9344] [4E6CB727]
07 94,5 [2A3F81F3] [ED0EECB6]
08 100,0 [D0320154] [A849D5D1]
09 76,0 [B882BF72] [4C8B8ABA]
10 93,1 [774DFBFA] [C162B294]


Foreigner: Discography & Video (1977 - 2019) [9CD + 9LP + 10DVD]

Tracklist CD07. 1991 - Unusual Heat (Japan Warner AMCY-270):

01. Only Heaven Knows
02. Lowdown And Dirty
03. I'll Fight For You
04. Moment Of Truth
05. Mountain Of Love
06. Ready For The Rain
07. When The Night Comes Down
08. Safe In My Heart
09. No Hiding Place
10. Flesh Wound
11. Unusual Heat

Exact Audio Copy V0.99 prebeta 5 from 4. May 2009

Отчёт EAC об извлечении, выполненном 31. мая 2010, 23:09

Foreigner / Unusual Heat

Дисковод: HL-DT-STDVDRAM GSA-T20N Adapter: 1 ID: 0

Режим чтения : Достоверность
Использование точного потока : Да
Отключение кэша аудио : Да
Использование указателей C2 : Нет

Коррекция смещения при чтении : 667
Способность читать области Lead-in и Lead-out : Нет
Заполнение пропущенных сэмплов тишиной : Да
Удаление блоков с тишиной в начале и конце : Нет
При вычислениях CRC использовались нулевые сэмплы : Да
Интерфейс : Встроенный Win32-интерфейс для Win NT/2000

Выходной формат : Пользовательский кодировщик
Выбранный битрейт : 768 kBit/s
Качество : Высокий
Добавление ID3-тэга : Нет
Утилита сжатия : C:\Program Files\Exact Audio Copy\FLAC\FLAC.EXE
Дополнительные параметры : -8 -V %s


TOC извлечённого CD

Трек | Старт | Длительность | Начальный сектор | Конечный сектор
––––––––––––––––––––––––––––––––––-
1 | 0:00.00 | 4:49.45 | 0 | 21719
2 | 4:49.45 | 4:21.67 | 21720 | 41361
3 | 9:11.37 | 6:03.33 | 41362 | 68619
4 | 15:14.70 | 4:26.20 | 68620 | 88589
5 | 19:41.15 | 4:39.02 | 88590 | 109516
6 | 24:20.17 | 5:03.30 | 109517 | 132271
7 | 29:23.47 | 4:45.08 | 132272 | 153654
8 | 34:08.55 | 4:33.40 | 153655 | 174169
9 | 38:42.20 | 3:57.25 | 174170 | 191969
10 | 42:39.45 | 4:17.37 | 191970 | 211281
11 | 46:57.07 | 4:33.18 | 211282 | 231774


Характеристики диапазона извлечения и сообщения об ошибках

Выбранный диапазон

Имя файла D:\uTorrent.compl\Foreigner - 'Unusual Heat' 1991 ( Japan 1st Press AMCY-270 )\Foreigner - Unusual Heat.wav

Пиковый уровень 100.0 %
Качество диапазона 100.0 %
CRC теста 4DEC9C2E
CRC копии 4DEC9C2E
Копирование… OK

Ошибок не произошло


AccurateRip: сводка

Трек 1 нет в базе данных
Трек 2 нет в базе данных
Трек 3 нет в базе данных
Трек 4 нет в базе данных
Трек 5 нет в базе данных
Трек 6 нет в базе данных
Трек 7 нет в базе данных
Трек 8 нет в базе данных
Трек 9 нет в базе данных
Трек 10 нет в базе данных
Трек 11 нет в базе данных

Ни одного трека нет в базе AccurateRip

Конец отчёта


[CUETools log; Date: 27.04.2020 17:11:05; Version: 2.1.4]
[AccurateRip ID: 0015be25-00bb872b-8c0c120b] found.
Track [ CRC | V2 ] Status
01 [7a956621|b6d59e02] (02+14/16) Accurately ripped
02 [cfdeb457|8deede81] (02+14/16) Accurately ripped
03 [8184bcf1|61b970b2] (02+14/16) Accurately ripped
04 [8641c4ab|3097eb3f] (02+14/16) Accurately ripped
05 [57ff507b|28abc45d] (02+14/16) Accurately ripped
06 [3c839275|9709e615] (02+14/16) Accurately ripped
07 [c4d61075|afdd5ced] (02+14/16) Accurately ripped
08 [3df2c064|6a35382a] (02+14/16) Accurately ripped
09 [8ab22904|5cbae133] (02+14/16) Accurately ripped
10 [8f42d670|d0906ac3] (02+14/16) Accurately ripped
11 [c9be0b16|70231b11] (02+13/15) Accurately ripped

Track Peak [ CRC32 ] [W/O NULL] [ LOG ]
– 99,9 [4DEC9C2E] [C29A777E] CRC32
01 99,9 [1348B16F] [9F342FC7]
02 99,9 [D0A78850] [BCDEF103]
03 99,9 [0BAEFF05] [E6E0579A]
04 99,9 [C9BA3D7D] [ACF8CC0E]
05 99,9 [E6E029A6] [6D48181A]
06 99,9 [5731CAD6] [2E428BCA]
07 99,9 [626F9EE6] [758B3ADA]
08 99,9 [4820ABB8] [0B08CFF8]
09 99,9 [7E911FA3] [8A8C3368]
10 99,9 [DDA89295] [0A4B03B9]
11 99,9 [13051754] [AAE7DBDF]


Foreigner: Discography & Video (1977 - 2019) [9CD + 9LP + 10DVD]

Tracklist CD08. 1994 - Mr. Moonlight (Arista 7432123852, UK):

01. White Lie [0:04:17.23]
02. Rain [0:04:35.25]
03. Until The End Of Time [0:04:52.45]
04. All I Need To Know [0:04:45.30]
05. Running The Risk [0:05:09.42]
06. Real World [0:06:20.48]
07. Big Dog [0:04:47.40]
08. Hole In My Soul [0:05:09.50]
09. I Keep Hoping [0:05:10.22]
10. Under The Gun [0:04:18.35]
11. Hand On My Heart [0:04:57.60]

Exact Audio Copy V1.0 beta 3 from 29. August 2011

EAC extraction logfile from 16. August 2014, 17:43

Foreigner / Mr. Moonlight

Used drive : PLEXTOR DVDR PX-L890SA Adapter: 1 ID: 0

Read mode : Secure
Utilize accurate stream : Yes
Defeat audio cache : Yes
Make use of C2 pointers : No

Read offset correction : 6
Overread into Lead-In and Lead-Out : No
Fill up missing offset samples with silence : Yes
Delete leading and trailing silent blocks : No
Null samples used in CRC calculations : Yes
Used interface : Native Win32 interface for Win NT & 2000

Used output format : User Defined Encoder
Selected bitrate : 768 kBit/s
Quality : High
Add ID3 tag : No
Command line compressor : G:\Program Files\Exact Audio Copy\FLAC\FLAC.EXE
Additional command line options : -V -8 -T "Date=%year%" -T "Genre=%genre%" %source%


TOC of the extracted CD

Track | Start | Length | Start sector | End sector
––––––––––––––––––––––––––––-
1 | 0:00.00 | 4:17.23 | 0 | 19297
2 | 4:17.23 | 4:35.25 | 19298 | 39947
3 | 8:52.48 | 4:52.45 | 39948 | 61892
4 | 13:45.18 | 4:45.30 | 61893 | 83297
5 | 18:30.48 | 5:09.42 | 83298 | 106514
6 | 23:40.15 | 6:20.48 | 106515 | 135062
7 | 30:00.63 | 4:47.40 | 135063 | 156627
8 | 34:48.28 | 5:09.50 | 156628 | 179852
9 | 39:58.03 | 5:10.22 | 179853 | 203124
10 | 45:08.25 | 4:18.35 | 203125 | 222509
11 | 49:26.60 | 4:57.60 | 222510 | 244844


Range status and errors

Selected range

Filename H:\MUSIC\Foreigner\1994. Foreigner - Mr. Moonlight (Arista 74321232852 , UK)\Foreigner - Mr. Moonlight.wav

Peak level 99.8 %
Extraction speed 5.7 X
Range quality 99.9 %
Test CRC 873AF3CB
Copy CRC 873AF3CB
Copy OK

No errors occurred


AccurateRip summary

Track 1 accurately ripped (confidence 54) [DE50C93C] (AR v2)
Track 2 accurately ripped (confidence 54) [522958D9] (AR v2)
Track 3 accurately ripped (confidence 54) [42251292] (AR v2)
Track 4 accurately ripped (confidence 54) [4CD6E5D0] (AR v2)
Track 5 accurately ripped (confidence 53) [4B410651] (AR v2)
Track 6 accurately ripped (confidence 54) [D7E07813] (AR v2)
Track 7 accurately ripped (confidence 53) [1C0A9BFD] (AR v2)
Track 8 accurately ripped (confidence 54) [5BBBB758] (AR v2)
Track 9 accurately ripped (confidence 54) [F348D703] (AR v2)
Track 10 accurately ripped (confidence 54) [1820FFCE] (AR v2)
Track 11 accurately ripped (confidence 55) [38E61942] (AR v2)

All tracks accurately ripped

End of status report

==== Log checksum 1EDACA3F239E8C9D127FAC58B715BB9319A4ACC871A73ED5855C879C637C6E27 ====


[CUETools log; Date: 27.04.2020 17:02:51; Version: 2.1.4]
[AccurateRip ID: 00162bb0-00c1b8b7-7c0cc00b] found.
Track [ CRC | V2 ] Status
01 [fa6afad1|de50c93c] (065+123/191) Accurately ripped
02 [78ce0bfe|522958d9] (065+123/193) Accurately ripped
03 [4250050e|42251292] (065+123/193) Accurately ripped
04 [5f6dc8e2|4cd6e5d0] (065+122/192) Accurately ripped
05 [560ca62d|4b410651] (065+122/192) Accurately ripped
06 [70ac89c9|d7e07813] (064+123/192) Accurately ripped
07 [3581f918|1c0a9bfd] (064+122/191) Accurately ripped
08 [18581d9c|5bbbb758] (064+122/191) Accurately ripped
09 [49be1f78|f348d703] (064+123/192) Accurately ripped
10 [b01437e2|1820ffce] (064+123/192) Accurately ripped
11 [2e856a7a|38e61942] (064+124/193) Accurately ripped
Offsetted by -667:
01 [0a6feec6] (000/191) No match (V2 was not tested)
02 [7179e677] (000/193) No match (V2 was not tested)
03 [451be306] (000/193) No match (V2 was not tested)
04 [d3ed21d6] (000/192) No match (V2 was not tested)
05 [8bcf2850] (000/192) No match (V2 was not tested)
06 [c4c2c248] (000/192) No match (V2 was not tested)
07 [573a858f] (000/191) No match (V2 was not tested)
08 [7dd1174f] (000/191) No match (V2 was not tested)
09 [a4b905a5] (000/192) No match (V2 was not tested)
10 [e8ace15d] (000/192) No match (V2 was not tested)
11 [d2ca2120] (000/193) No match (V2 was not tested)

Track Peak [ CRC32 ] [W/O NULL] [ LOG ]
– 99,8 [873AF3CB] [7AD71FD8] CRC32
01 99,8 [E186F8D4] [48367485]
02 99,8 [0C31FFFE] [960C2F86]
03 99,8 [2CF852C8] [2F2511B4]
04 99,8 [8BDFED2C] [68D3D4C4]
05 99,8 [B493A829] [E2587B43]
06 99,8 [29881CFD] [6AA9BFC3]
07 99,8 [0B93F486] [C13EC5B5]
08 99,8 [E2C9F4CD] [16EFE620]
09 99,8 [4882C913] [3D023F27]
10 99,8 [934BC2EA] [F87D9EB6]
11 99,8 [C31F554A] [4E3693DC]


Foreigner: Discography & Video (1977 - 2019) [9CD + 9LP + 10DVD]

Tracklist CD09. 2010 - Can't Slow Down (Ear Music 0202672ERE, Germany):

01. Can't Slow Down [0:03:28.04]
02. In Pieces [0:03:53.40]
03. When It Comes to Love [0:03:53.19]
04. Living in a Dream [0:03:42.42]
05. I Can't Give Up [0:04:31.55]
06. Ready [0:03:43.17]
07. Give Me a Sign [0:03:52.27]
08. I'll Be Home Tonight [0:04:14.04]
09. Too Late [0:03:45.13]
10. Lonely [0:03:28.41]
11. As Long as I Live [0:03:47.55]
12. Angel Tonight [0:03:31.73]
13. Fool for You Anyway [0:04:05.28]
14. I Want to Know What Love Is [Live] [0:07:00.39]

Exact Audio Copy V1.0 beta 3 from 29. August 2011

EAC extraction logfile from 23. August 2014, 19:21

Foreigner / Can't Slow Down

Used drive : PLEXTOR DVDR PX-L890SA Adapter: 1 ID: 0

Read mode : Secure
Utilize accurate stream : Yes
Defeat audio cache : Yes
Make use of C2 pointers : No

Read offset correction : 6
Overread into Lead-In and Lead-Out : No
Fill up missing offset samples with silence : Yes
Delete leading and trailing silent blocks : No
Null samples used in CRC calculations : Yes
Used interface : Native Win32 interface for Win NT & 2000

Used output format : User Defined Encoder
Selected bitrate : 768 kBit/s
Quality : High
Add ID3 tag : No
Command line compressor : G:\Program Files\Exact Audio Copy\FLAC\FLAC.EXE
Additional command line options : -V -8 -T "Date=%year%" -T "Genre=%genre%" %source%


TOC of the extracted CD

Track | Start | Length | Start sector | End sector
––––––––––––––––––––––––––––-
1 | 0:00.00 | 3:28.04 | 0 | 15603
2 | 3:28.04 | 3:53.40 | 15604 | 33118
3 | 7:21.44 | 3:53.19 | 33119 | 50612
4 | 11:14.63 | 3:42.42 | 50613 | 67304
5 | 14:57.30 | 4:31.55 | 67305 | 87684
6 | 19:29.10 | 3:43.17 | 87685 | 104426
7 | 23:12.27 | 3:52.27 | 104427 | 121853
8 | 27:04.54 | 4:14.04 | 121854 | 140907
9 | 31:18.58 | 3:45.13 | 140908 | 157795
10 | 35:03.71 | 3:28.41 | 157796 | 173436
11 | 38:32.37 | 3:47.55 | 173437 | 190516
12 | 42:20.17 | 3:31.73 | 190517 | 206414
13 | 45:52.15 | 4:05.28 | 206415 | 224817
14 | 49:57.43 | 7:00.39 | 224818 | 256356


Range status and errors

Selected range

Filename H:\MUSIC\Foreigner\2010. Foreigner - Can't Slow Down (Ear Music 0202672ERE, Germany)\Foreigner - Can't Slow Down.wav

Peak level 100.0 %
Extraction speed 5.9 X
Range quality 100.0 %
Test CRC 470322E3
Copy CRC 470322E3
Copy OK

No errors occurred


AccurateRip summary

Track 1 accurately ripped (confidence 20) [B4BBA6C9] (AR v2)
Track 2 accurately ripped (confidence 20) [7F1B0A76] (AR v2)
Track 3 accurately ripped (confidence 20) [EB8ECBA4] (AR v2)
Track 4 accurately ripped (confidence 20) [850A19AC] (AR v2)
Track 5 accurately ripped (confidence 20) [4ECBD0BC] (AR v2)
Track 6 accurately ripped (confidence 20) [439BA360] (AR v2)
Track 7 accurately ripped (confidence 20) [1FCD19CD] (AR v2)
Track 8 accurately ripped (confidence 20) [15AAFA35] (AR v2)
Track 9 accurately ripped (confidence 20) [71A0AD25] (AR v2)
Track 10 accurately ripped (confidence 20) [052F404C] (AR v2)
Track 11 accurately ripped (confidence 20) [1D42A93E] (AR v2)
Track 12 accurately ripped (confidence 20) [4605E342] (AR v2)
Track 13 accurately ripped (confidence 20) [9902E79C] (AR v2)
Track 14 accurately ripped (confidence 20) [4AADC8DC] (AR v2)

All tracks accurately ripped

End of status report

==== Log checksum A3E1DF18C9E5B9B43C2EFAF041B6FDC60049A1F75670A092207E4B8520DBC635 ====


[CUETools log; Date: 13.04.2020 15:18:39; Version: 2.1.4]
[AccurateRip ID: 001befc7-012b581b-c60d5a0e] found.
Track [ CRC | V2 ] Status
01 [5833097b|b4bba6c9] (31+40/75) Accurately ripped
02 [8ab2b153|7f1b0a76] (31+40/75) Accurately ripped
03 [3aed847d|eb8ecba4] (31+40/75) Accurately ripped
04 [2ff5b651|850a19ac] (31+40/75) Accurately ripped
05 [525457c9|4ecbd0bc] (31+40/75) Accurately ripped
06 [459122dd|439ba360] (31+40/75) Accurately ripped
07 [4626726d|1fcd19cd] (31+40/75) Accurately ripped
08 [212ecd8b|15aafa35] (31+40/75) Accurately ripped
09 [629002f5|71a0ad25] (31+40/75) Accurately ripped
10 [7602ed32|052f404c] (31+40/75) Accurately ripped
11 [c6984a0c|1d42a93e] (31+40/75) Accurately ripped
12 [4b19beac|4605e342] (31+40/75) Accurately ripped
13 [4dd337ff|9902e79c] (31+40/75) Accurately ripped
14 [aaaf1032|4aadc8dc] (32+40/76) Accurately ripped
Offsetted by -784:
01 [dcc1ce5b] (00/75) No match
02 [587560e3] (00/75) No match
03 [807608cd] (00/75) No match
04 [320a3451] (00/75) No match
05 [65fce199] (00/75) No match
06 [c17e60bd] (00/75) No match
07 [6f2021cd] (00/75) No match
08 [ab8173bb] (00/75) No match
09 [34ae60f5] (00/75) No match
10 [9d082e92] (00/75) No match
11 [10f3813c] (00/75) No match
12 [55cf149c] (00/75) No match
13 [3f6ecc4f] (00/75) No match
14 [46afec02] (00/76) No match (V2 was not tested)
Offsetted by -778:
01 [877f6847] (00/75) No match (V2 was not tested)
02 [ac6f512d] (00/75) No match (V2 was not tested)
03 [ef9a36cf] (00/75) No match (V2 was not tested)
04 [72062111] (00/75) No match (V2 was not tested)
05 [996de08b] (00/75) No match (V2 was not tested)
06 [6476af49] (00/75) No match (V2 was not tested)
07 [5557b0c9] (00/75) No match (V2 was not tested)
08 [cb19a2c9] (00/75) No match (V2 was not tested)
09 [51c459b5] (00/75) No match (V2 was not tested)
10 [5d62eace] (00/75) No match (V2 was not tested)
11 [959b4bea] (00/75) No match (V2 was not tested)
12 [c370f542] (00/75) No match (V2 was not tested)
13 [b12cf451] (00/75) No match (V2 was not tested)
14 [6044d034] (00/76) No match
Offsetted by -230:
01 [1c79a7cf] (00/75) No match
02 [4cf060e9] (00/75) No match
03 [9682a0db] (00/75) No match
04 [f091ed91] (00/75) No match
05 [49138037] (00/75) No match
06 [33b80a91] (00/75) No match
07 [227f5eb1] (00/75) No match
08 [bb65171d] (00/75) No match
09 [5cf06e35] (00/75) No match
10 [53176836] (00/75) No match
11 [e97845fe] (00/75) No match
12 [e0871b26] (00/75) No match
13 [45af3a5d] (00/75) No match
14 [2b638f60] (00/76) No match (V2 was not tested)
Offsetted by -224:
01 [c73741bb] (00/75) No match (V2 was not tested)
02 [a0ea5133] (00/75) No match (V2 was not tested)
03 [05a6cedd] (00/75) No match (V2 was not tested)
04 [308dda51] (00/75) No match (V2 was not tested)
05 [7c847f29] (00/75) No match (V2 was not tested)
06 [d6b0591d] (00/75) No match (V2 was not tested)
07 [08b6edad] (00/75) No match (V2 was not tested)
08 [dafd462b] (00/75) No match (V2 was not tested)
09 [7a0666f5] (00/75) No match (V2 was not tested)
10 [13722472] (00/75) No match (V2 was not tested)
11 [6e2010ac] (00/75) No match (V2 was not tested)
12 [4e28fbcc] (00/75) No match (V2 was not tested)
13 [b76d625f] (00/75) No match (V2 was not tested)
14 [44f87392] (00/76) No match

Track Peak [ CRC32 ] [W/O NULL] [ LOG ]
– 100,0 [470322E3] [7A1F0542] CRC32
01 97,7 [4E2AD295] [B22F2201]
02 96,5 [1EFE1ACE] [67CF0BC2]
03 97,6 [78C89FAE] [DFB6A081]
04 97,7 [2C199130] [AC91C52F]
05 97,7 [B96FF233] [27F93AFE]
06 97,7 [26953C3D] [9FEC2DC8]
07 97,7 [CD3617CD] [D4654A16]
08 96,8 [4BB76482] [12BCB548]
09 99,9 [1BA445A0] [B975765F]
10 97,7 [853D0DE2] [8FA810E5]
11 97,7 [503AA14B] [E9C4EF84]
12 97,7 [2C607A79] [443D5360]
13 97,6 [E560909E] [261BEE72]
14 100,0 [429A957C] [10D24116]


Foreigner: Discography & Video (1977 - 2019) [9CD + 9LP + 10DVD]

Tracklist LP01. 1977 - Foreigner (USA Atlantic ‎– SD 18215):

A1 Feels Like The First Time
A2 Cold As Ice
A3 Starrider
A4 Headknocker
A5 The Damage Is Done
B1 Long, Long Way From Home
B2 Woman Oh Woman
B3 At War With The World
B4 Fool For You Anyway
B5 I Need You

foobar2000 1.4 / Dynamic Range Meter 1.1.1
log date: 2020-05-02 00:08:35

––––––––––––––––––––––––––––––––––––––––
Analyzed: Foreigner / Foreigner (USA)
––––––––––––––––––––––––––––––––––––––––

DR Peak RMS Duration Track
––––––––––––––––––––––––––––––––––––––––
DR13 -0.50 dB -16.01 dB 3:47 01-Feels Like The First Time
DR12 -0.49 dB -15.75 dB 3:19 02-Cold As Ice
DR13 -0.75 dB -16.92 dB 4:02 03-Starrider
DR13 -0.72 dB -15.49 dB 3:00 04-Headknocker
DR12 -0.64 dB -15.54 dB 4:16 05-The Damage Is Done
DR12 -0.65 dB -14.91 dB 2:54 06-Long Long Way From Home
DR15 -0.79 dB -18.16 dB 3:53 07-Woman Oh Woman
DR12 -0.56 dB -15.33 dB 4:21 08-At War With The World
DR14 -0.54 dB -17.29 dB 4:18 09-Fool For You Anyway
DR13 -0.56 dB -15.32 dB 5:11 10-I Need You
––––––––––––––––––––––––––––––––––––––––

Number of tracks: 10
Official DR value: DR13

Samplerate: 192000 Hz
Channels: 2
Bits per sample: 24
Bitrate: 5171 kbps
Codec: FLAC
================================================================================




Original ripper: miklespr
Original format: 24/192
Vinyl Condition: VG+
Direct Drive Turntable: Yamaha PX3
Cartridge: Empire
Amplifier: DIY V1b и V3
ADC: RME UC
Postprocessing: Fade in-out

Foreigner: Discography & Video (1977 - 2019) [9CD + 9LP + 10DVD]

Tracklist LP02. 1978 - Double Vision (first German issue Atlantic ‎– ATL 50 476):

A1 Hot Blooded
A2 Blue Morning, Blue Day
A3 You're All I Am
A4 Back Where You Belong
A5 Love Has Taken Its Toll
B1 Double Vision
B2 Tramontane
B3 I Have Waited So Long
B4 Lonely Children
B5 Spell Binder

foobar2000 1.4 / Dynamic Range Meter 1.1.1
log date: 2020-05-02 00:09:28

––––––––––––––––––––––––––––––––––––––––
Analyzed: Foreigner / Double Vision (Ger)
––––––––––––––––––––––––––––––––––––––––

DR Peak RMS Duration Track
––––––––––––––––––––––––––––––––––––––––
DR13 -0.59 dB -15.28 dB 4:24 01-Hot Blooded
DR13 -0.41 dB -15.21 dB 3:10 02-Blue Morning, Blue Day
DR12 -0.84 dB -16.68 dB 3:23 03-You're All I Am
DR13 -0.78 dB -15.91 dB 3:21 04-Back Where You Belong
DR14 -0.67 dB -16.49 dB 3:28 05-Love Has Taken Its Toll
DR12 -0.60 dB -15.55 dB 3:42 06-Double Vision
DR12 -0.94 dB -15.42 dB 3:53 07-Tramontane
DR13 -0.79 dB -16.00 dB 4:05 08-I Have Waited So Long
DR12 -0.63 dB -14.70 dB 3:32 09-Lonely Children
DR12 -0.52 dB -16.71 dB 4:44 10-Spellbinder
––––––––––––––––––––––––––––––––––––––––

Number of tracks: 10
Official DR value: DR13

Samplerate: 192000 Hz
Channels: 2
Bits per sample: 24
Bitrate: 5184 kbps
Codec: FLAC
================================================================================




Original ripper: miklespr
Original format: 24/192
Vinyl Condition: VG+
Direct Drive Turntable: Yamaha PX3
Cartridge: Empire
Amplifier: DIY V1b и V3
ADC: RME UC
Postprocessing: Fade in-out

Foreigner: Discography & Video (1977 - 2019) [9CD + 9LP + 10DVD]

Tracklist LP03. 1978 - Double Vision (first USA issue Atlantic ‎– SD 19999):

A1 Hot Blooded
A2 Blue Morning, Blue Day
A3 You're All I Am
A4 Back Where You Belong
A5 Love Has Taken Its Toll
B1 Double Vision
B2 Tramontane
B3 I Have Waited So Long
B4 Lonely Children
B5 Spell Binder

foobar2000 1.4 / Dynamic Range Meter 1.1.1
log date: 2020-05-02 00:10:19

––––––––––––––––––––––––––––––––––––––––
Analyzed: Foreigner / Double Vision (USA)
––––––––––––––––––––––––––––––––––––––––

DR Peak RMS Duration Track
––––––––––––––––––––––––––––––––––––––––
DR12 -0.50 dB -13.78 dB 4:24 01-Hot Blooded
DR12 -0.45 dB -14.13 dB 3:10 02-Blue Morning, Blue Day
DR12 -0.28 dB -15.40 dB 3:23 03-You're All I Am
DR12 -0.37 dB -15.28 dB 3:22 04-Back Where You Belong
DR12 -0.52 dB -14.77 dB 3:28 05-Love Has Taken Its Toll
DR12 -0.53 dB -15.18 dB 3:42 06-Double Vision
DR11 -0.59 dB -14.07 dB 3:55 07-Tramontane
DR12 -0.51 dB -15.55 dB 4:06 08-I Have Waited So Long
DR12 -0.44 dB -14.29 dB 3:33 09-Lonely Children
DR12 -0.41 dB -15.99 dB 4:46 10-Spellbinder
––––––––––––––––––––––––––––––––––––––––

Number of tracks: 10
Official DR value: DR12

Samplerate: 192000 Hz
Channels: 2
Bits per sample: 24
Bitrate: 5264 kbps
Codec: FLAC
================================================================================




Original ripper: miklespr
Original format: 24/192
Vinyl Condition: VG+
Direct Drive Turntable: Yamaha PX3
Cartridge: Empire
Amplifier: DIY V1b и V3
ADC: RME UC
Postprocessing: Fade in-out

Foreigner: Discography & Video (1977 - 2019) [9CD + 9LP + 10DVD]

Tracklist LP04. 1979 - Head Games (first USA issue Atlantic ‎– SD 29999 (Club Edition)):

A1 Dirty White Boy
A2 Love On The Telephone
A3 Women
A4 I'll Get Even With You
A5 Seventeen
B1 Head Games
B2 The Modern Day
B3 Blinded By Science
B4 Do What You Like
B5 Rev On The Red Line

foobar2000 1.4 / Dynamic Range Meter 1.1.1
log date: 2020-05-02 00:11:09

––––––––––––––––––––––––––––––––––––––––
Analyzed: Foreigner / Head Games (US Club Ed)
––––––––––––––––––––––––––––––––––––––––

DR Peak RMS Duration Track
––––––––––––––––––––––––––––––––––––––––
DR14 -0.51 dB -16.00 dB 3:39 01-Dirty White Boy
DR13 -0.62 dB -15.56 dB 3:17 02-Love On The Telephone
DR14 -0.43 dB -16.20 dB 3:25 03-Women
DR13 -0.60 dB -15.84 dB 3:40 04-I'll Get Even With You
DR13 -0.49 dB -16.18 dB 4:32 05-Seventeen
DR14 -0.88 dB -16.96 dB 3:38 06-Head Games
DR14 -0.83 dB -17.23 dB 3:26 07-The Modern Day
DR13 -0.75 dB -16.99 dB 4:54 08-Blinded By Science
DR14 -0.77 dB -17.59 dB 3:59 09-Do What You Like
DR12 -0.43 dB -13.94 dB 3:36 10- Rev On The Red Line
––––––––––––––––––––––––––––––––––––––––

Number of tracks: 10
Official DR value: DR13

Samplerate: 192000 Hz
Channels: 2
Bits per sample: 24
Bitrate: 5268 kbps
Codec: FLAC
================================================================================




Original ripper: miklespr
Original format: 24/192
Vinyl Condition: VG+
Direct Drive Turntable: Yamaha PX3
Cartridge: Empire
Amplifier: DIY V1b и V3
ADC: RME UC
Postprocessing: Fade in-out

Foreigner: Discography & Video (1977 - 2019) [9CD + 9LP + 10DVD]

Tracklist LP05. 1981 - Foreigner - 4 (original USA Atlantic ‎– SD 16999):

A1 Night Life
A2 Juke Box Hero
A3 Break It Up
A4 Waiting For A Girl Like You
A5 Luanne
B1 Urgent
B2 I'm Gonna Win
B3 Woman In Black
B4 Girl On The Moon
B5 Don't Let Go

foobar2000 1.4 / Dynamic Range Meter 1.1.1
log date: 2020-05-02 00:12:13

––––––––––––––––––––––––––––––––––––––––
Analyzed: Foreigner / Foreigner - 4 (USA)
––––––––––––––––––––––––––––––––––––––––

DR Peak RMS Duration Track
––––––––––––––––––––––––––––––––––––––––
DR12 -0.52 dB -14.05 dB 3:48 01-Night Life
DR12 -0.53 dB -14.68 dB 4:21 02-Juke Box Hero
DR11 -0.62 dB -14.47 dB 4:13 03-Break It Up
DR12 -0.42 dB -15.56 dB 4:49 04-Waiting For A Girl Like You
DR13 -0.47 dB -15.22 dB 3:26 05-Luanne
DR13 -0.54 dB -15.85 dB 4:28 06-Urgent
DR12 -0.51 dB -14.77 dB 4:52 07-I'm Gonna Win
DR11 -0.58 dB -14.51 dB 4:44 08-Woman In Black
DR12 -0.51 dB -14.30 dB 3:51 09-Girl On The Moon
DR11 -0.42 dB -14.26 dB 3:51 10-Don't Let Go
––––––––––––––––––––––––––––––––––––––––

Number of tracks: 10
Official DR value: DR12

Samplerate: 192000 Hz
Channels: 2
Bits per sample: 24
Bitrate: 5284 kbps
Codec: FLAC
================================================================================




Original ripper: miklespr
Original format: 24/192
Vinyl Condition: VG+
Direct Drive Turntable: Yamaha PX3
Cartridge: Empire
Amplifier: DIY V1b и V3
ADC: RME UC
Postprocessing: Fade in-out

Foreigner: Discography & Video (1977 - 2019) [9CD + 9LP + 10DVD]

Tracklist LP06. 1984 - Agent Provocateur (original USA Atlantic ‎– 81999-1-E):

A1 Tooth And Nail
A2 That Was Yesterday
A3 I Want To Know What Love Is
Vocals – Jennifer Holliday, The New Jersey Mass Choir, Tom Bailey
A4 Growing Up The Hard Way
A5 Reaction To Action
B1 Stranger In My Own House
B2 A Love In Vain
B3 Down On Love
B4 Two Different Worlds
B5 She's Too Tough

foobar2000 1.4 / Dynamic Range Meter 1.1.1
log date: 2020-05-02 00:13:06

––––––––––––––––––––––––––––––––––––––––
Analyzed: Foreigner / Agent Provocateur (USA)
––––––––––––––––––––––––––––––––––––––––

DR Peak RMS Duration Track
––––––––––––––––––––––––––––––––––––––––
DR11 -0.31 dB -14.42 dB 3:54 01-Tooth And Nail
DR11 -0.54 dB -13.78 dB 3:50 02-That Was Yesterday
DR12 -0.43 dB -15.38 dB 5:05 03-I Want To Know What Love Is
DR12 -0.50 dB -15.08 dB 4:14 04-Growing Up The Hard Way
DR12 -0.51 dB -14.57 dB 3:59 05-Reaction To Action
DR11 -0.58 dB -14.33 dB 5:05 06-Stranger In My Own House
DR11 -0.45 dB -13.83 dB 4:30 07-A Love In Vain
DR11 -0.55 dB -14.97 dB 4:10 08-Down On Love
DR11 -0.53 dB -15.05 dB 4:31 09-Two Different Worlds
DR12 -0.49 dB -14.30 dB 3:11 10-She's Too Tough
––––––––––––––––––––––––––––––––––––––––

Number of tracks: 10
Official DR value: DR11

Samplerate: 192000 Hz
Channels: 2
Bits per sample: 24
Bitrate: 5288 kbps
Codec: FLAC
================================================================================




Original ripper: miklespr
Original format: 24/192
Vinyl Condition: VG+
Direct Drive Turntable: Yamaha PX3
Cartridge: Empire
Amplifier: DIY V1b и V3
ADC: RME UC
Postprocessing: Fade in-out

Foreigner: Discography & Video (1977 - 2019) [9CD + 9LP + 10DVD]

Tracklist LP07. 1987 - Inside Information (Atlantic 81808-1):

Side One:
Heart Turns To Stone
Can't Wait
Say You Will
I Don't Want To Live Without You
Counting Every Minute

Side Two:
Inside Information
The Beat Of My Heart
Face To Face
Out Of The Blue
A Night To Remember

foobar2000 1.4 / Dynamic Range Meter 1.1.1
log date: 2020-05-02 00:14:11

––––––––––––––––––––––––––––––––––––––––
Analyzed: Foreigner / Inside Information
––––––––––––––––––––––––––––––––––––––––

DR Peak RMS Duration Track
––––––––––––––––––––––––––––––––––––––––
DR12 -0.10 dB -13.31 dB 4:33 01-Heart Turns To Stone
DR12 -0.10 dB -15.92 dB 4:31 02-Can't Wait
DR13 -0.10 dB -15.09 dB 4:15 03-Say You Will
DR12 -1.02 dB -16.49 dB 4:55 04-I Don't Want To Live Without You
DR12 -0.10 dB -13.97 dB 4:11 05-Counting Every Minute
DR12 -0.10 dB -13.85 dB 4:19 06-Inside Information
DR12 -0.10 dB -14.09 dB 5:07 07-The Beat Of My Heart
DR13 -0.10 dB -14.44 dB 3:56 08-Face To Face
DR13 -0.10 dB -15.66 dB 4:44 09-Out Of The Blue
DR12 -0.10 dB -14.63 dB 4:12 10-A Night To Remember
––––––––––––––––––––––––––––––––––––––––

Number of tracks: 10
Official DR value: DR12

Samplerate: 192000 Hz
Channels: 2
Bits per sample: 24
Bitrate: 5509 kbps
Codec: FLAC
================================================================================




Original ripper: mitay
Original format: 24/192
Vinyl Condition: Ex
Direct Drive Turntable: Rega P3-24
Cartridge: Rega Elys 2
Amplifier: Pro-Ject Tube Box II
ADC: ASUS Xonar Essence ST
Postprocessing:

Foreigner: Discography & Video (1977 - 2019) [9CD + 9LP + 10DVD]

Tracklist LP08. 1991 - Unusual Heat:

01 Only Heaven Knows
02 Lowdown And Dirty
03 I'll Fight For You
04 Moment Of Truth
05 Mountain Of Love
06 Ready For The Rain
07 When The Night Comes Down
08 Safe In My Heart
09 No Hiding Place
10 Flesh Wound
11 Unusual Heat

foobar2000 1.4 / Dynamic Range Meter 1.1.1
log date: 2020-05-02 00:15:13

––––––––––––––––––––––––––––––––––––––––
Analyzed: Foreigner / Unusual Heat
––––––––––––––––––––––––––––––––––––––––

DR Peak RMS Duration Track
––––––––––––––––––––––––––––––––––––––––
DR13 0.00 dB -15.35 dB 4:49 01-Only Heaven Knows
DR12 -0.94 dB -14.92 dB 4:21 02-Lowdown And Dirty
DR12 -0.21 dB -15.46 dB 6:04 03-I'll Fight For You
DR12 0.00 dB -13.99 dB 4:26 04-Moment Of Truth
DR12 0.00 dB -14.27 dB 4:39 05-Mountain Of Love
DR12 -0.25 dB -16.00 dB 5:04 06-Ready For The Rain
DR13 -0.97 dB -16.99 dB 4:44 07-When The Night Comes Down
DR13 -0.92 dB -16.85 dB 4:34 08-Safe In My Heart
DR13 -0.13 dB -15.74 dB 3:57 09-No Hiding Place
DR13 -0.22 dB -15.78 dB 4:17 10-Flesh Wound
DR13 -0.63 dB -15.55 dB 4:30 11-Unusual Heat
––––––––––––––––––––––––––––––––––––––––

Number of tracks: 11
Official DR value: DR13

Samplerate: 192000 Hz
Channels: 2
Bits per sample: 24
Bitrate: 5812 kbps
Codec: FLAC
================================================================================




Original ripper: Valeron
Original format: 24/192
Vinyl Condition: NM
Cleaning:
Direct Drive Turntable: Pioneer PL-7L, Benz Micro Glider SH
Amplifier: PS Audio GCPH Phono Stage + Tube Preamp (Telefunken)
ADC: TASCAM HS-P82

Foreigner: Discography & Video (1977 - 2019) [9CD + 9LP + 10DVD]

Tracklist LP09. 2010 - Can't Slow Down (E.A.R.Music) / 0202671ERE Germany Press 180gr. Vinyl):

Side 1

01.- Can't Slow Down (3:28)
02.- In Pieces (3:54)
03.- When It Comes to Love (3:53)
04.- Living in a Dream (3:43)
05.- I Can't Give Up (4:32)
06.- Ready (3:44)

Side 2

01.- Give Me a Sign (3:52)
02.- I'll Be Home Tonight (4:14)
03.- Too Late (3:46)
04.- Lonely (3:29)
05.- As Long As I Live (3:47)
06.- Angel Tonight (3:31)
07.- Fool For You Anyway (4:06)

foobar2000 1.4 / Dynamic Range Meter 1.1.1
log date: 2020-05-02 00:16:04

––––––––––––––––––––––––––––––––––––––––
Analyzed: Foreigner / Can't Slow Down
––––––––––––––––––––––––––––––––––––––––

DR Peak RMS Duration Track
––––––––––––––––––––––––––––––––––––––––
DR10 -0.81 dB -13.12 dB 3:28 01-Can't Slow Down
DR10 -0.62 dB -13.26 dB 3:54 02-In Pieces
DR11 0.00 dB -14.23 dB 3:53 03-When It Comes to Love
DR11 -1.61 dB -14.37 dB 3:43 04-Living in a Dream
DR11 -2.92 dB -16.26 dB 4:32 05-I Can't Give Up
DR10 -0.59 dB -13.49 dB 3:44 06-Ready
DR10 -0.11 dB -12.93 dB 3:52 07-Give Me a Sign
DR10 -1.10 dB -12.40 dB 4:14 08-I'll Be Home Tonight
DR11 -0.42 dB -13.54 dB 3:46 09-Too Late
DR10 -0.91 dB -13.12 dB 3:29 10-Lonely
DR11 0.00 dB -12.94 dB 3:47 11-As Long As I Live
DR10 -2.07 dB -14.01 dB 3:31 12-Angel Tonight
DR10 -1.95 dB -17.37 dB 4:06 13-Fool For You Anyway
––––––––––––––––––––––––––––––––––––––––

Number of tracks: 13
Official DR value: DR10

Samplerate: 192000 Hz
Channels: 2
Bits per sample: 24
Bitrate: 5593 kbps
Codec: FLAC
================================================================================




Original ripper: Oleg39
Original format: 24 bit / 192 khz
Vinyl Condition: new
Direct Drive Turntable: Thorens TD124 mkII + SME 3012 Series II
Cartridge: Van den Hul Colibri XGW
Amplifier: Yamaha A1 (Class A)
ADC: E-MU 0404 USB (ASIO)

Foreigner: Discography & Video (1977 - 2019) [9CD + 9LP + 10DVD]

Tracklist DVD01. 2002 - All Access Tonight:

01. Intro - Long Long Way From Home
02. Double Vision
03. (Checking in)
04. Cold As Ice
05. Head Games
06. (Sound check)
07. Fool For You Anyway
08. That Was Yesterday
09. (Back stage)
10. Dirty White Boy
11. (Mexico interviews)
12. Feels Like The First Time
13. Urgent
14. Juke Box Hero
15. (The band bus)
16. Hot Blooded
Bonus:
- I Want to Know What Love Is

Title: DVD01. 2002 - All Access Tonight
Size: 6.32 Gb ( 6 629 634,00 KBytes ) - DVD-9
Enabled regions: 1, 2, 3, 4, 5, 6, 7, 8

VTS_01 :
Play Length: 01:24:32+00:05:47
Video: NTSC 4:3 (720x480) VBR
Audio:
English (Dolby AC3, 2 ch)
English (Dolby AC3, 6 ch)
English (DTS, 6 ch)

VTS_02 :
Play Length: 00:00:24
Video: NTSC 4:3 (720x480) VBR
Audio:
English (Dolby AC3, 2 ch)


Foreigner: Discography & Video (1977 - 2019) [9CD + 9LP + 10DVD]

Foreigner: Discography & Video (1977 - 2019) [9CD + 9LP + 10DVD]

Foreigner: Discography & Video (1977 - 2019) [9CD + 9LP + 10DVD]

* * * * *

Foreigner: Discography & Video (1977 - 2019) [9CD + 9LP + 10DVD]

Tracklist DVD02. 2003 - Live At Deer Creek:

00. Intro (The Interview With The Members Of The Group)
01. Long Long Way From Home
02. Double Vision
03. Head Games
04. Waiting For A Girl Like You
05. Blue Morning
06. Cold As Ice
07. That Was Yesterday
08. Feels Like The First Time
09. Urgent
10. Juke Box Hero
11. I Want To Know What Love Is
12. Hot Blooded

Title: DVD02. 2003 - Live At Deer Creek
Size: 3.86 Gb ( 4 048 714,00 KBytes ) - DVD-5
Enabled regions: 1, 2, 3, 4, 5, 6, 7, 8

VTS_01 :
Play Length: 01:12:23+00:00:48+00:00:48
Video: NTSC 4:3 (720x480) VBR
Audio:
Not specified (Dolby AC3, 6 ch)
Not specified (Dolby AC3, 2 ch)
Subtitles:
Not specified


Foreigner: Discography & Video (1977 - 2019) [9CD + 9LP + 10DVD]

Foreigner: Discography & Video (1977 - 2019) [9CD + 9LP + 10DVD]

Foreigner: Discography & Video (1977 - 2019) [9CD + 9LP + 10DVD]

* * * * *

Foreigner: Discography & Video (1977 - 2019) [9CD + 9LP + 10DVD]

Tracklist DVD03. 2004 - The Foreigner Story:

1.Feels Like the First Time
2.Cold As Ice
3.Starrider
4.Juke Box Hero
5.Long, Long Way from Home
6.Double Vision
7.Hot Blooded
8.Waiting for a Girl Like You
9.Urgent
+
I Want to Know What Love Is

Title: DVD03. 2004 - The Foreigner Story
Size: 4.08 Gb ( 4 281 548,00 KBytes ) - DVD-5
Enabled regions: 1, 2, 3, 4, 5, 6, 7, 8

VTS_01 :
Play Length: 00:00:15
Video: NTSC 4:3 (720x480) VBR
Audio:
Not specified (Dolby AC3, 5 ch)

VTS_02 :
Play Length: 00:00:11
Video: NTSC 4:3 (720x480) VBR
Audio:
Not specified (Dolby AC3, 2 ch)

VTS_03 :
Play Length: 00:59:46
Video: NTSC 4:3 (720x480) VBR
Audio:
Not specified (LinearPCM, 2 ch)
Subtitles:
Deutsch
Francais
English
Espanol
Portugues


Foreigner: Discography & Video (1977 - 2019) [9CD + 9LP + 10DVD]

Foreigner: Discography & Video (1977 - 2019) [9CD + 9LP + 10DVD]

Foreigner: Discography & Video (1977 - 2019) [9CD + 9LP + 10DVD]

* * * * *

Foreigner: Discography & Video (1977 - 2019) [9CD + 9LP + 10DVD]

Tracklist DVD04. 2007 - Alive & Rockin':

01. Intro
02. Double Vision
03. Head Games
04. Dirty White Boy
05. Cold As Ice
06. Starrider
07. Feels Like The First Time
08. Urgent
09. Juke Box Hero / Whole Lotta Love
10. Hot Blooded

Special Features:
Interviews with Mick Jones, Kelly Hansen and Jason Bonham
Foreigner TV - out and about with the fans when Foreigner play live

Title: DVD04. 2007 - Alive & Rockin'
Size: 5.68 Gb ( 5 959 504,00 KBytes ) - DVD-9
Enabled regions: 1, 2, 3, 4, 5, 6, 7, 8

VTS_01 :
Play Length: 00:00:10
Video: PAL 16:9 (720x576) VBR, Auto Letterboxed

VTS_02 :
Play Length: 00:00:12
Video: PAL 16:9 (720x576) VBR, Auto Letterboxed
Audio:
Not specified (Dolby AC3, 6 ch)

VTS_03 :
Play Length: 01:08:35+{01:08:35}
Video: PAL 16:9 (720x576) VBR, Auto Letterboxed
Audio:
Not specified (Dolby AC3, 2 ch)
Not specified (Dolby AC3, 6 ch)
Not specified (DTS, 6 ch)

VTS_04 :
Play Length: 00:06:07
Video: PAL 16:9 (720x576) VBR, Auto Letterboxed
Audio:
Not specified (Dolby AC3, 2 ch)

VTS_05 :
Play Length: 00:15:42
Video: PAL 16:9 (720x576) VBR, Auto Letterboxed
Audio:
Not specified (Dolby AC3, 2 ch)

VTS_06 :
Play Length: 00:02:45
Video: PAL 16:9 (720x576) VBR, Auto Letterboxed
Audio:
Not specified (Dolby AC3, 2 ch)

VTS_07 :
Play Length: 00:06:22
Video: PAL 16:9 (720x576) VBR, Auto Letterboxed
Audio:
Not specified (Dolby AC3, 2 ch)


Foreigner: Discography & Video (1977 - 2019) [9CD + 9LP + 10DVD]

Foreigner: Discography & Video (1977 - 2019) [9CD + 9LP + 10DVD]

Foreigner: Discography & Video (1977 - 2019) [9CD + 9LP + 10DVD]

* * * * *

Foreigner: Discography & Video (1977 - 2019) [9CD + 9LP + 10DVD]

Tracklist DVD05. 2008 - Live (Soundstage):

01. Night Life
02. Head Games
03. Cold As Ice
04. Waiting For A Girl Like You
05. Too Late
06. Say You Will
07. Long, Long Way From Home
08. Double Vision
09. Blue Morning, Blue Day
10. Dirty White Boy
11. Starrider
12. Feels Like The First Time
13. Urgent
14. Juke Box Hero
15. I Want To Know What Love Is
16. Hot Blooded

Title: DVD05. 2008 - Live (Soundstage)
Size: 6.08 Gb ( 6 371 766,00 KBytes ) - DVD-9
Enabled regions: 1, 2, 3, 4, 5, 6, 7, 8

VTS_01 :
Play Length: 01:44:38
Video: NTSC 16:9 (720x480) VBR, Auto Letterboxed
Audio:
English (Dolby AC3, 2 ch)
English (Dolby AC3, 6 ch)


Foreigner: Discography & Video (1977 - 2019) [9CD + 9LP + 10DVD]

Foreigner: Discography & Video (1977 - 2019) [9CD + 9LP + 10DVD]

Foreigner: Discography & Video (1977 - 2019) [9CD + 9LP + 10DVD]

* * * * *

Foreigner: Discography & Video (1977 - 2019) [9CD + 9LP + 10DVD]

Tracklist DVD06. 2009 - Can't Slow Down:

1. Double Vision
2. Head Games
3. That Was Yesterday
4. Say You Will
5. Starrider
6. Feels Like The First Time
7. Urgent
8. Juke Box Hero
9. I Want To Know What Love Is
10. Hot Blooded

Title: DVD06. 2009 - Can't Slow Down
Size: 5.91 Gb ( 6 200 112,00 KBytes ) - DVD-9
Enabled regions: 1, 2, 3, 4, 5, 6

VTS_01 :
Play Length: 00:00:06
Video: NTSC 16:9 (720x480) VBR, Auto Pan&Scan
Audio:
Not specified (Dolby AC3, 2 ch)
Not specified (Dolby AC3, 2 ch)

VTS_02 :
Play Length: 00:00:00
Video: NTSC 16:9 (720x480) VBR, Auto Letterboxed
Audio:
Not specified (Dolby AC3, 2 ch)
Not specified (Dolby AC3, 2 ch)

VTS_03 :
Play Length: 00:21:34+{00:21:34}
Video: NTSC 16:9 (720x480) VBR, Auto Letterboxed
Audio:
Not specified (LinearPCM, 2 ch)
Not specified (LinearPCM, 2 ch)

VTS_04 :
Play Length: 01:11:30
Video: NTSC 16:9 (720x480) VBR, Auto Letterboxed
Audio:
Not specified (LinearPCM, 2 ch)
Not specified (Dolby AC3, 6 ch)


Foreigner: Discography & Video (1977 - 2019) [9CD + 9LP + 10DVD]

Foreigner: Discography & Video (1977 - 2019) [9CD + 9LP + 10DVD]

Foreigner: Discography & Video (1977 - 2019) [9CD + 9LP + 10DVD]

* * * * *

Foreigner: Discography & Video (1977 - 2019) [9CD + 9LP + 10DVD]

Tracklist DVD07. 2009 - Cold As Ice:

* top position – U.S. pop singles chart
**top position – U.K. pop singles chart

01. Cold As Ice *No. 6 1977 / **No. 241978
02. Double Vision *No. 2 1978
03. Dirty White Boy *No. 12 1979
04. Women *No. 12 1979
05. Head Games *No. 14 1979
06. Juke Box Hero *No. 26 1982 / **No. 48 1981
07. I Don't Want to Live Without You (Jones) – 4:52 *No. 5 1988 /
08. I Want To Know What Love Is *No. 1 1985 / **No. 1 1984
09. Say You Will *No. 61988 / **No. 7 11987

Title: DVD07. 2009 - Cold As Ice
Size: 2.33 Gb ( 2 442 122,00 KBytes ) - DVD-5
Enabled regions: 1, 2, 3, 4, 5, 6, 7, 8

VTS_01 :
Play Length: 00:00:26
Video: NTSC 16:9 (720x480) VBR, Auto Letterboxed
Audio:
English (Dolby AC3, 2 ch)
English (Dolby AC3, 6 ch)
English (DTS, 5 ch)

VTS_02 :
Play Length: 00:35:19
Video: NTSC 16:9 (720x480) VBR, Auto Letterboxed
Audio:
English (Dolby AC3, 2 ch)
English (Dolby AC3, 6 ch)
English (DTS, 5 ch)


Foreigner: Discography & Video (1977 - 2019) [9CD + 9LP + 10DVD]

Foreigner: Discography & Video (1977 - 2019) [9CD + 9LP + 10DVD]

Foreigner: Discography & Video (1977 - 2019) [9CD + 9LP + 10DVD]

* * * * *

Foreigner: Discography & Video (1977 - 2019) [9CD + 9LP + 10DVD]

Tracklist DVD08. 2011 - Feels Like The First Time (Live In Chicago):

‘Double Vision’
‘Head Games’
‘Cold As Ice’
‘Waiting For A Girl Like You’
‘When It Comes To Love’
‘Blue Morning, Blue Day’
‘Dirty White Boy’
‘Starrider’
‘Feels Like The First Time’
‘Urgent; I Want To Know What Love Is’
‘Hot Blooded’
‘Juke Box Hero’
.
BONUS FEATURES:

Songs from Foreigner's first televized performance:
01. Double Vision
02. In Pieces
Interwiews with the band
Behind the scenes

Title: DVD08. 2011 - Feels Like The First Time (Live In Chicago)
Size: 4.10 Gb ( 4 299 022,00 KBytes ) - DVD-5
Enabled regions: 1, 2, 3, 4, 5, 6, 7, 8

VTS_01 :
Play Length: 01:18:36+{01:18:36}
Video: NTSC 16:9 (720x480) VBR, Auto Letterboxed
Audio:
English (Dolby AC3, 2 ch)
English (Dolby AC3, 6 ch)

VTS_02 :
Play Length: 00:00:12
Video: NTSC 16:9 (720x480) VBR, Auto Letterboxed
Audio:
English (Dolby AC3, 2 ch)

VTS_03 :
Play Length: 00:03:27
Video: NTSC 16:9 (720x480) VBR, Auto Letterboxed
Audio:
English (Dolby AC3, 2 ch)

VTS_04 :
Play Length: 00:04:08
Video: NTSC 16:9 (720x480) VBR, Auto Letterboxed
Audio:
English (Dolby AC3, 2 ch)

VTS_05 :
Play Length: 00:06:56
Video: NTSC 16:9 (720x480) VBR, Auto Letterboxed
Audio:
English (Dolby AC3, 2 ch)

VTS_06 :
Play Length: 00:03:51
Video: NTSC 16:9 (720x480) VBR, Auto Letterboxed
Audio:
English (Dolby AC3, 2 ch)


Foreigner: Discography & Video (1977 - 2019) [9CD + 9LP + 10DVD]

Foreigner: Discography & Video (1977 - 2019) [9CD + 9LP + 10DVD]

Foreigner: Discography & Video (1977 - 2019) [9CD + 9LP + 10DVD]

* * * * *

Foreigner: Discography & Video (1977 - 2019) [9CD + 9LP + 10DVD]

Tracklist DVD09. 2011 - Rockin' at the Ryman:

01. Double Vision
02. Head Games
03. Cold As Ice
04. In Pieces
05. Blue Morning, Blue Day
06. Waiting For A Girl Like You
07. When It Comes To Love
08. Dirty White Boy
09. Starrider
10. Feels Like The First Time
11. Urgent
12. Keyboard / Drum solos
13. Juke Box Hero
14. Long, Long Way From Home
15. I Want To Know What Love Is
16. Hot Blooded

Special Features:

- PBS Concert Series Soundstage: Night Life / Say You Will / Too Late / Urgent
- Videos: When It Comes To Love / In Pieces / Too Late
- Interviews with Mick Jones and Kelly Hansen about the album “Can’t Slow Down”

Title: DVD09. 2011 - Rockin' at the Ryman
Size: 7.32 Gb ( 7 672 070,00 KBytes ) - DVD-9
Enabled regions: 1, 2, 3, 4, 5, 6, 7, 8

VTS_01 :
Play Length: 00:00:18
Video: NTSC 16:9 (720x480) VBR, Auto Letterboxed
Audio:
Not specified (Dolby AC3, 2 ch)

VTS_02 :
Play Length: 00:01:30+00:01:30+00:01:30+00:01:30+00:03:01
Video: NTSC 16:9 (720x480) VBR, Auto Letterboxed
Audio:
Not specified (Dolby AC3, 2 ch)
Subtitles:
Not specified

VTS_03 :
Play Length: 01:46:26
Video: NTSC 16:9 (720x480) VBR, Auto Letterboxed
Audio:
Not specified (Dolby AC3, 2 ch)
Not specified (Dolby AC3, 6 ch)

VTS_04 :
Play Length: 00:04:36+00:04:52+00:04:15+00:07:52+00:04:05+00:03:30+00:05:06
Video: NTSC 16:9 (720x480) VBR, Auto Letterboxed
Audio:
Not specified (Dolby AC3, 2 ch)

VTS_05 :
Play Length: 00:05:03+00:10:23
Video: NTSC 16:9 (720x480) VBR, Auto Letterboxed
Audio:
English (Dolby AC3, 2 ch)


Foreigner: Discography & Video (1977 - 2019) [9CD + 9LP + 10DVD]

Foreigner: Discography & Video (1977 - 2019) [9CD + 9LP + 10DVD]

Foreigner: Discography & Video (1977 - 2019) [9CD + 9LP + 10DVD]

* * * * *

Foreigner: Discography & Video (1977 - 2019) [9CD + 9LP + 10DVD]

Tracklist DVD10. 2019 - Live At The Rainbow 78:

01. Long, Long Way From Home
02. I Need You
03. Woman Oh Woman
04. Hot Blooded
05. The Damage Is Done
06. Cold As Ice
07. Starrider
08. Double Vision
09. Feels Like The First Time
10. Fool For You Anyway
11. At War With The World
12. Headknocker

Title: DVD10. 2019 - Live At The Rainbow 78
Size: 5.37 Gb ( 5 632 210,00 KBytes ) - DVD-9
Enabled regions: 1, 2, 3, 4, 5, 6, 7, 8

VTS_01 :
Play Length: 01:14:39+00:00:12
Video: NTSC 4:3 (720x480) VBR
Audio:
English (Dolby AC3, 2 ch)
English (Dolby AC3, 6 ch)
English (DTS, 6 ch)

VTS_02 :
Play Length: 00:00:00
Video: NTSC 16:9 (720x480) VBR, Auto Letterboxed
Audio:
English (Dolby AC3, 2 ch)


Foreigner: Discography & Video (1977 - 2019) [9CD + 9LP + 10DVD]

Foreigner: Discography & Video (1977 - 2019) [9CD + 9LP + 10DVD]

Foreigner: Discography & Video (1977 - 2019) [9CD + 9LP + 10DVD]

All thanks go to the original releasers

Foreigner in my Blog

Download Foreigner: Discography & Video (1977 - 2019):