Subcategories

Gentle Giant - Unburied Treasure (2019) [Super Deluxe Edition Box Set] PROPER

Posted By: v3122
Gentle Giant - Unburied Treasure (2019) [Super Deluxe Edition Box Set] PROPER

Gentle Giant - Unburied Treasure (2019)
EAC | Flac(Image) + Cue + Log & MP3 CBR 320Kbps
29CD | Snapper Music, SMABX1091 | ~ 8062 or 3505 Mb | Artwork(png) -> 5.71 Gb
Blu-ray: MPEG-4 AVC Video, 1080p, 23,976 fps, 16:9, High Profile 4.1
96/24 Stereo LPCM / 96/24 5.1 Surround LPCM / DTS-HD 5.1 Surround
Progressive Rock

Deluxe 29 CD + Blu-Ray boxset authorized by all band members with signed photo. Includes a lavish 136-page coffee table hardback book and 96-page tour history book. Highly regarded in the prog-rock world for the 12 albums they released between 1970 and 1980, this comprehensive set sees the band's catalog augmented by 15 new concert albums: seven never previously released, seven never previously officially released and one never previously released on CD. The 30-disc total also includes two posthumous live/outtake albums and an All region Blu-ray bonus disc. Also included are books, posters, replica promotional items and much more. The contents of the Unburied Treasure box set include: Signed photograph by band members Derek Shulman, Ray Shulman, Gary Green, Kerry Minnear & John Weathers Brand new cover artwork illustration by Bob Venables based on original illustrator George Underwood's design for the band's debut album The 12 original albums released during the band's active years, including live album Playing the Fool Two albums released after the disbanding: Winchester 1971 (live) & Pinewood Rehearsal 1977 (outtakes) 15 official previously unreleased live albums: Essen 1972 *, New Orleans 1972 (feat. three previously unreleased BBC recordings), Hollywood Bowl 1972, Vicenza 1973 *, Torino 1973, Munster 1974 *, St Gallen 1974 *, Cleveland Agora 1975, Basel 1975 *, Dusseldorf 1976 Part 1 , Dusseldorf & Brussels 1976 Part 2 , Munich 1976 , Paris 1976 , Chester 1977, and Roxy 1980. * Audience recording remastered for the highest possible quality Unreleased material from the 'Playing the Fool' gigs remixed by GG expert Dan Bornemark
Gentle Giant - Unburied Treasure (2019) [Super Deluxe Edition Box Set] PROPER

Gentle Giant - Unburied Treasure (2019):

Gentle Giant - Unburied Treasure (2019) [Super Deluxe Edition Box Set] PROPER

Tracklist CD1 - 1970 Gentle Giant:

01 Giant
02 Funny Ways
03 Alucard
04 Isn't It Quiet And Cold?
05 Nothing At All
06 Why Not?
07 The Queen

Exact Audio Copy V1.3 from 2. September 2016

EAC extraction logfile from 10. January 2020, 14:45

Gentle Giant / Gentle Giant

Used drive : PLEXTOR BD-R PX-B950SA Adapter: 1 ID: 1

Read mode : Secure
Utilize accurate stream : Yes
Defeat audio cache : Yes
Make use of C2 pointers : No

Read offset correction : 6
Overread into Lead-In and Lead-Out : No
Fill up missing offset samples with silence : Yes
Delete leading and trailing silent blocks : No
Null samples used in CRC calculations : Yes
Used interface : Native Win32 interface for Win NT & 2000

Used output format : Internal WAV Routines
Sample format : 44.100 Hz; 16 Bit; Stereo


TOC of the extracted CD

Track | Start | Length | Start sector | End sector
––––––––––––––––––––––––––––-
1 | 0:00.00 | 6:25.05 | 0 | 28879
2 | 6:25.05 | 4:27.06 | 28880 | 48910
3 | 10:52.11 | 6:01.18 | 48911 | 76003
4 | 16:53.29 | 3:48.38 | 76004 | 93141
5 | 20:41.67 | 9:07.60 | 93142 | 134226
6 | 29:49.52 | 5:31.17 | 134227 | 159068
7 | 35:20.69 | 1:40.57 | 159069 | 166625


Range status and errors

Selected range

Filename C:\Users\Alex\Desktop\ALLexxess\Gentle Giant\2019 Unburied Treasure (30-Disc Box Set Snapper Music)\CD01 1970 Gentle Giant\Gentle Giant - Gentle Giant.wav

Peak level 91.7 %
Extraction speed 6.7 X
Range quality 100.0 %
Test CRC 2CCB00A2
Copy CRC 2CCB00A2
Copy OK

No errors occurred


AccurateRip summary

Track 1 not present in database
Track 2 not present in database
Track 3 not present in database
Track 4 not present in database
Track 5 not present in database
Track 6 not present in database
Track 7 not present in database

None of the tracks are present in the AccurateRip database

End of status report

–– CUETools DB Plugin V2.1.6

[CTDB TOCID: Y1YjVmqY8uMCrh_zJwUd3q41hms-] found
Submit result: Y1YjVmqY8uMCrh_zJwUd3q41hms- has been confirmed
Track | CTDB Status
1 | (19/19) Accurately ripped
2 | (19/19) Accurately ripped
3 | (19/19) Accurately ripped
4 | (19/19) Accurately ripped
5 | (19/19) Accurately ripped
6 | (19/19) Accurately ripped
7 | (19/19) Accurately ripped


==== Log checksum B5987455AC532095577AA2AF24CCE0C1EE3237EC8F23D83B67FC33F628C762B6 ====


Tracklist CD2 - 1971 Acquiring The Taste:

01 Pantagruel's Nativity
02 Edge Of Twilight
03 The House, The Street, The Room
04 Acquiring The Taste
05 Wreck
06 The Moon Is Down
07 Black Cat
08 Plain Truth

Exact Audio Copy V1.3 from 2. September 2016

EAC extraction logfile from 10. January 2020, 14:13

Gentle Giant / Acquiring The Taste

Used drive : PLEXTOR BD-R PX-B950SA Adapter: 1 ID: 1

Read mode : Secure
Utilize accurate stream : Yes
Defeat audio cache : Yes
Make use of C2 pointers : No

Read offset correction : 6
Overread into Lead-In and Lead-Out : No
Fill up missing offset samples with silence : Yes
Delete leading and trailing silent blocks : No
Null samples used in CRC calculations : Yes
Used interface : Native Win32 interface for Win NT & 2000

Used output format : Internal WAV Routines
Sample format : 44.100 Hz; 16 Bit; Stereo


TOC of the extracted CD

Track | Start | Length | Start sector | End sector
––––––––––––––––––––––––––––-
1 | 0:00.00 | 6:51.70 | 0 | 30894
2 | 6:51.70 | 3:49.13 | 30895 | 48082
3 | 10:41.08 | 6:02.52 | 48083 | 75284
4 | 16:43.60 | 1:38.50 | 75285 | 82684
5 | 18:22.35 | 4:37.06 | 82685 | 103465
6 | 22:59.41 | 4:49.42 | 103466 | 125182
7 | 27:49.08 | 3:53.43 | 125183 | 142700
8 | 31:42.51 | 7:35.38 | 142701 | 176863


Range status and errors

Selected range

Filename C:\Users\Alex\Desktop\ALLexxess\Gentle Giant\2019 Unburied Treasure (30-Disc Box Set Snapper Music)\CD02 1971 Acquiring The Taste\Gentle Giant - Acquiring The Taste.wav

Peak level 91.7 %
Extraction speed 6.7 X
Range quality 99.9 %
Test CRC 08CA4D50
Copy CRC 08CA4D50
Copy OK

No errors occurred


AccurateRip summary

Track 1 not present in database
Track 2 not present in database
Track 3 not present in database
Track 4 not present in database
Track 5 not present in database
Track 6 not present in database
Track 7 not present in database
Track 8 not present in database

None of the tracks are present in the AccurateRip database

End of status report

–– CUETools DB Plugin V2.1.6

[CTDB TOCID: pQtulKKkPbo9_k9eIcRJwjZZeyY-] found
Submit result: pQtulKKkPbo9_k9eIcRJwjZZeyY- has been confirmed
Track | CTDB Status
1 | (19/19) Accurately ripped
2 | (19/19) Accurately ripped
3 | (19/19) Accurately ripped
4 | (19/19) Accurately ripped
5 | (19/19) Accurately ripped
6 | (19/19) Accurately ripped
7 | (19/19) Accurately ripped
8 | (19/19) Accurately ripped


==== Log checksum F8F480E65030F1D305EEAA8A6D109528E608205A906FB5197F946267B06F5788 ====


Tracklist CD3 - 1972 Three Friends:

01 Prologue
02 Schooldays
03 Working All Day
04 Peel The Paint
05 Mister Class And Quality?
06 Three Friends

Exact Audio Copy V1.3 from 2. September 2016

EAC extraction logfile from 10. January 2020, 13:53

Gentle Giant / Three Friends

Used drive : PLEXTOR BD-R PX-B950SA Adapter: 1 ID: 1

Read mode : Secure
Utilize accurate stream : Yes
Defeat audio cache : Yes
Make use of C2 pointers : No

Read offset correction : 6
Overread into Lead-In and Lead-Out : No
Fill up missing offset samples with silence : Yes
Delete leading and trailing silent blocks : No
Null samples used in CRC calculations : Yes
Used interface : Native Win32 interface for Win NT & 2000

Used output format : Internal WAV Routines
Sample format : 44.100 Hz; 16 Bit; Stereo


TOC of the extracted CD

Track | Start | Length | Start sector | End sector
––––––––––––––––––––––––––––-
1 | 0:00.00 | 6:12.58 | 0 | 27957
2 | 6:12.58 | 7:36.06 | 27958 | 62163
3 | 13:48.64 | 5:11.19 | 62164 | 85507
4 | 19:00.08 | 7:30.33 | 85508 | 119290
5 | 26:30.41 | 5:51.14 | 119291 | 145629
6 | 32:21.55 | 3:02.12 | 145630 | 159291


Range status and errors

Selected range

Filename C:\Users\Alex\Desktop\ALLexxess\Gentle Giant\2019 Unburied Treasure (30-Disc Box Set Snapper Music)\CD03 1972 Three Friends\Gentle Giant - Three Friends.wav

Peak level 91.7 %
Extraction speed 6.6 X
Range quality 100.0 %
Test CRC 69079E8D
Copy CRC 69079E8D
Copy OK

No errors occurred


AccurateRip summary

Track 1 not present in database
Track 2 not present in database
Track 3 not present in database
Track 4 not present in database
Track 5 not present in database
Track 6 not present in database

None of the tracks are present in the AccurateRip database

End of status report

–– CUETools DB Plugin V2.1.6

[CTDB TOCID: pBkVhBntl7KXxHBO5AdBI9W55jg-] found
Submit result: pBkVhBntl7KXxHBO5AdBI9W55jg- has been confirmed
Track | CTDB Status
1 | (20/20) Accurately ripped
2 | (20/20) Accurately ripped
3 | (20/20) Accurately ripped
4 | (20/20) Accurately ripped
5 | (20/20) Accurately ripped
6 | (19/20) Accurately ripped


==== Log checksum 27EEC0406D924EC6532DC3D01EF383C7B961B40D5AFB18381C729F3ED25BC324 ====


Tracklist CD4 - 1972 Octopus:

01 The Advent Of Panurge
02 Raconteur, Troubadour
03 A Cry For Everyone
04 Knots
05 The Boys In The Band
06 Dog's Life
07 Think Of Me With Kindness
08 River

Exact Audio Copy V1.3 from 2. September 2016

EAC extraction logfile from 10. January 2020, 13:32

Gentle Giant / Octopus

Used drive : PLEXTOR BD-R PX-B950SA Adapter: 1 ID: 1

Read mode : Secure
Utilize accurate stream : Yes
Defeat audio cache : Yes
Make use of C2 pointers : No

Read offset correction : 6
Overread into Lead-In and Lead-Out : No
Fill up missing offset samples with silence : Yes
Delete leading and trailing silent blocks : No
Null samples used in CRC calculations : Yes
Used interface : Native Win32 interface for Win NT & 2000

Used output format : Internal WAV Routines
Sample format : 44.100 Hz; 16 Bit; Stereo


TOC of the extracted CD

Track | Start | Length | Start sector | End sector
––––––––––––––––––––––––––––-
1 | 0:00.00 | 4:43.13 | 0 | 21237
2 | 4:43.13 | 4:04.46 | 21238 | 39583
3 | 8:47.59 | 4:04.41 | 39584 | 57924
4 | 12:52.25 | 4:10.47 | 57925 | 76721
5 | 17:02.72 | 4:35.45 | 76722 | 97391
6 | 21:38.42 | 3:13.48 | 97392 | 111914
7 | 24:52.15 | 3:35.10 | 111915 | 128049
8 | 28:27.25 | 5:52.13 | 128050 | 154462


Range status and errors

Selected range

Filename C:\Users\Alex\Desktop\ALLexxess\Gentle Giant\2019 Unburied Treasure (30-Disc Box Set Snapper Music)\CD04 1972 Octopus\Gentle Giant - Octopus.wav

Peak level 91.7 %
Extraction speed 6.6 X
Range quality 100.0 %
Test CRC 1CB809BD
Copy CRC 1CB809BD
Copy OK

No errors occurred


AccurateRip summary

Track 1 not present in database
Track 2 not present in database
Track 3 not present in database
Track 4 not present in database
Track 5 not present in database
Track 6 not present in database
Track 7 not present in database
Track 8 not present in database

None of the tracks are present in the AccurateRip database

End of status report

–– CUETools DB Plugin V2.1.6

[CTDB TOCID: V60NJfpK4QfiyVmvqoa9MNJhpOU-] found
Submit result: V60NJfpK4QfiyVmvqoa9MNJhpOU- has been confirmed
Track | CTDB Status
1 | (17/17) Accurately ripped
2 | (17/17) Accurately ripped
3 | (17/17) Accurately ripped
4 | (17/17) Accurately ripped
5 | (17/17) Accurately ripped
6 | (17/17) Accurately ripped
7 | (17/17) Accurately ripped
8 | (16/17) Accurately ripped


==== Log checksum ACE630EEA1BE9196C970C2C7288FB161997E373C87449B21EDEFE7F9C4682719 ====


Tracklist CD5 - 1973 In A Glass House:

01 The Runaway
02 An Inmate's Lullaby
03 Way Of Life
04 Experience
05 A Reunion
06 In A Glass House

Exact Audio Copy V1.3 from 2. September 2016

EAC extraction logfile from 10. January 2020, 13:10

Gentle Giant / In A Glass House

Used drive : PLEXTOR BD-R PX-B950SA Adapter: 1 ID: 1

Read mode : Secure
Utilize accurate stream : Yes
Defeat audio cache : Yes
Make use of C2 pointers : No

Read offset correction : 6
Overread into Lead-In and Lead-Out : No
Fill up missing offset samples with silence : Yes
Delete leading and trailing silent blocks : No
Null samples used in CRC calculations : Yes
Used interface : Native Win32 interface for Win NT & 2000

Used output format : Internal WAV Routines
Sample format : 44.100 Hz; 16 Bit; Stereo


TOC of the extracted CD

Track | Start | Length | Start sector | End sector
––––––––––––––––––––––––––––-
1 | 0:00.00 | 7:24.32 | 0 | 33331
2 | 7:24.32 | 4:30.62 | 33332 | 53643
3 | 11:55.19 | 7:53.30 | 53644 | 89148
4 | 19:48.49 | 7:50.11 | 89149 | 124409
5 | 27:38.60 | 2:11.14 | 124410 | 134248
6 | 29:49.74 | 8:08.70 | 134249 | 170918


Range status and errors

Selected range

Filename C:\Users\Alex\Desktop\ALLexxess\Gentle Giant\2019 Unburied Treasure (30-Disc Box Set Snapper Music)\CD05 1973 In A Glass House\Gentle Giant - In A Glass House.wav

Peak level 91.1 %
Extraction speed 6.7 X
Range quality 100.0 %
Test CRC 1BDFF78A
Copy CRC 1BDFF78A
Copy OK

No errors occurred


AccurateRip summary

Track 1 not present in database
Track 2 not present in database
Track 3 not present in database
Track 4 not present in database
Track 5 not present in database
Track 6 not present in database

None of the tracks are present in the AccurateRip database

End of status report

–– CUETools DB Plugin V2.1.6

[CTDB TOCID: 06LNeX4J9cDjTK0.aV8T79hJMNU-] found
Submit result: 06LNeX4J9cDjTK0.aV8T79hJMNU- has been confirmed
Track | CTDB Status
1 | (18/18) Accurately ripped
2 | (18/18) Accurately ripped
3 | (18/18) Accurately ripped
4 | (18/18) Accurately ripped
5 | (18/18) Accurately ripped
6 | (18/18) Accurately ripped


==== Log checksum D23F707CD65D2A64C766527D36D8FEF9D3C930CFD7A27E0F9345E68D6B97E6DA ====


Tracklist CD6 - 1974 The Power And The Glory:

01 Proclamation
02 So Sincere
03 Aspirations
04 Playing The Game
05 Cogs In Cogs
06 No God's A Man
07 The Face
08 Valedictory
Bonus Track
09 The Power And The Glory (Single)

Exact Audio Copy V1.3 from 2. September 2016

EAC extraction logfile from 10. January 2020, 12:48

Gentle Giant / The Power And The Glory

Used drive : PLEXTOR BD-R PX-B950SA Adapter: 1 ID: 1

Read mode : Secure
Utilize accurate stream : Yes
Defeat audio cache : Yes
Make use of C2 pointers : No

Read offset correction : 6
Overread into Lead-In and Lead-Out : No
Fill up missing offset samples with silence : Yes
Delete leading and trailing silent blocks : No
Null samples used in CRC calculations : Yes
Used interface : Native Win32 interface for Win NT & 2000

Used output format : Internal WAV Routines
Sample format : 44.100 Hz; 16 Bit; Stereo


TOC of the extracted CD

Track | Start | Length | Start sector | End sector
––––––––––––––––––––––––––––-
1 | 0:00.00 | 6:47.09 | 0 | 30533
2 | 6:47.09 | 3:52.14 | 30534 | 47947
3 | 10:39.23 | 4:40.62 | 47948 | 69009
4 | 15:20.10 | 6:46.20 | 69010 | 99479
5 | 22:06.30 | 3:09.48 | 99480 | 113702
6 | 25:16.03 | 4:30.19 | 113703 | 133971
7 | 29:46.22 | 4:13.32 | 133972 | 152978
8 | 33:59.54 | 3:21.14 | 152979 | 168067
9 | 37:20.68 | 2:53.00 | 168068 | 181042


Range status and errors

Selected range

Filename C:\Users\Alex\Desktop\ALLexxess\Gentle Giant\2019 Unburied Treasure (30-Disc Box Set Snapper Music)\CD06 1974 The Power And The Glory\Gentle Giant - The Power And The Glory.wav

Peak level 91.6 %
Extraction speed 6.8 X
Range quality 100.0 %
Test CRC B834E7DB
Copy CRC B834E7DB
Copy OK

No errors occurred


AccurateRip summary

Track 1 not present in database
Track 2 not present in database
Track 3 not present in database
Track 4 not present in database
Track 5 not present in database
Track 6 not present in database
Track 7 not present in database
Track 8 not present in database
Track 9 not present in database

None of the tracks are present in the AccurateRip database

End of status report

–– CUETools DB Plugin V2.1.6

[CTDB TOCID: MxFnpknDVacuzJMIZGjIrJhXlBk-] found
Submit result: MxFnpknDVacuzJMIZGjIrJhXlBk- has been confirmed
Track | CTDB Status
1 | (17/19) Accurately ripped
2 | (19/19) Accurately ripped
3 | (19/19) Accurately ripped
4 | (19/19) Accurately ripped
5 | (19/19) Accurately ripped
6 | (19/19) Accurately ripped
7 | (19/19) Accurately ripped
8 | (19/19) Accurately ripped
9 | (19/19) Accurately ripped


==== Log checksum 8F70A22D6B683A49DF601C517D7C0668D79CD691A5709653999C162097EF0C31 ====


Tracklist CD7 - 1975 Free Hand:

01 Just The Same
02 On Reflection
03 Free Hand
04 Time To Kill
05 His Last Voyage
06 Talybont
07 Mobile

Exact Audio Copy V1.3 from 2. September 2016

EAC extraction logfile from 10. January 2020, 12:23

Gentle Giant / Free Hand

Used drive : PLEXTOR BD-R PX-B950SA Adapter: 1 ID: 1

Read mode : Secure
Utilize accurate stream : Yes
Defeat audio cache : Yes
Make use of C2 pointers : No

Read offset correction : 6
Overread into Lead-In and Lead-Out : No
Fill up missing offset samples with silence : Yes
Delete leading and trailing silent blocks : No
Null samples used in CRC calculations : Yes
Used interface : Native Win32 interface for Win NT & 2000

Used output format : Internal WAV Routines
Sample format : 44.100 Hz; 16 Bit; Stereo


TOC of the extracted CD

Track | Start | Length | Start sector | End sector
––––––––––––––––––––––––––––-
1 | 0:00.00 | 5:33.54 | 0 | 25028
2 | 5:33.54 | 5:43.40 | 25029 | 50793
3 | 11:17.19 | 6:16.15 | 50794 | 79008
4 | 17:33.34 | 5:09.14 | 79009 | 102197
5 | 22:42.48 | 6:27.31 | 102198 | 131253
6 | 29:10.04 | 2:43.12 | 131254 | 143490
7 | 31:53.16 | 5:02.52 | 143491 | 166192


Range status and errors

Selected range

Filename C:\Users\Alex\Desktop\ALLexxess\Gentle Giant\2019 Unburied Treasure (30-Disc Box Set Snapper Music)\CD07 1975 Free Hand\Gentle Giant - Free Hand.wav

Peak level 91.7 %
Extraction speed 6.8 X
Range quality 100.0 %
Test CRC 0028FFD3
Copy CRC 0028FFD3
Copy OK

No errors occurred


AccurateRip summary

Track 1 not present in database
Track 2 not present in database
Track 3 not present in database
Track 4 not present in database
Track 5 not present in database
Track 6 not present in database
Track 7 not present in database

None of the tracks are present in the AccurateRip database

End of status report

–– CUETools DB Plugin V2.1.6

[CTDB TOCID: zasnfvGNQd87TUQOhCVj.Yj_mIo-] found
Submit result: zasnfvGNQd87TUQOhCVj.Yj_mIo- has been confirmed
Track | CTDB Status
1 | (20/20) Accurately ripped
2 | (20/20) Accurately ripped
3 | (20/20) Accurately ripped
4 | (20/20) Accurately ripped
5 | (20/20) Accurately ripped
6 | (20/20) Accurately ripped
7 | (19/20) Accurately ripped


==== Log checksum 2E571146C7F39FDFA0F46B57BD77C04C54F75C012BDD063CAAD96246BD85FE0C ====


Tracklist CD8 - 1976 Interview:

01 Interview
02 Give It Back
03 Design
04 Another Show
05 Empty City
06 Timing
07 I Lost My Head

Exact Audio Copy V1.3 from 2. September 2016

EAC extraction logfile from 9. January 2020, 22:21

Gentle Giant / Interview

Used drive : PLEXTOR BD-R PX-B950SA Adapter: 1 ID: 1

Read mode : Secure
Utilize accurate stream : Yes
Defeat audio cache : Yes
Make use of C2 pointers : No

Read offset correction : 6
Overread into Lead-In and Lead-Out : No
Fill up missing offset samples with silence : Yes
Delete leading and trailing silent blocks : No
Null samples used in CRC calculations : Yes
Used interface : Native Win32 interface for Win NT & 2000

Used output format : Internal WAV Routines
Sample format : 44.100 Hz; 16 Bit; Stereo


TOC of the extracted CD

Track | Start | Length | Start sector | End sector
––––––––––––––––––––––––––––-
1 | 0:00.00 | 6:52.05 | 0 | 30904
2 | 6:52.05 | 5:11.64 | 30905 | 54293
3 | 12:03.69 | 5:03.12 | 54294 | 77030
4 | 17:07.06 | 3:31.66 | 77031 | 92921
5 | 20:38.72 | 4:39.42 | 92922 | 113888
6 | 25:18.39 | 4:38.57 | 113889 | 134795
7 | 29:57.21 | 6:59.22 | 134796 | 166242


Range status and errors

Selected range

Filename C:\Users\Alex\Desktop\ALLexxess\Gentle Giant\2019 Unburied Treasure (30-Disc Box Set Snapper Music)\CD08 1976 Interview\Gentle Giant - Interview.wav

Peak level 91.7 %
Extraction speed 6.7 X
Range quality 100.0 %
Test CRC 1CF923C1
Copy CRC 1CF923C1
Copy OK

No errors occurred


AccurateRip summary

Track 1 not present in database
Track 2 not present in database
Track 3 not present in database
Track 4 not present in database
Track 5 not present in database
Track 6 not present in database
Track 7 not present in database

None of the tracks are present in the AccurateRip database

End of status report

–– CUETools DB Plugin V2.1.6

[CTDB TOCID: _7Etm_8w.jBs2jTsRufPDEnbvY0-] found
Submit result: _7Etm_8w.jBs2jTsRufPDEnbvY0- has been confirmed
Track | CTDB Status
1 | (18/18) Accurately ripped
2 | (18/18) Accurately ripped
3 | (18/18) Accurately ripped
4 | (18/18) Accurately ripped
5 | (18/18) Accurately ripped
6 | (18/18) Accurately ripped
7 | (18/18) Accurately ripped


==== Log checksum 3FF57970B2F0BFA3410CE1CA5B785E32AC92836A30A7CD70B30AE1A048B31210 ====


Tracklist CD9 - 1977 Playing The Fool - Live:

01 Just The Same / Proclamation
02 On Reflection
03 Excerpts From Octopus
04 Funny Ways
05 The Runaway / Experience
06 So Sincere
07 Free Hand
08 Sweet Georgia Brown
09 Peel The Paint / I Lost My Head

Exact Audio Copy V1.3 from 2. September 2016

EAC extraction logfile from 9. January 2020, 20:52

Gentle Giant / Playing The Fool

Used drive : PLEXTOR BD-R PX-B950SA Adapter: 1 ID: 1

Read mode : Secure
Utilize accurate stream : Yes
Defeat audio cache : Yes
Make use of C2 pointers : No

Read offset correction : 6
Overread into Lead-In and Lead-Out : No
Fill up missing offset samples with silence : Yes
Delete leading and trailing silent blocks : No
Null samples used in CRC calculations : Yes
Used interface : Native Win32 interface for Win NT & 2000

Used output format : Internal WAV Routines
Sample format : 44.100 Hz; 16 Bit; Stereo


TOC of the extracted CD

Track | Start | Length | Start sector | End sector
––––––––––––––––––––––––––––-
1 | 0:00.00 | 11:16.32 | 0 | 50731
2 | 11:16.32 | 6:24.05 | 50732 | 79536
3 | 17:40.37 | 15:38.66 | 79537 | 149952
4 | 33:19.28 | 8:31.21 | 149953 | 188298
5 | 41:50.49 | 9:31.61 | 188299 | 231184
6 | 51:22.35 | 10:21.51 | 231185 | 277810
7 | 61:44.11 | 7:40.19 | 277811 | 312329
8 | 69:24.30 | 1:18.46 | 312330 | 318225
9 | 70:43.01 | 7:32.24 | 318226 | 352149


Range status and errors

Selected range

Filename C:\Users\Alex\Desktop\ALLexxess\Gentle Giant\2019 Unburied Treasure (30-Disc Box Set Snapper Music)\CD09 1977 Playing The Fool\Gentle Giant - Playing The Fool.wav

Peak level 96.5 %
Extraction speed 6.6 X
Range quality 100.0 %
Test CRC 9F706A74
Copy CRC 9F706A74
Copy OK

No errors occurred


AccurateRip summary

Track 1 not present in database
Track 2 not present in database
Track 3 not present in database
Track 4 not present in database
Track 5 not present in database
Track 6 not present in database
Track 7 not present in database
Track 8 not present in database
Track 9 not present in database

None of the tracks are present in the AccurateRip database

End of status report

–– CUETools DB Plugin V2.1.6

[CTDB TOCID: wauqlFCUF.SmR_QYOf5dSKG4kC8-] found
Submit result: wauqlFCUF.SmR_QYOf5dSKG4kC8- has been confirmed
Track | CTDB Status
1 | (16/16) Accurately ripped
2 | (16/16) Accurately ripped
3 | (16/16) Accurately ripped
4 | (16/16) Accurately ripped
5 | (16/16) Accurately ripped
6 | (16/16) Accurately ripped
7 | (16/16) Accurately ripped
8 | (16/16) Accurately ripped
9 | (15/16) Accurately ripped


==== Log checksum C48718671926478BE8753FDB91AFB7B6ABDC97DEACD9F3E1C021641A85DFCEC6 ====


Tracklist CD10 - 1977 The Missing Piece:

01 Two Weeks In Spain
02 I'm Turning Around
03 Betcha Thought We Couldn't Do It
04 Who Do You Think You Are?
05 Mountain Time
06 As Old As You're Young
07 Memories Of Old Days
08 Winning
09 For Nobody

Exact Audio Copy V1.3 from 2. September 2016

EAC extraction logfile from 9. January 2020, 20:05

Gentle Giant / The Missing Peice

Used drive : PLEXTOR BD-R PX-B950SA Adapter: 1 ID: 1

Read mode : Secure
Utilize accurate stream : Yes
Defeat audio cache : Yes
Make use of C2 pointers : No

Read offset correction : 6
Overread into Lead-In and Lead-Out : No
Fill up missing offset samples with silence : Yes
Delete leading and trailing silent blocks : No
Null samples used in CRC calculations : Yes
Used interface : Native Win32 interface for Win NT & 2000

Used output format : Internal WAV Routines
Sample format : 44.100 Hz; 16 Bit; Stereo


TOC of the extracted CD

Track | Start | Length | Start sector | End sector
––––––––––––––––––––––––––––-
1 | 0:00.00 | 3:08.02 | 0 | 14101
2 | 3:08.02 | 4:01.30 | 14102 | 32206
3 | 7:09.32 | 2:25.74 | 32207 | 43155
4 | 9:35.31 | 3:36.24 | 43156 | 59379
5 | 13:11.55 | 3:24.67 | 59380 | 74746
6 | 16:36.47 | 4:22.34 | 74747 | 94430
7 | 20:59.06 | 7:23.55 | 94431 | 127710
8 | 28:22.61 | 4:18.55 | 127711 | 147115
9 | 32:41.41 | 4:04.27 | 147116 | 165442


Range status and errors

Selected range

Filename C:\Users\Alex\Desktop\ALLexxess\Gentle Giant\2019 Unburied Treasure (30-Disc Box Set Snapper Music)\CD10 1977 The Missing Piece\Gentle Giant - The Missing Peice.wav

Peak level 91.7 %
Extraction speed 6.7 X
Range quality 100.0 %
Test CRC 69D4AB86
Copy CRC 69D4AB86
Copy OK

No errors occurred


AccurateRip summary

Track 1 not present in database
Track 2 not present in database
Track 3 not present in database
Track 4 not present in database
Track 5 not present in database
Track 6 not present in database
Track 7 not present in database
Track 8 not present in database
Track 9 not present in database

None of the tracks are present in the AccurateRip database

End of status report

–– CUETools DB Plugin V2.1.6

[CTDB TOCID: c0BYt_Xq.eiaki1051sgpZWJ3Ag-] found
Submit result: c0BYt_Xq.eiaki1051sgpZWJ3Ag- has been confirmed
Track | CTDB Status
1 | (19/19) Accurately ripped
2 | (19/19) Accurately ripped
3 | (19/19) Accurately ripped
4 | (19/19) Accurately ripped
5 | (19/19) Accurately ripped
6 | (19/19) Accurately ripped
7 | (19/19) Accurately ripped
8 | (19/19) Accurately ripped
9 | (19/19) Accurately ripped


==== Log checksum 6AA49C86B00BADCF20F5B0EAD7689AC18A2BB0FC0442981D623C3FB936A864AA ====


Tracklist CD11 - 1978 Giant For A Day!:

01 Words From The Wise
02 Thank You
03 Giant For A Day
04 Spookie Boogie
05 Take Me
06 Little Brown Bag
07 Friends
08 No Stranger
09 It's Only Goodbye
10 Rock Climber

Exact Audio Copy V1.3 from 2. September 2016

EAC extraction logfile from 9. January 2020, 19:38

Gentle Giant / Giant For A Day!

Used drive : PLEXTOR BD-R PX-B950SA Adapter: 1 ID: 1

Read mode : Secure
Utilize accurate stream : Yes
Defeat audio cache : Yes
Make use of C2 pointers : No

Read offset correction : 6
Overread into Lead-In and Lead-Out : No
Fill up missing offset samples with silence : Yes
Delete leading and trailing silent blocks : No
Null samples used in CRC calculations : Yes
Used interface : Native Win32 interface for Win NT & 2000

Used output format : Internal WAV Routines
Sample format : 44.100 Hz; 16 Bit; Stereo


TOC of the extracted CD

Track | Start | Length | Start sector | End sector
––––––––––––––––––––––––––––-
1 | 0:00.00 | 4:15.33 | 0 | 19157
2 | 4:15.33 | 4:50.04 | 19158 | 40911
3 | 9:05.37 | 3:51.16 | 40912 | 58252
4 | 12:56.53 | 2:55.41 | 58253 | 71418
5 | 15:52.19 | 3:37.01 | 71419 | 87694
6 | 19:29.20 | 3:27.12 | 87695 | 103231
7 | 22:56.32 | 2:02.43 | 103232 | 112424
8 | 24:59.00 | 2:31.67 | 112425 | 123816
9 | 27:30.67 | 4:19.44 | 123817 | 143285
10 | 31:50.36 | 3:51.63 | 143286 | 160673


Range status and errors

Selected range

Filename C:\Users\Alex\Desktop\ALLexxess\Gentle Giant\2019 Unburied Treasure (30-Disc Box Set Snapper Music)\CD11 1978 Giant For A Day!\Gentle Giant - Giant For A Day!.wav

Peak level 89.0 %
Extraction speed 4.2 X
Range quality 100.0 %
Test CRC 39EE4D48
Copy CRC 39EE4D48
Copy OK

No errors occurred


AccurateRip summary

Track 1 not present in database
Track 2 not present in database
Track 3 not present in database
Track 4 not present in database
Track 5 not present in database
Track 6 not present in database
Track 7 not present in database
Track 8 not present in database
Track 9 not present in database
Track 10 not present in database

None of the tracks are present in the AccurateRip database

End of status report

–– CUETools DB Plugin V2.1.6

[CTDB TOCID: G4CH3hHM2vywiMD.LkJ.sRAzsE4-] found
Submit result: G4CH3hHM2vywiMD.LkJ.sRAzsE4- has been confirmed
Track | CTDB Status
1 | (20/20) Accurately ripped
2 | (20/20) Accurately ripped
3 | (20/20) Accurately ripped
4 | (20/20) Accurately ripped
5 | (20/20) Accurately ripped
6 | (20/20) Accurately ripped
7 | (20/20) Accurately ripped
8 | (20/20) Accurately ripped
9 | (20/20) Accurately ripped
10 | (20/20) Accurately ripped


==== Log checksum 5EA613095D61C6FD0491D98B2C4C49A144ED3200FA73DE860615F9F375448B37 ====


Tracklist CD12 - 1980 Civilian:

01 Convenience (Clean And Easy)
02 All Through The Night
03 Shadows On The Street
04 Number One
05 Underground
06 I Am Camera
07 Inside Out
08 It's Not Imagination
Bonus Track
09 Heroes

Exact Audio Copy V1.3 from 2. September 2016

EAC extraction logfile from 9. January 2020, 19:06

Gentle Giant / Civilian

Used drive : PLEXTOR BD-R PX-B950SA Adapter: 1 ID: 1

Read mode : Secure
Utilize accurate stream : Yes
Defeat audio cache : Yes
Make use of C2 pointers : No

Read offset correction : 6
Overread into Lead-In and Lead-Out : No
Fill up missing offset samples with silence : Yes
Delete leading and trailing silent blocks : No
Null samples used in CRC calculations : Yes
Used interface : Native Win32 interface for Win NT & 2000

Used output format : Internal WAV Routines
Sample format : 44.100 Hz; 16 Bit; Stereo


TOC of the extracted CD

Track | Start | Length | Start sector | End sector
––––––––––––––––––––––––––––-
1 | 0:00.00 | 3:14.47 | 0 | 14596
2 | 3:14.47 | 4:21.21 | 14597 | 34192
3 | 7:35.68 | 3:17.17 | 34193 | 48984
4 | 10:53.10 | 4:47.28 | 48985 | 70537
5 | 15:40.38 | 3:48.18 | 70538 | 87655
6 | 19:28.56 | 3:33.29 | 87656 | 103659
7 | 23:02.10 | 5:51.49 | 103660 | 130033
8 | 28:53.59 | 4:02.74 | 130034 | 148257
9 | 32:56.58 | 4:40.66 | 148258 | 169323


Range status and errors

Selected range

Filename C:\Users\Alex\Desktop\ALLexxess\Gentle Giant\2019 Unburied Treasure (30-Disc Box Set Snapper Music)\CD12 1980 Civilian\Gentle Giant - Civilian.wav

Peak level 91.7 %
Extraction speed 6.7 X
Range quality 100.0 %
Test CRC EEF3AEE6
Copy CRC EEF3AEE6
Copy OK

No errors occurred


AccurateRip summary

Track 1 not present in database
Track 2 not present in database
Track 3 not present in database
Track 4 not present in database
Track 5 not present in database
Track 6 not present in database
Track 7 not present in database
Track 8 not present in database
Track 9 not present in database

None of the tracks are present in the AccurateRip database

End of status report

–– CUETools DB Plugin V2.1.6

[CTDB TOCID: koPBNxRsI65GwGIFUDkMX_.HKbw-] found
Submit result: koPBNxRsI65GwGIFUDkMX_.HKbw- has been confirmed
Track | CTDB Status
1 | (20/20) Accurately ripped
2 | (20/20) Accurately ripped
3 | (20/20) Accurately ripped
4 | (20/20) Accurately ripped
5 | (20/20) Accurately ripped
6 | (20/20) Accurately ripped
7 | (20/20) Accurately ripped
8 | (20/20) Accurately ripped
9 | (20/20) Accurately ripped


==== Log checksum 8AAB4C4979E75803FDAEA61D9D030E3BD753105519FA894045C2AF4B97D159F5 ====


Tracklist CD13 - 2019 Winchester 1971:

01 Giant
02 Hometown Special
03 City Hermit
04 Funny Ways
05 Plain Truth
06 Alucard
07 Isn't It Quiet And Cold?
08 Why Not?
09 The Queen
10 Peel Off The Paint

Exact Audio Copy V1.3 from 2. September 2016

EAC extraction logfile from 9. January 2020, 16:40

Gentle Giant / Winchester 1971

Used drive : PLEXTOR BD-R PX-B950SA Adapter: 1 ID: 1

Read mode : Secure
Utilize accurate stream : Yes
Defeat audio cache : Yes
Make use of C2 pointers : No

Read offset correction : 6
Overread into Lead-In and Lead-Out : No
Fill up missing offset samples with silence : Yes
Delete leading and trailing silent blocks : No
Null samples used in CRC calculations : Yes
Used interface : Native Win32 interface for Win NT & 2000

Used output format : Internal WAV Routines
Sample format : 44.100 Hz; 16 Bit; Stereo


TOC of the extracted CD

Track | Start | Length | Start sector | End sector
––––––––––––––––––––––––––––-
1 | 0:00.00 | 5:31.18 | 0 | 24842
2 | 5:31.18 | 5:24.19 | 24843 | 49161
3 | 10:55.37 | 5:56.55 | 49162 | 75916
4 | 16:52.17 | 8:42.54 | 75917 | 115120
5 | 25:34.71 | 10:46.09 | 115121 | 163579
6 | 36:21.05 | 8:47.56 | 163580 | 203160
7 | 45:08.61 | 2:34.41 | 203161 | 214751
8 | 47:43.27 | 4:59.57 | 214752 | 237233
9 | 52:43.09 | 2:58.16 | 237234 | 250599
10 | 55:41.25 | 8:51.17 | 250600 | 290441


Range status and errors

Selected range

Filename C:\Users\Alex\Desktop\ALLexxess\Gentle Giant\2019 Unburied Treasure (30-Disc Box Set Snapper Music)\CD13 2019 Winchester 1971\Gentle Giant - Winchester 1971.wav

Peak level 91.7 %
Extraction speed 6.0 X
Range quality 99.9 %
Test CRC 0D322B71
Copy CRC 0D322B71
Copy OK

No errors occurred


AccurateRip summary

Track 1 not present in database
Track 2 not present in database
Track 3 not present in database
Track 4 not present in database
Track 5 not present in database
Track 6 not present in database
Track 7 not present in database
Track 8 not present in database
Track 9 not present in database
Track 10 not present in database

None of the tracks are present in the AccurateRip database

End of status report

–– CUETools DB Plugin V2.1.6

[CTDB TOCID: Mv7WLHqHHc_Zfhwsv.pv4.rguCo-] found
Submit result: Mv7WLHqHHc_Zfhwsv.pv4.rguCo- has been confirmed
Track | CTDB Status
1 | (17/17) Accurately ripped
2 | (17/17) Accurately ripped
3 | (17/17) Accurately ripped
4 | (17/17) Accurately ripped
5 | (17/17) Accurately ripped
6 | (17/17) Accurately ripped
7 | (17/17) Accurately ripped
8 | (17/17) Accurately ripped
9 | (17/17) Accurately ripped
10 | (17/17) Accurately ripped


==== Log checksum 437ACF80934CF5265A8C0301E88395A77197D218854FBE4E0D99C14C425A9948 ====


Tracklist CD14 - 2019 Essen 1972:

01 Alucard
02 Funny Ways
03 Nothing At All (with Malcolm Mortimore Drum Solo)
04 Plain Truth
05 The Queen

Exact Audio Copy V1.3 from 2. September 2016

EAC extraction logfile from 8. January 2020, 18:26

Gentle Giant / Essen 1972

Used drive : PLEXTOR BD-R PX-B950SA Adapter: 1 ID: 1

Read mode : Secure
Utilize accurate stream : Yes
Defeat audio cache : Yes
Make use of C2 pointers : No

Read offset correction : 6
Overread into Lead-In and Lead-Out : No
Fill up missing offset samples with silence : Yes
Delete leading and trailing silent blocks : No
Null samples used in CRC calculations : Yes
Used interface : Native Win32 interface for Win NT & 2000

Used output format : Internal WAV Routines
Sample format : 44.100 Hz; 16 Bit; Stereo


TOC of the extracted CD

Track | Start | Length | Start sector | End sector
––––––––––––––––––––––––––––-
1 | 0:00.00 | 7:44.14 | 0 | 34813
2 | 7:44.14 | 10:32.53 | 34814 | 82266
3 | 18:16.67 | 12:55.10 | 82267 | 140401
4 | 31:12.02 | 9:21.33 | 140402 | 182509
5 | 40:33.35 | 2:10.55 | 182510 | 192314


Range status and errors

Selected range

Filename C:\Users\Alex\Desktop\ALLexxess\Gentle Giant\2019 Unburied Treasure (30-Disc Box Set Snapper Music)\CD14 2019 Essen 1972\Gentle Giant - Essen 1972.wav

Peak level 91.6 %
Extraction speed 6.9 X
Range quality 100.0 %
Test CRC 19301BBD
Copy CRC 19301BBD
Copy OK

No errors occurred


AccurateRip summary

Track 1 not present in database
Track 2 not present in database
Track 3 not present in database
Track 4 not present in database
Track 5 not present in database

None of the tracks are present in the AccurateRip database

End of status report

–– CUETools DB Plugin V2.1.6

[CTDB TOCID: wU9DPmnOlhu4lTCOjsm47qz8Sfk-] found
Submit result: wU9DPmnOlhu4lTCOjsm47qz8Sfk- has been confirmed
Track | CTDB Status
1 | (17/17) Accurately ripped
2 | (17/17) Accurately ripped
3 | (17/17) Accurately ripped
4 | (17/17) Accurately ripped
5 | (16/17) Accurately ripped


==== Log checksum 5250F94BA0CCB8EBBEBA0F94C0BE1BF460305EB7BC9806EADF058CBEB6307EB8 ====


Tracklist CD15 - 2019 New Orleans & BBC Session 1972:

01 Prologue
02 Alucard
03 Funny Ways
04 Nothing At All
05 Funny Ways / BBC Session
06 Plain Truth / BBC Session
07 The Advent Of Panurge / BBC Session

Exact Audio Copy V1.3 from 2. September 2016

EAC extraction logfile from 8. January 2020, 18:07

Gentle Giant / New Orleans & BBC Session 1972

Used drive : PLEXTOR BD-R PX-B950SA Adapter: 1 ID: 1

Read mode : Secure
Utilize accurate stream : Yes
Defeat audio cache : Yes
Make use of C2 pointers : No

Read offset correction : 6
Overread into Lead-In and Lead-Out : No
Fill up missing offset samples with silence : Yes
Delete leading and trailing silent blocks : No
Null samples used in CRC calculations : Yes
Used interface : Native Win32 interface for Win NT & 2000

Used output format : Internal WAV Routines
Sample format : 44.100 Hz; 16 Bit; Stereo


TOC of the extracted CD

Track | Start | Length | Start sector | End sector
––––––––––––––––––––––––––––-
1 | 0:00.00 | 6:04.24 | 0 | 27323
2 | 6:04.24 | 6:23.50 | 27324 | 56098
3 | 12:27.74 | 7:32.32 | 56099 | 90030
4 | 20:00.31 | 2:28.17 | 90031 | 101147
5 | 22:28.48 | 7:18.71 | 101148 | 134068
6 | 29:47.44 | 6:45.63 | 134069 | 164506
7 | 36:33.32 | 4:47.71 | 164507 | 186102


Range status and errors

Selected range

Filename C:\Users\Alex\Desktop\Lossless Galaxy ALLexxess\Gentle Giant\2019 Unburied Treasure (30-Disc Box Set Snapper Music)\CD15 2019 New Orleans & BBC Session 1972\Gentle Giant - New Orleans & BBC Session 1972.wav

Peak level 91.2 %
Extraction speed 6.8 X
Range quality 99.9 %
Test CRC 07C7E106
Copy CRC 07C7E106
Copy OK

No errors occurred


AccurateRip summary

Track 1 not present in database
Track 2 not present in database
Track 3 not present in database
Track 4 not present in database
Track 5 not present in database
Track 6 not present in database
Track 7 not present in database

None of the tracks are present in the AccurateRip database

End of status report

–– CUETools DB Plugin V2.1.6

[CTDB TOCID: jVokiy8gyyimkziHgmVUTuONVcU-] found
Submit result: jVokiy8gyyimkziHgmVUTuONVcU- has been confirmed
Track | CTDB Status
1 | (17/17) Accurately ripped
2 | (17/17) Accurately ripped
3 | (17/17) Accurately ripped
4 | (17/17) Accurately ripped
5 | (17/17) Accurately ripped
6 | (17/17) Accurately ripped
7 | (17/17) Accurately ripped


==== Log checksum 15BBB8E02BF6DC52FDD21E8D0635957DFD404A916A24AF12E2B12883254212DE ====


Tracklist CD16 - 2019 Hollywood Bowl 1972:

01 Prologue
02 Alucard
03 Funny Ways
04 Nothing At All / Plain Truth

Exact Audio Copy V1.3 from 2. September 2016

EAC extraction logfile from 8. January 2020, 17:42

Gentle Giant / Hollywood Bowl 1972

Used drive : PLEXTOR BD-R PX-B950SA Adapter: 1 ID: 1

Read mode : Secure
Utilize accurate stream : Yes
Defeat audio cache : Yes
Make use of C2 pointers : No

Read offset correction : 6
Overread into Lead-In and Lead-Out : No
Fill up missing offset samples with silence : Yes
Delete leading and trailing silent blocks : No
Null samples used in CRC calculations : Yes
Used interface : Native Win32 interface for Win NT & 2000

Used output format : Internal WAV Routines
Sample format : 44.100 Hz; 16 Bit; Stereo


TOC of the extracted CD

Track | Start | Length | Start sector | End sector
––––––––––––––––––––––––––––-
1 | 0:00.00 | 8:16.18 | 0 | 37217
2 | 8:16.18 | 8:00.10 | 37218 | 73227
3 | 16:16.28 | 8:24.05 | 73228 | 111032
4 | 24:40.33 | 23:56.09 | 111033 | 218741


Range status and errors

Selected range

Filename C:\Users\Alex\Desktop\ALLexxess\Gentle Giant\2019 Unburied Treasure (30-Disc Box Set Snapper Music)\CD16 2019 Hollywood Bowl 1972\Gentle Giant - Hollywood Bowl 1972.wav

Peak level 97.9 %
Extraction speed 7.1 X
Range quality 100.0 %
Test CRC 07F74D3E
Copy CRC 07F74D3E
Copy OK

No errors occurred


AccurateRip summary

Track 1 not present in database
Track 2 not present in database
Track 3 not present in database
Track 4 not present in database

None of the tracks are present in the AccurateRip database

End of status report

–– CUETools DB Plugin V2.1.6

[CTDB TOCID: ePPqOLB8x7JSx7leU4yHci9JcLA-] found
Submit result: ePPqOLB8x7JSx7leU4yHci9JcLA- has been confirmed
Track | CTDB Status
1 | (17/17) Accurately ripped
2 | (17/17) Accurately ripped
3 | (17/17) Accurately ripped
4 | (16/17) Accurately ripped


==== Log checksum B66492B515E4CCCD493E41743AAB2246CF240C5E82EEEEC7A08B132F413E2A1B ====


Tracklist CD17 - 2019 Vicenza 1973:

01 Prologue
02 Alucard
03 Funny Ways
04 The Advent Of Panurge
05 Nothing At All
06 Plain Truth

Exact Audio Copy V1.3 from 2. September 2016

EAC extraction logfile from 8. January 2020, 14:07

Gentle Giant / Vincenze 1973

Used drive : PLEXTOR BD-R PX-B950SA Adapter: 1 ID: 1

Read mode : Secure
Utilize accurate stream : Yes
Defeat audio cache : Yes
Make use of C2 pointers : No

Read offset correction : 6
Overread into Lead-In and Lead-Out : No
Fill up missing offset samples with silence : Yes
Delete leading and trailing silent blocks : No
Null samples used in CRC calculations : Yes
Used interface : Native Win32 interface for Win NT & 2000

Used output format : Internal WAV Routines
Sample format : 44.100 Hz; 16 Bit; Stereo


TOC of the extracted CD

Track | Start | Length | Start sector | End sector
––––––––––––––––––––––––––––-
1 | 0:00.00 | 6:12.63 | 0 | 27962
2 | 6:12.63 | 8:05.60 | 27963 | 64397
3 | 14:18.48 | 9:42.56 | 64398 | 108103
4 | 24:01.29 | 7:08.40 | 108104 | 140243
5 | 31:09.69 | 13:49.49 | 140244 | 202467
6 | 44:59.43 | 14:21.14 | 202468 | 267056


Range status and errors

Selected range

Filename C:\Users\Alex\Desktop\ALLexxess\Gentle Giant\2019 Unburied Treasure (30-Disc Box Set Snapper Music)\CD17 2019 Vicenza 1973\Gentle Giant - Vincenze 1973.wav

Peak level 91.7 %
Extraction speed 4.8 X
Range quality 100.0 %
Test CRC 93CEC529
Copy CRC 93CEC529
Copy OK

No errors occurred


AccurateRip summary

Track 1 not present in database
Track 2 not present in database
Track 3 not present in database
Track 4 not present in database
Track 5 not present in database
Track 6 not present in database

None of the tracks are present in the AccurateRip database

End of status report

–– CUETools DB Plugin V2.1.6

[CTDB TOCID: Mdprr0UR4RM0SzUDVNkH3dTnqAY-] found
Submit result: Mdprr0UR4RM0SzUDVNkH3dTnqAY- has been confirmed
Track | CTDB Status
1 | (16/16) Accurately ripped
2 | (16/16) Accurately ripped
3 | (16/16) Accurately ripped
4 | (16/16) Accurately ripped
5 | (16/16) Accurately ripped
6 | (16/16) Accurately ripped


==== Log checksum 96F1A2BC450B332F705CF849B811B834F89FA933E7D4662C197429156C31885D ====


Tracklist CD18 - 2019 Torino 1973:

01 The Runaway
02 Way Of Life
03 Funny Ways
04 Excerpts From Octopus
05 Nothing At All
06 Plain Truth

Exact Audio Copy V1.3 from 2. September 2016

EAC extraction logfile from 8. January 2020, 13:20

Gentle Giant / Torino 1973

Used drive : PLEXTOR BD-R PX-B950SA Adapter: 1 ID: 1

Read mode : Secure
Utilize accurate stream : Yes
Defeat audio cache : Yes
Make use of C2 pointers : No

Read offset correction : 6
Overread into Lead-In and Lead-Out : No
Fill up missing offset samples with silence : Yes
Delete leading and trailing silent blocks : No
Null samples used in CRC calculations : Yes
Used interface : Native Win32 interface for Win NT & 2000

Used output format : Internal WAV Routines
Sample format : 44.100 Hz; 16 Bit; Stereo


TOC of the extracted CD

Track | Start | Length | Start sector | End sector
––––––––––––––––––––––––––––-
1 | 0:00.00 | 5:42.30 | 0 | 25679
2 | 5:42.30 | 7:10.33 | 25680 | 57962
3 | 12:52.63 | 8:50.21 | 57963 | 97733
4 | 21:43.09 | 12:46.07 | 97734 | 155190
5 | 34:29.16 | 15:27.70 | 155191 | 224785
6 | 49:57.11 | 7:16.18 | 224786 | 257503


Range status and errors

Selected range

Filename C:\Users\Alex\Desktop\ALLexxess\Gentle Giant\2019 Unburied Treasure (30-Disc Box Set Snapper Music)\CD18 2019 Torino 1973\Gentle Giant - Torino 1973.wav

Peak level 97.5 %
Extraction speed 7.5 X
Range quality 100.0 %
Test CRC EBE7E9AC
Copy CRC EBE7E9AC
Copy OK

No errors occurred


AccurateRip summary

Track 1 not present in database
Track 2 not present in database
Track 3 not present in database
Track 4 not present in database
Track 5 not present in database
Track 6 not present in database

None of the tracks are present in the AccurateRip database

End of status report

–– CUETools DB Plugin V2.1.6

[CTDB TOCID: Qh71G829pCcWb.kjtML88p1Mwco-] found
Submit result: Qh71G829pCcWb.kjtML88p1Mwco- has been confirmed
Track | CTDB Status
1 | (16/16) Accurately ripped
2 | (16/16) Accurately ripped
3 | (16/16) Accurately ripped
4 | (16/16) Accurately ripped
5 | (16/16) Accurately ripped
6 | (16/16) Accurately ripped


==== Log checksum 1E0A0065E517E3D1DF6F1B0FE31D798BFE9321C4ED0F378524B6B6E27251DC14 ====


Tracklist CD19 - 2019 Munster 1974:

01 The Runaway
02 Prologue
03 Funny Ways
04 Excerpts From Octopus
05 Nothing At All
06 Plain Truth
07 In A Glass House

Exact Audio Copy V1.3 from 2. September 2016

EAC extraction logfile from 8. January 2020, 12:02

Gentle Giant / Munster 1974

Used drive : PLEXTOR BD-R PX-B950SA Adapter: 1 ID: 1

Read mode : Secure
Utilize accurate stream : Yes
Defeat audio cache : Yes
Make use of C2 pointers : No

Read offset correction : 6
Overread into Lead-In and Lead-Out : No
Fill up missing offset samples with silence : Yes
Delete leading and trailing silent blocks : No
Null samples used in CRC calculations : Yes
Used interface : Native Win32 interface for Win NT & 2000

Used output format : Internal WAV Routines
Sample format : 44.100 Hz; 16 Bit; Stereo


TOC of the extracted CD

Track | Start | Length | Start sector | End sector
––––––––––––––––––––––––––––-
1 | 0:00.00 | 10:04.00 | 0 | 45299
2 | 10:04.00 | 6:13.54 | 45300 | 73328
3 | 16:17.54 | 9:22.68 | 73329 | 115546
4 | 25:40.47 | 13:14.28 | 115547 | 175124
5 | 38:55.00 | 15:53.25 | 175125 | 246624
6 | 54:48.25 | 13:53.38 | 246625 | 309137
7 | 68:41.63 | 9:26.62 | 309138 | 351649


Range status and errors

Selected range

Filename C:\Users\Alex\Desktop\ALLexxess\Gentle Giant\2019 Unburied Treasure (30-Disc Box Set Snapper Music)\CD19 2019 Munster 1974\Gentle Giant - Munster 1974.wav

Peak level 91.6 %
Extraction speed 8.3 X
Range quality 100.0 %
Test CRC 4D0E1C39
Copy CRC 4D0E1C39
Copy OK

No errors occurred


AccurateRip summary

Track 1 not present in database
Track 2 not present in database
Track 3 not present in database
Track 4 not present in database
Track 5 not present in database
Track 6 not present in database
Track 7 not present in database

None of the tracks are present in the AccurateRip database

End of status report

–– CUETools DB Plugin V2.1.6

[CTDB TOCID: FLEjkU50aUw53V4.Fuzk4IIists-] database access error: Время ожидания операции истекло


==== Log checksum 3D27F7FF3B73F1D395415A18BA29BE955647E54D1465BC0F2641708789E77764 ====


Tracklist CD20 - 2019 St. Gallen 1974:

01 Cogs In Cogs
02 Proclamation
03 Funny Ways
04 The Runaway
05 Experience
06 Excerpts From Octopus
07 Nothing At All
08 Plain Truth

Exact Audio Copy V1.3 from 2. September 2016

EAC extraction logfile from 8. January 2020, 11:30

Gentle Giant / St. Gallen 1974

Used drive : PLEXTOR BD-R PX-B950SA Adapter: 1 ID: 1

Read mode : Secure
Utilize accurate stream : Yes
Defeat audio cache : Yes
Make use of C2 pointers : No

Read offset correction : 6
Overread into Lead-In and Lead-Out : No
Fill up missing offset samples with silence : Yes
Delete leading and trailing silent blocks : No
Null samples used in CRC calculations : Yes
Used interface : Native Win32 interface for Win NT & 2000

Used output format : Internal WAV Routines
Sample format : 44.100 Hz; 16 Bit; Stereo


TOC of the extracted CD

Track | Start | Length | Start sector | End sector
––––––––––––––––––––––––––––-
1 | 0:00.00 | 4:20.15 | 0 | 19514
2 | 4:20.15 | 5:14.20 | 19515 | 43084
3 | 9:34.35 | 9:26.70 | 43085 | 85604
4 | 19:01.30 | 3:41.13 | 85605 | 102192
5 | 22:42.43 | 7:08.59 | 102193 | 134351
6 | 29:51.27 | 14:35.03 | 134352 | 199979
7 | 44:26.30 | 16:42.72 | 199980 | 275201
8 | 61:09.27 | 13:19.27 | 275202 | 335153


Range status and errors

Selected range

Filename C:\Users\Alex\Desktop\ALLexxess\Gentle Giant\2019 Unburied Treasure (30-Disc Box Set Snapper Music)\CD20 2019 St. Gallen 1974\Gentle Giant - St. Gallen 1974.wav

Peak level 91.6 %
Extraction speed 7.8 X
Range quality 99.9 %
Test CRC 9E65D591
Copy CRC 9E65D591
Copy OK

No errors occurred


AccurateRip summary

Track 1 not present in database
Track 2 not present in database
Track 3 not present in database
Track 4 not present in database
Track 5 not present in database
Track 6 not present in database
Track 7 not present in database
Track 8 not present in database

None of the tracks are present in the AccurateRip database

End of status report

–– CUETools DB Plugin V2.1.6

[CTDB TOCID: ZdXgc3QwrlCtHP7NMDmN.JwDF4Q-] found
Submit result: already submitted
Track | CTDB Status
1 | (17/17) Accurately ripped
2 | (17/17) Accurately ripped
3 | (17/17) Accurately ripped
4 | (17/17) Accurately ripped
5 | (17/17) Accurately ripped
6 | (17/17) Accurately ripped
7 | (17/17) Accurately ripped
8 | (17/17) Accurately ripped


==== Log checksum 10B18647AA52B52E3D2E481A75DD145006360BDA755FF5513EDE83AF22FB3795 ====


Tracklist CD21 - 2019 Cleveland 1975:

02 Proclamation
03 Funny Ways
04 The Runaway
05 Experience
06 Excerpts From Octopus
07 So Sincere
08 Mister Class And Quality?

Exact Audio Copy V1.3 from 2. September 2016

EAC extraction logfile from 8. January 2020, 10:30

Gentle Giant / Cleveland 1975

Used drive : PLEXTOR BD-R PX-B950SA Adapter: 1 ID: 1

Read mode : Secure
Utilize accurate stream : Yes
Defeat audio cache : Yes
Make use of C2 pointers : No

Read offset correction : 6
Overread into Lead-In and Lead-Out : No
Fill up missing offset samples with silence : Yes
Delete leading and trailing silent blocks : No
Null samples used in CRC calculations : Yes
Used interface : Native Win32 interface for Win NT & 2000

Used output format : Internal WAV Routines
Sample format : 44.100 Hz; 16 Bit; Stereo


TOC of the extracted CD

Track | Start | Length | Start sector | End sector
––––––––––––––––––––––––––––-
1 | 0:00.00 | 3:12.13 | 0 | 14412
2 | 3:12.13 | 5:02.38 | 14413 | 37100
3 | 8:14.51 | 8:48.49 | 37101 | 76749
4 | 17:03.25 | 3:54.26 | 76750 | 94325
5 | 20:57.51 | 5:59.46 | 94326 | 121296
6 | 26:57.22 | 13:27.38 | 121297 | 181859
7 | 40:24.60 | 9:21.15 | 181860 | 223949
8 | 49:46.00 | 5:08.12 | 223950 | 247061


Range status and errors

Selected range

Filename C:\Users\Alex\Desktop\ALLexxess\Gentle Giant\2019 Unburied Treasure (30-Disc Box Set Snapper Music)\CD21 2019 Cleveland 1975\Gentle Giant - Cleveland 1975.wav

Peak level 84.9 %
Extraction speed 7.4 X
Range quality 100.0 %
Test CRC 59A31FCF
Copy CRC 59A31FCF
Copy OK

No errors occurred


AccurateRip summary

Track 1 not present in database
Track 2 not present in database
Track 3 not present in database
Track 4 not present in database
Track 5 not present in database
Track 6 not present in database
Track 7 not present in database
Track 8 not present in database

None of the tracks are present in the AccurateRip database

End of status report

–– CUETools DB Plugin V2.1.6

[CTDB TOCID: C_HlQP_x.JeFUfxmf3BMy7ghRbI-] found
Submit result: C_HlQP_x.JeFUfxmf3BMy7ghRbI- has been confirmed
Track | CTDB Status
1 | (16/16) Accurately ripped
2 | (16/16) Accurately ripped
3 | (16/16) Accurately ripped
4 | (16/16) Accurately ripped
5 | (16/16) Accurately ripped
6 | (16/16) Accurately ripped
7 | (16/16) Accurately ripped
8 | (16/16) Accurately ripped


==== Log checksum A7B9520C50F502C38604CA8614DE23F9FBF563815905D17857DD68D4B0D40BE3 ====


Tracklist CD22 - 2019 Basel 1975:

01 Cogs In Cogs
02 Proclamation
03 Funny Ways
04 The Runaway
05 Experience
06 Excerpts From Octopus
07 So Sincere
08 Plain Truth
09 Free Hand
10 Just The Same

Exact Audio Copy V1.3 from 2. September 2016

EAC extraction logfile from 8. January 2020, 1:10

Gentle Giant / Basel 1975

Used drive : PLEXTOR BD-R PX-B950SA Adapter: 1 ID: 1

Read mode : Secure
Utilize accurate stream : Yes
Defeat audio cache : Yes
Make use of C2 pointers : No

Read offset correction : 6
Overread into Lead-In and Lead-Out : No
Fill up missing offset samples with silence : Yes
Delete leading and trailing silent blocks : No
Null samples used in CRC calculations : Yes
Used interface : Native Win32 interface for Win NT & 2000

Used output format : Internal WAV Routines
Sample format : 44.100 Hz; 16 Bit; Stereo


TOC of the extracted CD

Track | Start | Length | Start sector | End sector
––––––––––––––––––––––––––––-
1 | 0:00.00 | 5:51.09 | 0 | 26333
2 | 5:51.09 | 5:03.55 | 26334 | 49113
3 | 10:54.64 | 8:29.36 | 49114 | 87324
4 | 19:24.25 | 3:56.38 | 87325 | 105062
5 | 23:20.63 | 5:52.03 | 105063 | 131465
6 | 29:12.66 | 15:36.49 | 131466 | 201714
7 | 44:49.40 | 10:44.55 | 201715 | 250069
8 | 55:34.20 | 9:04.57 | 250070 | 290926
9 | 64:39.02 | 8:38.19 | 290927 | 329795
10 | 73:17.21 | 6:10.39 | 329796 | 357584


Range status and errors

Selected range

Filename C:\Users\Alex\Desktop\ALLexxess\Gentle Giant\2019 Unburied Treasure (30-Disc Box Set Snapper Music)\CD22 2019 Basel 1975\Gentle Giant - Basel 1975.wav

Peak level 91.7 %
Extraction speed 8.3 X
Range quality 100.0 %
Test CRC 28840C70
Copy CRC 28840C70
Copy OK

No errors occurred


AccurateRip summary

Track 1 not present in database
Track 2 not present in database
Track 3 not present in database
Track 4 not present in database
Track 5 not present in database
Track 6 not present in database
Track 7 not present in database
Track 8 not present in database
Track 9 not present in database
Track 10 not present in database

None of the tracks are present in the AccurateRip database

End of status report

–– CUETools DB Plugin V2.1.6

[CTDB TOCID: HkDPi1zXACf7M1XKxksY5Hv7DAI-] found
Submit result: HkDPi1zXACf7M1XKxksY5Hv7DAI- has been confirmed
Track | CTDB Status
1 | (16/16) Accurately ripped
2 | (16/16) Accurately ripped
3 | (16/16) Accurately ripped
4 | (16/16) Accurately ripped
5 | (16/16) Accurately ripped
6 | (16/16) Accurately ripped
7 | (16/16) Accurately ripped
8 | (16/16) Accurately ripped
9 | (16/16) Accurately ripped
10 | (16/16) Accurately ripped


==== Log checksum 69238ED190FEF748B26A25E87B3F439047EFAF76748DA249822EA16F29C8CD44 ====


Tracklist CD23 - 2019 Dusseldorf 1976 & Brussels 1976 CD1:

01 Just The Same / Proclamation
02 On Reflection
03 Interview
04 The Runaway / Experience
05 So Sincere
06 Excerpts From Octopus
07 Funny Ways - Snippet

Exact Audio Copy V1.3 from 2. September 2016

EAC extraction logfile from 7. January 2020, 23:39

Gentle Giant / Dusseldorf & Brussels 1976

Used drive : PLEXTOR BD-R PX-B950SA Adapter: 1 ID: 1

Read mode : Secure
Utilize accurate stream : Yes
Defeat audio cache : Yes
Make use of C2 pointers : No

Read offset correction : 6
Overread into Lead-In and Lead-Out : No
Fill up missing offset samples with silence : Yes
Delete leading and trailing silent blocks : No
Null samples used in CRC calculations : Yes
Used interface : Native Win32 interface for Win NT & 2000

Used output format : Internal WAV Routines
Sample format : 44.100 Hz; 16 Bit; Stereo


TOC of the extracted CD

Track | Start | Length | Start sector | End sector
––––––––––––––––––––––––––––-
1 | 0:00.00 | 10:45.01 | 0 | 48375
2 | 10:45.01 | 8:47.06 | 48376 | 87906
3 | 19:32.07 | 7:29.09 | 87907 | 121590
4 | 27:01.16 | 11:22.12 | 121591 | 172752
5 | 38:23.28 | 9:42.41 | 172753 | 216443
6 | 48:05.69 | 7:21.68 | 216444 | 249586


Range status and errors

Selected range

Filename C:\Users\Alex\Desktop\ALLexxess\Gentle Giant\2019 Unburied Treasure (30-Disc Box Set Snapper Music)\CD23-CD24 2019 Dusseldorf 1976 & Brussels 1976\Gentle Giant - Dusseldorf & Brussels 1976.wav

Peak level 100.0 %
Extraction speed 3.4 X
Range quality 100.0 %
Test CRC 7CC9B88E
Copy CRC 7CC9B88E
Copy OK

No errors occurred


AccurateRip summary

Track 1 not present in database
Track 2 not present in database
Track 3 not present in database
Track 4 not present in database
Track 5 not present in database
Track 6 not present in database

None of the tracks are present in the AccurateRip database

End of status report

–– CUETools DB Plugin V2.1.6

[CTDB TOCID: K.IJOO9itJl6371Fn4m_0wgD1s4-] found
Submit result: K.IJOO9itJl6371Fn4m_0wgD1s4- has been confirmed
Track | CTDB Status
1 | (15/15) Accurately ripped
2 | (15/15) Accurately ripped
3 | (15/15) Accurately ripped
4 | (15/15) Accurately ripped
5 | (15/15) Accurately ripped
6 | (15/15) Accurately ripped


==== Log checksum E0DFE67FB90B172570D053EC402CE444666A32A069D59904D02FA47F8DF41A86 ====


Tracklist CD24 - 2019 Dusseldorf 1976 & Brussels 1976 CD2:

Dusseldorf
01 Timing / Violin Solo
02 Free Hand
03 Peel The Paint / I Lost My Head
Brussels
04 Timing / Violin Solo
05 Free Hand
06 Peel The Paint / I Lost My Head

Exact Audio Copy V1.3 from 2. September 2016

EAC extraction logfile from 8. January 2020, 0:39

Gentle Giant / Dusseldorf 1976

Used drive : PLEXTOR BD-R PX-B950SA Adapter: 1 ID: 1

Read mode : Secure
Utilize accurate stream : Yes
Defeat audio cache : Yes
Make use of C2 pointers : No

Read offset correction : 6
Overread into Lead-In and Lead-Out : No
Fill up missing offset samples with silence : Yes
Delete leading and trailing silent blocks : No
Null samples used in CRC calculations : Yes
Used interface : Native Win32 interface for Win NT & 2000

Used output format : Internal WAV Routines
Sample format : 44.100 Hz; 16 Bit; Stereo


TOC of the extracted CD

Track | Start | Length | Start sector | End sector
––––––––––––––––––––––––––––-
1 | 0:00.00 | 13:04.08 | 0 | 58807
2 | 13:04.08 | 6:10.60 | 58808 | 86617
3 | 19:14.68 | 7:01.72 | 86618 | 118264
4 | 26:16.65 | 10:41.21 | 118265 | 166360
5 | 36:58.11 | 10:07.26 | 166361 | 211911
6 | 47:05.37 | 17:16.41 | 211912 | 289652
7 | 64:22.03 | 0:43.60 | 289653 | 292937


Range status and errors

Selected range

Filename C:\Users\Alex\Desktop\ALLexxess\Gentle Giant\2019 Unburied Treasure (30-Disc Box Set Snapper Music)\CD23-CD24 2019 Dusseldorf 1976 & Brussels 1976\Gentle Giant - Dusseldorf 1976.wav

Peak level 100.0 %
Extraction speed 7.7 X
Range quality 100.0 %
Test CRC 23212603
Copy CRC 23212603
Copy OK

No errors occurred


AccurateRip summary

Track 1 not present in database
Track 2 not present in database
Track 3 not present in database
Track 4 not present in database
Track 5 not present in database
Track 6 not present in database
Track 7 not present in database

None of the tracks are present in the AccurateRip database

End of status report

–– CUETools DB Plugin V2.1.6

[CTDB TOCID: X.8wXfIpvPh45VzEeHvUhbk.QZU-] found
Submit result: X.8wXfIpvPh45VzEeHvUhbk.QZU- has been confirmed
Track | CTDB Status
1 | (15/15) Accurately ripped
2 | (15/15) Accurately ripped
3 | (15/15) Accurately ripped
4 | (15/15) Accurately ripped
5 | (15/15) Accurately ripped
6 | (15/15) Accurately ripped
7 | (15/15) Accurately ripped


==== Log checksum 5439093FE085E60663F6798D9DCF40DBA123AA5B0D1F49842271D802823E1366 ====


Tracklist CD25 - 2019 Munich 1976:

01 Just The Same / Proclamation
02 On Reflection
03 Interview
04 Excerpts From Octopus
05 Funny Ways

Exact Audio Copy V1.3 from 2. September 2016

EAC extraction logfile from 7. January 2020, 21:41

Gentle Giant / Munich 1976

Used drive : PLEXTOR BD-R PX-B950SA Adapter: 1 ID: 1

Read mode : Secure
Utilize accurate stream : Yes
Defeat audio cache : Yes
Make use of C2 pointers : No

Read offset correction : 6
Overread into Lead-In and Lead-Out : No
Fill up missing offset samples with silence : Yes
Delete leading and trailing silent blocks : No
Null samples used in CRC calculations : Yes
Used interface : Native Win32 interface for Win NT & 2000

Used output format : Internal WAV Routines
Sample format : 44.100 Hz; 16 Bit; Stereo


TOC of the extracted CD

Track | Start | Length | Start sector | End sector
––––––––––––––––––––––––––––-
1 | 0:00.00 | 12:19.27 | 0 | 55451
2 | 12:19.27 | 6:18.38 | 55452 | 83839
3 | 18:37.65 | 7:29.61 | 83840 | 117575
4 | 26:07.51 | 17:22.22 | 117576 | 195747
5 | 43:29.73 | 8:45.02 | 195748 | 235124


Range status and errors

Selected range

Filename C:\Users\Alex\Desktop\ALLexxess\Gentle Giant\2019 Unburied Treasure (30-Disc Box Set Snapper Music)\CD25 2019 Munich 1976\Gentle Giant - Munich 1976.wav

Peak level 91.7 %
Extraction speed 7.3 X
Range quality 100.0 %
Test CRC 549575DE
Copy CRC 549575DE
Copy OK

No errors occurred


AccurateRip summary

Track 1 not present in database
Track 2 not present in database
Track 3 not present in database
Track 4 not present in database
Track 5 not present in database

None of the tracks are present in the AccurateRip database

End of status report

–– CUETools DB Plugin V2.1.6

[CTDB TOCID: Cq2VyNmBzhY7eNOkvv0ddQUeVrQ-] found
Submit result: Cq2VyNmBzhY7eNOkvv0ddQUeVrQ- has been confirmed
Track | CTDB Status
1 | (13/13) Accurately ripped
2 | (13/13) Accurately ripped
3 | (13/13) Accurately ripped
4 | (13/13) Accurately ripped
5 | (13/13) Accurately ripped


==== Log checksum FF9CE246DED993E7FE9B197457EEA546C99DEB16D5994CA7E1F39C7B55CF0C7F ====


Tracklist CD26 - 2019 Paris 1976:

01 The Runaway / Experience
02 So Sincere
03 Excerpts From Octopus
04 Funny Ways
05 Timing / Violin Solo
06 Free Hand
07 Peel The Paint / I Lost My Head

Exact Audio Copy V1.3 from 2. September 2016

EAC extraction logfile from 7. January 2020, 21:09

Gentle Giant / Paris 1976

Used drive : PLEXTOR BD-R PX-B950SA Adapter: 1 ID: 1

Read mode : Secure
Utilize accurate stream : Yes
Defeat audio cache : Yes
Make use of C2 pointers : No

Read offset correction : 6
Overread into Lead-In and Lead-Out : No
Fill up missing offset samples with silence : Yes
Delete leading and trailing silent blocks : No
Null samples used in CRC calculations : Yes
Used interface : Native Win32 interface for Win NT & 2000

Used output format : Internal WAV Routines
Sample format : 44.100 Hz; 16 Bit; Stereo


TOC of the extracted CD

Track | Start | Length | Start sector | End sector
––––––––––––––––––––––––––––-
1 | 0:00.00 | 10:13.02 | 0 | 45976
2 | 10:13.02 | 10:50.61 | 45977 | 94787
3 | 21:03.63 | 18:02.08 | 94788 | 175945
4 | 39:05.71 | 8:34.01 | 175946 | 214496
5 | 47:39.72 | 11:21.41 | 214497 | 265612
6 | 59:01.38 | 8:59.38 | 265613 | 306075
7 | 68:01.01 | 7:23.57 | 306076 | 339357


Range status and errors

Selected range

Filename C:\Users\Alex\Desktop\ALLexxess\Gentle Giant\2019 Unburied Treasure (30-Disc Box Set Snapper Music)\CD26 2019 Paris 1976\Gentle Giant - Paris 1976.wav

Peak level 90.0 %
Extraction speed 7.8 X
Range quality 99.9 %
Test CRC 20CF4F9F
Copy CRC 20CF4F9F
Copy OK

No errors occurred


AccurateRip summary

Track 1 not present in database
Track 2 not present in database
Track 3 not present in database
Track 4 not present in database
Track 5 not present in database
Track 6 not present in database
Track 7 not present in database

None of the tracks are present in the AccurateRip database

End of status report

–– CUETools DB Plugin V2.1.6

[CTDB TOCID: KZnbo3Z.R.cAAICMXTTkU2ulhvo-] found
Submit result: KZnbo3Z.R.cAAICMXTTkU2ulhvo- has been confirmed
Track | CTDB Status
1 | (15/15) Accurately ripped
2 | (15/15) Accurately ripped
3 | (15/15) Accurately ripped
4 | (15/15) Accurately ripped
5 | (15/15) Accurately ripped
6 | (15/15) Accurately ripped
7 | (15/15) Accurately ripped


==== Log checksum 305B5997EF79EAE295D6106ABD52C281E043E1BB25F703BADCCAFFF0A6084757 ====


Tracklist CD27 - 2019 Pinewood Studios Rehearsal 1977 (Outtakes):

01 The Runaway / Experience
02 As Old As You're Young
03 On Reflection
04 Just The Same / Playing The Game
05 Memories Of Old Days
06 Winning
07 For Nobody - Part
08 Funny Ways
09 The Face / Plain Truth
10 So Sincere
11 Free Hand - Part

Exact Audio Copy V1.3 from 2. September 2016

EAC extraction logfile from 7. January 2020, 19:43

Gentle Giant / Pinewood Studios Rehearsal 1977

Used drive : PLEXTOR BD-R PX-B950SA Adapter: 1 ID: 1

Read mode : Secure
Utilize accurate stream : Yes
Defeat audio cache : Yes
Make use of C2 pointers : No

Read offset correction : 6
Overread into Lead-In and Lead-Out : No
Fill up missing offset samples with silence : Yes
Delete leading and trailing silent blocks : No
Null samples used in CRC calculations : Yes
Used interface : Native Win32 interface for Win NT & 2000

Used output format : Internal WAV Routines
Sample format : 44.100 Hz; 16 Bit; Stereo


TOC of the extracted CD

Track | Start | Length | Start sector | End sector
––––––––––––––––––––––––––––-
1 | 0:00.00 | 9:52.13 | 0 | 44412
2 | 9:52.13 | 5:18.72 | 44413 | 68334
3 | 15:11.10 | 6:35.33 | 68335 | 97992
4 | 21:46.43 | 10:01.14 | 97993 | 143081
5 | 31:47.57 | 6:58.57 | 143082 | 174488
6 | 38:46.39 | 7:47.31 | 174489 | 209544
7 | 46:33.70 | 2:56.50 | 209545 | 222794
8 | 49:30.45 | 7:47.13 | 222795 | 257832
9 | 57:17.58 | 4:17.64 | 257833 | 277171
10 | 61:35.47 | 9:17.57 | 277172 | 319003
11 | 70:53.29 | 2:34.74 | 319004 | 330627


Range status and errors

Selected range

Filename C:\Users\Alex\Desktop\ALLexxess\Gentle Giant\2019 Unburied Treasure (30-Disc Box Set Snapper Music)\CD27 2019 Pinewood Studios Rehearsal 1977\Gentle Giant - Pinewood Studios Rehearsal 1977.wav

Peak level 91.2 %
Extraction speed 7.8 X
Range quality 100.0 %
Test CRC 8C008458
Copy CRC 8C008458
Copy OK

No errors occurred


AccurateRip summary

Track 1 not present in database
Track 2 not present in database
Track 3 not present in database
Track 4 not present in database
Track 5 not present in database
Track 6 not present in database
Track 7 not present in database
Track 8 not present in database
Track 9 not present in database
Track 10 not present in database
Track 11 not present in database

None of the tracks are present in the AccurateRip database

End of status report

–– CUETools DB Plugin V2.1.6

[CTDB TOCID: D5wc97h81ydCTmrPBYsxTHw75ck-] found
Submit result: D5wc97h81ydCTmrPBYsxTHw75ck- has been confirmed
Track | CTDB Status
1 | (16/16) Accurately ripped
2 | (16/16) Accurately ripped
3 | (16/16) Accurately ripped
4 | (16/16) Accurately ripped
5 | (16/16) Accurately ripped
6 | (16/16) Accurately ripped
7 | (16/16) Accurately ripped
8 | (16/16) Accurately ripped
9 | (16/16) Accurately ripped
10 | (16/16) Accurately ripped
11 | (15/16) Accurately ripped


==== Log checksum 5BFD5188DF25ED7882182A5449949C57B35AB2CCBD6CA4C4A895E630AFAAA8C8 ====


Tracklist CD28 - 2019 Chester 1977:

01 Two Weeks In Spain
02 Free Hand
03 On Reflection
04 I'm Turning Around
05 Just The Same / Playing The Game
06 Memories Of Old Days
07 Betcha Thought We Couldn't Do It
08 The Face
09 For Nobody
10 Excerpts From Octopus - Part 1
11 Excerpts From Octopus - Part 2

Exact Audio Copy V1.3 from 2. September 2016

EAC extraction logfile from 7. January 2020, 19:12

Gentle Giant / Chester 1977

Used drive : PLEXTOR BD-R PX-B950SA Adapter: 1 ID: 1

Read mode : Secure
Utilize accurate stream : Yes
Defeat audio cache : Yes
Make use of C2 pointers : No

Read offset correction : 6
Overread into Lead-In and Lead-Out : No
Fill up missing offset samples with silence : Yes
Delete leading and trailing silent blocks : No
Null samples used in CRC calculations : Yes
Used interface : Native Win32 interface for Win NT & 2000

Used output format : Internal WAV Routines
Sample format : 44.100 Hz; 16 Bit; Stereo


TOC of the extracted CD

Track | Start | Length | Start sector | End sector
––––––––––––––––––––––––––––-
1 | 0:00.00 | 3:00.18 | 0 | 13517
2 | 3:00.18 | 8:10.55 | 13518 | 50322
3 | 11:10.73 | 5:59.45 | 50323 | 77292
4 | 17:10.43 | 4:07.09 | 77293 | 95826
5 | 21:17.52 | 9:51.54 | 95827 | 140205
6 | 31:09.31 | 7:45.23 | 140206 | 175103
7 | 38:54.54 | 4:20.24 | 175104 | 194627
8 | 43:15.03 | 14:25.45 | 194628 | 259547
9 | 57:40.48 | 4:28.74 | 259548 | 279721
10 | 62:09.47 | 6:05.31 | 279722 | 307127
11 | 68:15.03 | 9:56.00 | 307128 | 351827


Range status and errors

Selected range

Filename C:\Users\Alex\Desktop\ALLexxess\Gentle Giant\2019 Unburied Treasure (30-Disc Box Set Snapper Music)\CD28 2019 Chester 1977\Gentle Giant - Chester 1977.wav

Peak level 91.7 %
Extraction speed 6.7 X
Range quality 100.0 %
Test CRC FD2761C4
Copy CRC FD2761C4
Copy OK

No errors occurred


AccurateRip summary

Track 1 not present in database
Track 2 not present in database
Track 3 not present in database
Track 4 not present in database
Track 5 not present in database
Track 6 not present in database
Track 7 not present in database
Track 8 not present in database
Track 9 not present in database
Track 10 not present in database
Track 11 not present in database

None of the tracks are present in the AccurateRip database

End of status report

–– CUETools DB Plugin V2.1.6

[CTDB TOCID: AZ4n9B7Nvd4rOGzX0FXy_UoYg.8-] found
Submit result: AZ4n9B7Nvd4rOGzX0FXy_UoYg.8- has been confirmed
Track | CTDB Status
1 | (14/14) Accurately ripped
2 | (14/14) Accurately ripped
3 | (14/14) Accurately ripped
4 | (14/14) Accurately ripped
5 | (14/14) Accurately ripped
6 | (14/14) Accurately ripped
7 | (14/14) Accurately ripped
8 | (14/14) Accurately ripped
9 | (14/14) Accurately ripped
10 | (14/14) Accurately ripped
11 | (14/14) Accurately ripped


==== Log checksum B3F5BE652153E9EEA2327372896ED06BB4AEAA870C12EE0860340CCFAEC96BA1 ====


Tracklist CD29 - 2019 The Roxy 1980:

01 Convenience (Clean And Easy)
02 All Through The Night
03 Free Hand
04 Knots
05 Playing The Game
06 Memories Of Old Days
07 Giant For A Day
08 Inside Out
09 It`s Not Imagination
10 Underground
11 5 Man Drum Solo
12 Band Member Introductions
13 For Nobody
14 The Advent Of Panurge
15 Number One

Exact Audio Copy V1.3 from 2. September 2016

EAC extraction logfile from 7. January 2020, 18:35

Gentle Giant / The Roxy 1980

Used drive : PLEXTOR BD-R PX-B950SA Adapter: 1 ID: 1

Read mode : Secure
Utilize accurate stream : Yes
Defeat audio cache : Yes
Make use of C2 pointers : No

Read offset correction : 6
Overread into Lead-In and Lead-Out : No
Fill up missing offset samples with silence : Yes
Delete leading and trailing silent blocks : No
Null samples used in CRC calculations : Yes
Used interface : Native Win32 interface for Win NT & 2000

Used output format : Internal WAV Routines
Sample format : 44.100 Hz; 16 Bit; Stereo


TOC of the extracted CD

Track | Start | Length | Start sector | End sector
––––––––––––––––––––––––––––-
1 | 0:00.00 | 3:21.32 | 0 | 15106
2 | 3:21.32 | 4:12.61 | 15107 | 34067
3 | 7:34.18 | 8:28.11 | 34068 | 72178
4 | 16:02.29 | 2:41.19 | 72179 | 84272
5 | 18:43.48 | 6:05.30 | 84273 | 111677
6 | 24:49.03 | 8:13.26 | 111678 | 148678
7 | 33:02.29 | 5:19.29 | 148679 | 172632
8 | 38:21.58 | 6:03.59 | 172633 | 199916
9 | 44:25.42 | 3:52.50 | 199917 | 217366
10 | 48:18.17 | 3:40.04 | 217367 | 233870
11 | 51:58.21 | 6:47.28 | 233871 | 264423
12 | 58:45.49 | 2:07.68 | 264424 | 274016
13 | 60:53.42 | 4:51.39 | 274017 | 295880
14 | 65:45.06 | 7:14.42 | 295881 | 328472
15 | 72:59.48 | 6:29.36 | 328473 | 357683


Range status and errors

Selected range

Filename C:\Users\Alex\Desktop\ALLexxess\Gentle Giant\2019 Unburied Treasure (30-Disc Box Set Snapper Music)\CD29 2019 The Roxy 1980\Gentle Giant - The Roxy 1980.wav

Peak level 90.4 %
Extraction speed 6.8 X
Range quality 100.0 %
Test CRC 8214FB32
Copy CRC 8214FB32
Copy OK

No errors occurred


AccurateRip summary

Track 1 not present in database
Track 2 not present in database
Track 3 not present in database
Track 4 not present in database
Track 5 not present in database
Track 6 not present in database
Track 7 not present in database
Track 8 not present in database
Track 9 not present in database
Track 10 not present in database
Track 11 not present in database
Track 12 not present in database
Track 13 not present in database
Track 14 not present in database
Track 15 not present in database

None of the tracks are present in the AccurateRip database

End of status report

–– CUETools DB Plugin V2.1.6

[CTDB TOCID: iI8JfJGXQ8IxqrNmZaIxoCAQV6Y-] found
Submit result: iI8JfJGXQ8IxqrNmZaIxoCAQV6Y- has been confirmed
Track | CTDB Status
1 | (13/13) Accurately ripped
2 | (13/13) Accurately ripped
3 | (13/13) Accurately ripped
4 | (13/13) Accurately ripped
5 | (13/13) Accurately ripped
6 | (13/13) Accurately ripped
7 | (13/13) Accurately ripped
8 | (13/13) Accurately ripped
9 | (13/13) Accurately ripped
10 | (13/13) Accurately ripped
11 | (13/13) Accurately ripped
12 | (13/13) Accurately ripped
13 | (13/13) Accurately ripped
14 | (13/13) Accurately ripped
15 | (13/13) Accurately ripped


==== Log checksum C073517C961BD97787E5FAAC29D311784F454F84E0401FB1F2EDFC7F9912C79F ====


Tracklist BD - 1970 Gentle Giant:

96/24 Stereo LPCM
96/24 5.1 Surround LPCM & DTS-HD 5.1 Surround
01 Giant
02 Funny Ways
03 Alucard
04 Isn't It Quiet And Cold?
05 Nothing At All
06 Why Not?
07 The Queen

* Also included are the instrumental mixes for every track

Disc Title: GENTLE GIANT 1ST ALBUM
Disc Size: 18 191 496 636 bytes
Protection: AACS
BD-Java: No
BDInfo: 0.7.3.3

Notes:

BDINFO HOME:
Cinema Squid
http://www.cinemasquid.com/blu-ray/tools/bdinfo

INCLUDES FORUMS REPORT FOR:
AVS Forum Blu-ray Audio and Video Specifications Thread
http://www.avsforum.com/avs-vb/showthread.php?t=1155731

WARNING: Report is incomplete because: Scan has not been run.

********************
PLAYLIST: 00000.MPLS
********************

<–- BEGIN FORUMS PASTE –->
                                                                                                                Total   Video                                             
Title                                                           Codec   Length  Movie Size      Disc Size       Bitrate Bitrate Main Audio Track                          Secondary Audio Track
-----                                                           ------  ------- --------------  --------------  ------- ------- ------------------                        ---------------------
00000.MPLS                                                      AVC     0:37:00 0               18 191 496 636  0,00    0,00    LPCM 2.0 4608Kbps (96kHz/24-bit)          DTS-HD Master 5.1 (96kHz/24-bit)


DISC INFO:

Disc Title:     GENTLE GIANT 1ST ALBUM
Disc Size:      18 191 496 636 bytes
Protection:     AACS
BD-Java:        No
BDInfo:         0.7.3.3

PLAYLIST REPORT:

Name:                   00000.MPLS
Length:                 0:37:00.426 (h:m:s.ms)
Size:                   0 bytes
Total Bitrate:          0,00 Mbps

VIDEO:

Codec                   Bitrate             Description     
-----                   -------             -----------     
MPEG-4 AVC Video        0 kbps              1080p / 23,976 fps / 16:9 / High Profile 4.1

AUDIO:

Codec                           Language        Bitrate         Description     
-----                           --------        -------         -----------     
LPCM Audio                      English         4608 kbps       2.0 / 96 kHz / 4608 kbps / 24-bit
DTS-HD Master Audio             English         0 kbps          5.1 / 96 kHz / 24-bit (DTS Core: 6.1 / 48 kHz / 1509 kbps / 24-bit)
LPCM Audio                      English         13824 kbps      5.1 / 96 kHz / 13824 kbps / 24-bit

FILES:

Name            Time In         Length          Size            Total Bitrate   
----            -------         ------          ----            -------------   
00000.M2TS      0:00:00.000     0:36:59.425     0               0               
00007.M2TS      0:36:59.425     0:00:01.000     0               0               

CHAPTERS:

Number          Time In         Length          Avg Video Rate  Max 1-Sec Rate  Max 1-Sec Time  Max 5-Sec Rate  Max 5-Sec Time  Max 10Sec Rate  Max 10Sec Time  Avg Frame Size  Max Frame Size  Max Frame Time  
------          -------         ------          --------------  --------------  --------------  --------------  --------------  --------------  --------------  --------------  --------------  --------------  
1               0:00:00.000     0:06:25.760     0 kbps          0 kbps          00:00:00.000    0 kbps          00:00:00.000    0 kbps          00:00:00.000    0 bytes         0 bytes         00:00:00.000    
2               0:06:25.760     0:04:27.600     0 kbps          0 kbps          00:00:00.000    0 kbps          00:00:00.000    0 kbps          00:00:00.000    0 bytes         0 bytes         00:00:00.000    
3               0:10:53.361     0:06:00.610     0 kbps          0 kbps          00:00:00.000    0 kbps          00:00:00.000    0 kbps          00:00:00.000    0 bytes         0 bytes         00:00:00.000    
4               0:16:53.971     0:03:47.685     0 kbps          0 kbps          00:00:00.000    0 kbps          00:00:00.000    0 kbps          00:00:00.000    0 bytes         0 bytes         00:00:00.000    
5               0:20:41.657     0:09:03.751     0 kbps          0 kbps          00:00:00.000    0 kbps          00:00:00.000    0 kbps          00:00:00.000    0 bytes         0 bytes         00:00:00.000    
6               0:29:45.408     0:05:28.161     0 kbps          0 kbps          00:00:00.000    0 kbps          00:00:00.000    0 kbps          00:00:00.000    0 bytes         0 bytes         00:00:00.000    
7               0:35:13.569     0:01:45.855     0 kbps          0 kbps          00:00:00.000    0 kbps          00:00:00.000    0 kbps          00:00:00.000    0 bytes         0 bytes         00:00:00.000    
8               0:36:59.425     0:00:01.000     0 kbps          0 kbps          00:00:00.000    0 kbps          00:00:00.000    0 kbps          00:00:00.000    0 bytes         0 bytes         00:00:00.000    

STREAM DIAGNOSTICS:

File            PID             Type            Codec           Language                Seconds                 Bitrate                 Bytes           Packets         
----            ---             ----            -----           --------                --------------          --------------          -------------   -----           
00000.M2TS      4113 (0x1011)   0x1B            AVC                                     0,042                   0                       0               0               
00000.M2TS      4352 (0x1100)   0x80            LPCM            eng (English)           0,042                   0                       0               0               
00000.M2TS      4353 (0x1101)   0x86            DTS-HD MA       eng (English)           0,042                   0                       0               0               
00000.M2TS      4354 (0x1102)   0x80            LPCM            eng (English)           0,042                   0                       0               0               
00007.M2TS      4113 (0x1011)   0x1B            AVC                                     0                       0                       0               0               

<–– END FORUMS PASTE ––>

QUICK SUMMARY:

Disc Title: GENTLE GIANT 1ST ALBUM
Disc Size: 18 191 496 636 bytes
Protection: AACS
BD-Java: No
Playlist: 00000.MPLS
Size: 0 bytes
Length: 0:37:00.426
Total Bitrate: 0,00 Mbps
Video: MPEG-4 AVC Video / 0 kbps / 1080p / 23,976 fps / 16:9 / High Profile 4.1
Audio: English / LPCM Audio / 2.0 / 96 kHz / 4608 kbps / 24-bit
Audio: English / DTS-HD Master Audio / 5.1 / 96 kHz / 24-bit (DTS Core: 6.1 / 48 kHz / 1509 kbps / 24-bit)
Audio: English / LPCM Audio / 5.1 / 96 kHz / 13824 kbps / 24-bit


********************
PLAYLIST: 00001.MPLS
********************

<–- BEGIN FORUMS PASTE –->
                                                                                                                Total   Video                                             
Title                                                           Codec   Length  Movie Size      Disc Size       Bitrate Bitrate Main Audio Track                          Secondary Audio Track
-----                                                           ------  ------- --------------  --------------  ------- ------- ------------------                        ---------------------
00001.MPLS                                                      AVC     0:37:00 0               18 191 496 636  0,00    0,00    LPCM 2.0 4608Kbps (96kHz/24-bit)          


DISC INFO:

Disc Title:     GENTLE GIANT 1ST ALBUM
Disc Size:      18 191 496 636 bytes
Protection:     AACS
BD-Java:        No
BDInfo:         0.7.3.3

PLAYLIST REPORT:

Name:                   00001.MPLS
Length:                 0:37:00.426 (h:m:s.ms)
Size:                   0 bytes
Total Bitrate:          0,00 Mbps

VIDEO:

Codec                   Bitrate             Description     
-----                   -------             -----------     
MPEG-4 AVC Video        0 kbps              1080p / 23,976 fps / 16:9 / High Profile 4.1

AUDIO:

Codec                           Language        Bitrate         Description     
-----                           --------        -------         -----------     
LPCM Audio                      English         4608 kbps       2.0 / 96 kHz / 4608 kbps / 24-bit

FILES:

Name            Time In         Length          Size            Total Bitrate   
----            -------         ------          ----            -------------   
00001.M2TS      0:00:00.000     0:36:59.425     0               0               
00007.M2TS      0:36:59.425     0:00:01.000     0               0               

CHAPTERS:

Number          Time In         Length          Avg Video Rate  Max 1-Sec Rate  Max 1-Sec Time  Max 5-Sec Rate  Max 5-Sec Time  Max 10Sec Rate  Max 10Sec Time  Avg Frame Size  Max Frame Size  Max Frame Time  
------          -------         ------          --------------  --------------  --------------  --------------  --------------  --------------  --------------  --------------  --------------  --------------  
1               0:00:00.000     0:06:25.760     0 kbps          0 kbps          00:00:00.000    0 kbps          00:00:00.000    0 kbps          00:00:00.000    0 bytes         0 bytes         00:00:00.000    
2               0:06:25.760     0:04:27.600     0 kbps          0 kbps          00:00:00.000    0 kbps          00:00:00.000    0 kbps          00:00:00.000    0 bytes         0 bytes         00:00:00.000    
3               0:10:53.361     0:06:00.610     0 kbps          0 kbps          00:00:00.000    0 kbps          00:00:00.000    0 kbps          00:00:00.000    0 bytes         0 bytes         00:00:00.000    
4               0:16:53.971     0:03:47.685     0 kbps          0 kbps          00:00:00.000    0 kbps          00:00:00.000    0 kbps          00:00:00.000    0 bytes         0 bytes         00:00:00.000    
5               0:20:41.657     0:09:03.751     0 kbps          0 kbps          00:00:00.000    0 kbps          00:00:00.000    0 kbps          00:00:00.000    0 bytes         0 bytes         00:00:00.000    
6               0:29:45.408     0:05:28.161     0 kbps          0 kbps          00:00:00.000    0 kbps          00:00:00.000    0 kbps          00:00:00.000    0 bytes         0 bytes         00:00:00.000    
7               0:35:13.569     0:01:45.855     0 kbps          0 kbps          00:00:00.000    0 kbps          00:00:00.000    0 kbps          00:00:00.000    0 bytes         0 bytes         00:00:00.000    
8               0:36:59.425     0:00:01.000     0 kbps          0 kbps          00:00:00.000    0 kbps          00:00:00.000    0 kbps          00:00:00.000    0 bytes         0 bytes         00:00:00.000    

STREAM DIAGNOSTICS:

File            PID             Type            Codec           Language                Seconds                 Bitrate                 Bytes           Packets         
----            ---             ----            -----           --------                --------------          --------------          -------------   -----           
00001.M2TS      4113 (0x1011)   0x1B            AVC                                     0,042                   0                       0               0               
00001.M2TS      4352 (0x1100)   0x80            LPCM            eng (English)           0,042                   0                       0               0               
00007.M2TS      4113 (0x1011)   0x1B            AVC                                     0                       0                       0               0               

<–– END FORUMS PASTE ––>

QUICK SUMMARY:

Disc Title: GENTLE GIANT 1ST ALBUM
Disc Size: 18 191 496 636 bytes
Protection: AACS
BD-Java: No
Playlist: 00001.MPLS
Size: 0 bytes
Length: 0:37:00.426
Total Bitrate: 0,00 Mbps
Video: MPEG-4 AVC Video / 0 kbps / 1080p / 23,976 fps / 16:9 / High Profile 4.1
Audio: English / LPCM Audio / 2.0 / 96 kHz / 4608 kbps / 24-bit


********************
PLAYLIST: 00003.MPLS
********************

<–- BEGIN FORUMS PASTE –->
                                                                                                                Total   Video                                             
Title                                                           Codec   Length  Movie Size      Disc Size       Bitrate Bitrate Main Audio Track                          Secondary Audio Track
-----                                                           ------  ------- --------------  --------------  ------- ------- ------------------                        ---------------------
00003.MPLS                                                      AVC     0:00:21 0               18 191 496 636  0,00    0,00                                              


DISC INFO:

Disc Title:     GENTLE GIANT 1ST ALBUM
Disc Size:      18 191 496 636 bytes
Protection:     AACS
BD-Java:        No
BDInfo:         0.7.3.3

PLAYLIST REPORT:

Name:                   00003.MPLS
Length:                 0:00:21.938 (h:m:s.ms)
Size:                   0 bytes
Total Bitrate:          0,00 Mbps

VIDEO:

Codec                   Bitrate             Description     
-----                   -------             -----------     
MPEG-4 AVC Video        0 kbps              1080p / 23,976 fps / 16:9 / High Profile 4.1

FILES:

Name            Time In         Length          Size            Total Bitrate   
----            -------         ------          ----            -------------   
00004.M2TS      0:00:00.000     0:00:10.009     0               0               
00005.M2TS      0:00:10.009     0:00:04.879     0               0               
00006.M2TS      0:00:14.889     0:00:06.047     0               0               
00007.M2TS      0:00:20.937     0:00:01.000     0               0               

CHAPTERS:

Number          Time In         Length          Avg Video Rate  Max 1-Sec Rate  Max 1-Sec Time  Max 5-Sec Rate  Max 5-Sec Time  Max 10Sec Rate  Max 10Sec Time  Avg Frame Size  Max Frame Size  Max Frame Time  
------          -------         ------          --------------  --------------  --------------  --------------  --------------  --------------  --------------  --------------  --------------  --------------  
1               0:00:00.000     0:00:21.938     0 kbps          0 kbps          00:00:00.000    0 kbps          00:00:00.000    0 kbps          00:00:00.000    0 bytes         0 bytes         00:00:00.000    

STREAM DIAGNOSTICS:

File            PID             Type            Codec           Language                Seconds                 Bitrate                 Bytes           Packets         
----            ---             ----            -----           --------                --------------          --------------          -------------   -----           
00004.M2TS      4113 (0x1011)   0x1B            AVC                                     0                       0                       0               0               
00005.M2TS      4113 (0x1011)   0x1B            AVC                                     0                       0                       0               0               
00006.M2TS      4113 (0x1011)   0x1B            AVC                                     0                       0                       0               0               
00007.M2TS      4113 (0x1011)   0x1B            AVC                                     0                       0                       0               0               

<–– END FORUMS PASTE ––>

QUICK SUMMARY:

Disc Title: GENTLE GIANT 1ST ALBUM
Disc Size: 18 191 496 636 bytes
Protection: AACS
BD-Java: No
Playlist: 00003.MPLS
Size: 0 bytes
Length: 0:00:21.938
Total Bitrate: 0,00 Mbps
Video: MPEG-4 AVC Video / 0 kbps / 1080p / 23,976 fps / 16:9 / High Profile 4.1



Gentle Giant - Unburied Treasure (2019) [Super Deluxe Edition Box Set] PROPER

All thanks go to ALLexxess

Gentle Giant in my Blog

Download Gentle Giant - Unburied Treasure (2019):