Subcategories

Led Zeppelin - The Song Remains The Same (1976) [Super Deluxe Box Set & Blu-ray Audio] Re-up

Posted By: v3122
Led Zeppelin - The Song Remains The Same (1976) [Super Deluxe Box Set & Blu-ray Audio] Re-up

Led Zeppelin - The Song Remains The Same (1976)
EAC | Flac(Image) + Cue + Log & MP3 CBR 320Kbps
2018 | Atlantic Records | ~ 877 or 312 Mb | Scans(jpg) -> 1247 Mb
2xDVD9+DVD5: NTSC 16:9 (720x480) VBR | AC3, 6 ch / LPCM, 2 ch / DTS, 6 ch
Blu-ray: MPEG-4 AVC 1080p, 23,976 fps, 16:9, High Profile 4.1
DTS-HD MA 5.1 & 2.0, 96 kHz, 24-bit / LPCM 2.0, 96 kHz, 24-bit
Hard Rock, Blues Rock, Classic Rock

THE SONG REMAINS THE SAME is the soundtrack to the legendary concert film of the same name, which was released in 1976. The performances in the film were recorded July 27-29, 1973 at Madison Square Garden during the band’s tour for its then-current studio album, Houses Of The Holy.The Super Deluxe Boxed Set will be the most exquisite and elaborate release in the reissue series, recreating the intricate embossing of the set’s original issue and will also mark the first time the full length film and soundtrack have been available in the same package.

-
The Super Deluxe format includes:
Remastered audio on two CDs and four 180-gram vinyl LPs.
Two DVD set of the The Song Remains The Same featuring the full theatrical version of the film plus bonus content including four performance outtakes that were not part of the original film: “Celebration Day,” “Over The Hills And Far Away,” “Misty Mountain Hop,” and “The Ocean.”
DVD of the entire album in Dolby Digital 5.1 Surround and PCM Stereo, plus photo gallery.
High-def download card of all stereo audio content at 96kHz/24 bit.
A 28-page book featuring band photos and stills from the film and an essay by Cameron Crowe.
A replica of the Japanese program from 1977, previously available only when the film first toured cinemas in that country.
High-quality print of the original album cover, the first 30,000 of which will be individually numbered.

~ amazon
Led Zeppelin - The Song Remains The Same (1976) [Super Deluxe Box Set & Blu-ray Audio] Re-up

Led Zeppelin - The Song Remains The Same (1976):

Led Zeppelin - The Song Remains The Same (1976) [Super Deluxe Box Set & Blu-ray Audio] Re-up

Tracklist CD1:

01 Rock And Roll
02 Celebration Day
03 Black Dog
04 Over The Hills And Far Away
05 Misty Mountain Hop
06 Since I've Been Loving You
07 No Quarter
08 The Song Remains The Same
09 The Rain Song
10 The Ocean

Exact Audio Copy V1.3 from 2. September 2016

EAC extraction logfile from 22. September 2018, 11:42

Led Zeppelin / The Song Remains The Same CD1

Used drive : PLEXTOR BD-R PX-B950SA Adapter: 1 ID: 1

Read mode : Secure
Utilize accurate stream : Yes
Defeat audio cache : Yes
Make use of C2 pointers : No

Read offset correction : 6
Overread into Lead-In and Lead-Out : No
Fill up missing offset samples with silence : Yes
Delete leading and trailing silent blocks : No
Null samples used in CRC calculations : Yes
Used interface : Native Win32 interface for Win NT & 2000

Used output format : Internal WAV Routines
Sample format : 44.100 Hz; 16 Bit; Stereo


TOC of the extracted CD

Track | Start | Length | Start sector | End sector
––––––––––––––––––––––––––––-
1 | 0:00.00 | 3:56.25 | 0 | 17724
2 | 3:56.25 | 3:37.46 | 17725 | 34045
3 | 7:33.71 | 3:46.21 | 34046 | 51016
4 | 11:20.17 | 6:11.02 | 51017 | 78843
5 | 17:31.19 | 4:43.36 | 78844 | 100104
6 | 22:14.55 | 8:23.63 | 100105 | 137892
7 | 30:38.43 | 10:38.24 | 137893 | 185766
8 | 41:16.67 | 5:39.39 | 185767 | 211230
9 | 46:56.31 | 8:20.55 | 211231 | 248785
10 | 55:17.11 | 5:16.07 | 248786 | 272492


Range status and errors

Selected range

Filename C:\Users\Alex\Desktop\ALLexxess\Led Zeppelin\1976 Song Remains The Same (9-Disc Box Set Atlantic Records 2018)\CD1\Led Zeppelin - The Song Remains The Same CD1.wav

Peak level 98.8 %
Extraction speed 7.3 X
Range quality 100.0 %
Test CRC 965CEB8D
Copy CRC 965CEB8D
Copy OK

No errors occurred


AccurateRip summary

Track 1 not present in database
Track 2 not present in database
Track 3 not present in database
Track 4 not present in database
Track 5 not present in database
Track 6 not present in database
Track 7 not present in database
Track 8 not present in database
Track 9 not present in database
Track 10 not present in database

None of the tracks are present in the AccurateRip database

End of status report

–– CUETools DB Plugin V2.1.6

[CTDB TOCID: a_Bql6n1nx2zIUWfG4r_17zXo0k-] found
Submit result: a_Bql6n1nx2zIUWfG4r_17zXo0k- has been confirmed
Track | CTDB Status
1 | (64/65) Accurately ripped
2 | (64/65) Accurately ripped
3 | (64/65) Accurately ripped
4 | (63/65) Accurately ripped
5 | (63/65) Accurately ripped
6 | (64/65) Accurately ripped
7 | (64/65) Accurately ripped
8 | (64/65) Accurately ripped
9 | (64/65) Accurately ripped
10 | (61/65) Accurately ripped


==== Log checksum 30CF952672603DB68F0715D6D2F38E4FEFD767655C2CC97053D184BCEE684F09 ====


[CUETools log; Date: 27.09.2018 11:26:31; Version: 2.1.4]
[CTDB TOCID: a_Bql6n1nx2zIUWfG4r_17zXo0k-] found.
Track | CTDB Status
1 | (69/70) Accurately ripped
2 | (69/70) Accurately ripped
3 | (69/70) Accurately ripped
4 | (68/70) Accurately ripped
5 | (68/70) Accurately ripped
6 | (69/70) Accurately ripped
7 | (69/70) Accurately ripped
8 | (69/70) Accurately ripped
9 | (69/70) Accurately ripped
10 | (66/70) Accurately ripped
[AccurateRip ID: 00146a33-00aa8170-880e310a] disk not present in database.

Track Peak [ CRC32 ] [W/O NULL] [ LOG ]
– 98,8 [965CEB8D] [9DD3D41D] CRC32
01 98,8 [E711215D] [32924BE7]
02 98,8 [794152DE] [291D508D]
03 98,8 [0C81F847] [ECF2F2F6]
04 98,8 [C96D664A] [B1914CCF]
05 98,8 [672AC605] [8981B44C]
06 98,8 [C37DAD05] [F12EAFCE]
07 98,8 [5288CE57] [E50003B6]
08 98,8 [5646F73B] [04E2BD9D]
09 98,8 [0C23275B] [38E17E04]
10 98,8 [2CE76960] [E7491C10]


Led Zeppelin - The Song Remains The Same (1976) [Super Deluxe Box Set & Blu-ray Audio] Re-up

Tracklist CD2:

01 Dazed And Confused
02 Stairway To Heaven
03 Moby Dick
04 Heartbreaker
05 Whole Lotta Love

Exact Audio Copy V1.3 from 2. September 2016

EAC extraction logfile from 22. September 2018, 11:05

Led Zeppelin / The Song Remains The Same CD2

Used drive : PLEXTOR BD-R PX-B950SA Adapter: 1 ID: 1

Read mode : Secure
Utilize accurate stream : Yes
Defeat audio cache : Yes
Make use of C2 pointers : No

Read offset correction : 6
Overread into Lead-In and Lead-Out : No
Fill up missing offset samples with silence : Yes
Delete leading and trailing silent blocks : No
Null samples used in CRC calculations : Yes
Used interface : Native Win32 interface for Win NT & 2000

Used output format : Internal WAV Routines
Sample format : 44.100 Hz; 16 Bit; Stereo


TOC of the extracted CD

Track | Start | Length | Start sector | End sector
––––––––––––––––––––––––––––-
1 | 0:00.00 | 29:18.23 | 0 | 131872
2 | 29:18.23 | 10:53.02 | 131873 | 180849
3 | 40:11.25 | 11:02.10 | 180850 | 230509
4 | 51:13.35 | 6:19.70 | 230510 | 259004
5 | 57:33.30 | 13:52.02 | 259005 | 321406


Range status and errors

Selected range

Filename C:\Users\Alex\Desktop\ALLexxess\Led Zeppelin\1976 Song Remains The Same (9-Disc Box Set Atlantic Records 2018)\CD2\Led Zeppelin - The Song Remains The Same CD2.wav

Peak level 98.8 %
Extraction speed 3.5 X
Range quality 99.9 %
Test CRC 55017ED8
Copy CRC 55017ED8
Copy OK

No errors occurred


AccurateRip summary

Track 1 not present in database
Track 2 not present in database
Track 3 not present in database
Track 4 not present in database
Track 5 not present in database

None of the tracks are present in the AccurateRip database

End of status report

–– CUETools DB Plugin V2.1.6

[CTDB TOCID: JHoWZ33B1d7KCt0aXPL.zt4tXRU-] found
Submit result: JHoWZ33B1d7KCt0aXPL.zt4tXRU- has been confirmed
Track | CTDB Status
1 | (59/60) Accurately ripped
2 | (59/60) Accurately ripped
3 | (59/60) Accurately ripped
4 | (59/60) Accurately ripped
5 | (57/60) Accurately ripped


==== Log checksum 0E47F274EA5CDB47ADE4AC2613B474309B6C80F2ABEBDA113A3C449FEFE3E5E6 ====


[CUETools log; Date: 27.09.2018 11:27:36; Version: 2.1.4]
[CTDB TOCID: JHoWZ33B1d7KCt0aXPL.zt4tXRU-] found.
Track | CTDB Status
1 | (63/64) Accurately ripped
2 | (63/64) Accurately ripped
3 | (63/64) Accurately ripped
4 | (63/64) Accurately ripped
5 | (61/64) Accurately ripped
[AccurateRip ID: 0011253d-004b8efc-3a10bd05] disk not present in database.

Track Peak [ CRC32 ] [W/O NULL] [ LOG ]
– 98,8 [55017ED8] [1AD79C0A] CRC32
01 98,8 [54262DBA] [D438D48D]
02 98,8 [FFB19914] [6CD09851]
03 98,8 [D342D1B5] [4031F37E]
04 98,8 [066143BB] [D546246E]
05 98,8 [4F8867AA] [28E9B226]


Led Zeppelin - The Song Remains The Same (1976) [Super Deluxe Box Set & Blu-ray Audio] Re-up

Tracklist DVD1:

PCM Stereo (96 kHz/24-bit)
Dolby Digital 6-Channel Surroun Sound
01 Rock And Roll
02 Celebration Day
03 Black Dog
04 Over The Hills And Far Away
05 Misty Mountain Hop
06 Since I've Been Loving You
07 No Quarter
08 The Song Remains The Same
09 The Rain Song
10 The Ocean
11 Dazed And Confused
12 Stairway To Heaven
13 Moby Dick
14 Heartbreaker
15 Whole Lotta Love

Title: Led Zeppelin 1976 - The Song Remains The Same - DVD1
Size: 4.97 Gb ( 5 206 876,00 KBytes ) - DVD-9
Enabled regions: 1, 2, 3, 4, 5, 6, 7, 8

VTS_01 :
Play Length: 02:11:46+00:00:00
Video: NTSC 16:9 (720x480) VBR, Auto Pan&Scan, Auto Letterboxed
Audio:
Not specified (Dolby AC3, 6 ch)
Not specified (LinearPCM, 2 ch)


Led Zeppelin - The Song Remains The Same (1976) [Super Deluxe Box Set & Blu-ray Audio] Re-up

Tracklist DVD2:

The Original Film: The Song Remains The Same

Title: Led Zeppelin 1976 - The Song Remains The Same - DVD2
Size: 7.04 Gb ( 7 386 292,00 KBytes ) - DVD-9
Enabled regions: 1, 2, 3, 4, 5, 6, 7, 8

VTS_01 :
Play Length: 02:17:41
Video: PAL 16:9 (720x576) VBR, Auto Letterboxed
Audio:
English (LinearPCM, 2 ch)
English (Dolby AC3, 6 ch)
English (DTS, 6 ch)
Subtitles:
Dansk
English
English
Suomi
Francais
Deutsch
Deutsch
Greek
Islenska
Italiano
Norsk
Polish
Portugues
Espanol
Svenska

VTS_02 :
Play Length: 00:01:55
Video: PAL 16:9 (720x576) VBR, Auto Letterboxed
Audio:
English (Dolby AC3, 2 ch)

Led Zeppelin - The Song Remains The Same (1976) [Super Deluxe Box Set & Blu-ray Audio] Re-up

Tracklist DVD3:

• Performances: Celebration Day (Cutting Copy)
• Performances: Over The Hills And Far Away
• Performances: Misty Mountain Hop
• Performances: The Ocean
• Vintage Footage: Led Zeppelin Robbed During '73 Concerts
• Vintage Footage: Robert Plant BBC Interview
• Vintage Footage: 1973 Tampa News Report
• Vintage Footage: Original Film Trailer

Title: Led Zeppelin 1976 - The Song Remains The Same - DVD3
Size: 2.38 Gb ( 2 495 808,00 KBytes ) - DVD-5
Enabled regions: 1, 2, 3, 4, 5, 6, 7, 8

VTS_01 :
Play Length: 00:03:26+00:00:59
Video: PAL 16:9 (720x576) VBR, Auto Letterboxed
Audio:
English (LinearPCM, 2 ch)
Subtitles:
Dansk
English
English
Suomi
Francais
Deutsch
Deutsch
Greek
Islenska
Italiano
Norsk
Polish
Portugues
Espanol
Svenska

VTS_02 :
Play Length: 00:06:19+00:03:40+00:04:51+00:04:42
Video: PAL 16:9 (720x576) VBR, Auto Letterboxed
Audio:
English (LinearPCM, 2 ch)
English (Dolby AC3, 6 ch)
English (DTS, 6 ch)
Subtitles:
Dansk
English
English
Suomi
Francais
Deutsch
Deutsch
Greek
Islenska
Italiano
Norsk
Polish
Portugues
Espanol
Svenska

VTS_03 :
Play Length: 00:08:21+00:05:03
Video: PAL 4:3 (720x576) VBR
Audio:
English (LinearPCM, 2 ch)
Subtitles:
Dansk
English
English
Suomi
Francais
Deutsch
Deutsch
Greek
Islenska
Italiano
Norsk
Polish
Portugues
Espanol
Svenska

VTS_04 :
Play Length: 00:03:08
Video: PAL 16:9 (720x576) VBR, Auto Letterboxed
Audio:
English (Dolby AC3, 2 ch)


Led Zeppelin - The Song Remains The Same (1976) [Super Deluxe Box Set & Blu-ray Audio] Re-up

Tracklist Blu-ray:

96kHz/24 bit 5.1 (DTS-HD Master Audio Surround) and
Stereo Mixes (PCM Stereo & DTS-HD Master Audio Stereo)
01 Rock And Roll
02 Celebration Day
03 Black Dog
04 Over The Hills And Far Away
05 Misty Mountain Hop
06 Since I've Been Loving You
07 No Quarter
08 The Song Remains The Same
09 The Rain Song
10 The Ocean
11 Dazed And Confused
12 Stairway To Heaven
13 Moby Dick
14 Heartbreaker
15 Whole Lotta Love

Disc Title: THE SONG REMAINS THE SAME
Disc Size: 28 129 905 192 bytes
Protection: AACS
BD-Java: No
BDInfo: 0.7.3.3

Notes:

BDINFO HOME:
Cinema Squid
http://www.cinemasquid.com/blu-ray/tools/bdinfo

INCLUDES FORUMS REPORT FOR:
AVS Forum Blu-ray Audio and Video Specifications Thread
http://www.avsforum.com/avs-vb/showthread.php?t=1155731

WARNING: Report is incomplete because: Scan has not been run.

********************
PLAYLIST: 00000.MPLS
********************

<–- BEGIN FORUMS PASTE –->
                                                                                                                Total   Video                                             
Title                                                           Codec   Length  Movie Size      Disc Size       Bitrate Bitrate Main Audio Track                          Secondary Audio Track
-----                                                           ------  ------- --------------  --------------  ------- ------- ------------------                        ---------------------
00000.MPLS                                                      AVC     2:11:54 0               28 129 905 192  0,00    0,00    DTS-HD Master 5.1 (96kHz/24-bit)          DTS-HD Master 2.0 (96kHz/24-bit)


DISC INFO:

Disc Title:     THE SONG REMAINS THE SAME
Disc Size:      28 129 905 192 bytes
Protection:     AACS
BD-Java:        No
BDInfo:         0.7.3.3

PLAYLIST REPORT:

Name:                   00000.MPLS
Length:                 2:11:54.281 (h:m:s.ms)
Size:                   0 bytes
Total Bitrate:          0,00 Mbps

VIDEO:

Codec                   Bitrate             Description     
-----                   -------             -----------     
MPEG-4 AVC Video        0 kbps              1080p / 23,976 fps / 16:9 / High Profile 4.1

AUDIO:

Codec                           Language        Bitrate         Description     
-----                           --------        -------         -----------     
DTS-HD Master Audio             English         0 kbps          5.1 / 96 kHz / 24-bit (DTS Core: 5.1 / 48 kHz / 1509 kbps / 24-bit)
DTS-HD Master Audio             English         0 kbps          2.0 / 96 kHz / 24-bit (DTS Core: 2.0 / 48 kHz / 1509 kbps / 24-bit)
LPCM Audio                      English         4608 kbps       2.0 / 96 kHz / 4608 kbps / 24-bit

FILES:

Name            Time In         Length          Size            Total Bitrate   
----            -------         ------          ----            -------------   
00000.M2TS      0:00:00.000     2:11:54.281     0               0               

CHAPTERS:

Number          Time In         Length          Avg Video Rate  Max 1-Sec Rate  Max 1-Sec Time  Max 5-Sec Rate  Max 5-Sec Time  Max 10Sec Rate  Max 10Sec Time  Avg Frame Size  Max Frame Size  Max Frame Time  
------          -------         ------          --------------  --------------  --------------  --------------  --------------  --------------  --------------  --------------  --------------  --------------  
1               0:00:00.000     0:03:57.362     0 kbps          0 kbps          00:00:00.000    0 kbps          00:00:00.000    0 kbps          00:00:00.000    0 bytes         0 bytes         00:00:00.000    
2               0:03:57.362     0:03:37.550     0 kbps          0 kbps          00:00:00.000    0 kbps          00:00:00.000    0 kbps          00:00:00.000    0 bytes         0 bytes         00:00:00.000    
3               0:07:34.912     0:03:46.476     0 kbps          0 kbps          00:00:00.000    0 kbps          00:00:00.000    0 kbps          00:00:00.000    0 bytes         0 bytes         00:00:00.000    
4               0:11:21.389     0:06:10.953     0 kbps          0 kbps          00:00:00.000    0 kbps          00:00:00.000    0 kbps          00:00:00.000    0 bytes         0 bytes         00:00:00.000    
5               0:17:32.342     0:04:43.116     0 kbps          0 kbps          00:00:00.000    0 kbps          00:00:00.000    0 kbps          00:00:00.000    0 bytes         0 bytes         00:00:00.000    
6               0:22:15.459     0:08:24.003     0 kbps          0 kbps          00:00:00.000    0 kbps          00:00:00.000    0 kbps          00:00:00.000    0 bytes         0 bytes         00:00:00.000    
7               0:30:39.462     0:10:38.387     0 kbps          0 kbps          00:00:00.000    0 kbps          00:00:00.000    0 kbps          00:00:00.000    0 bytes         0 bytes         00:00:00.000    
8               0:41:17.850     0:05:39.547     0 kbps          0 kbps          00:00:00.000    0 kbps          00:00:00.000    0 kbps          00:00:00.000    0 bytes         0 bytes         00:00:00.000    
9               0:46:57.397     0:08:20.458     0 kbps          0 kbps          00:00:00.000    0 kbps          00:00:00.000    0 kbps          00:00:00.000    0 bytes         0 bytes         00:00:00.000    
10              0:55:17.856     0:05:14.063     0 kbps          0 kbps          00:00:00.000    0 kbps          00:00:00.000    0 kbps          00:00:00.000    0 bytes         0 bytes         00:00:00.000    
11              1:00:31.919     0:29:17.672     0 kbps          0 kbps          00:00:00.000    0 kbps          00:00:00.000    0 kbps          00:00:00.000    0 bytes         0 bytes         00:00:00.000    
12              1:29:49.592     0:10:52.777     0 kbps          0 kbps          00:00:00.000    0 kbps          00:00:00.000    0 kbps          00:00:00.000    0 bytes         0 bytes         00:00:00.000    
13              1:40:42.369     0:11:02.078     0 kbps          0 kbps          00:00:00.000    0 kbps          00:00:00.000    0 kbps          00:00:00.000    0 bytes         0 bytes         00:00:00.000    
14              1:51:44.447     0:06:20.296     0 kbps          0 kbps          00:00:00.000    0 kbps          00:00:00.000    0 kbps          00:00:00.000    0 bytes         0 bytes         00:00:00.000    
15              1:58:04.744     0:13:49.537     0 kbps          0 kbps          00:00:00.000    0 kbps          00:00:00.000    0 kbps          00:00:00.000    0 bytes         0 bytes         00:00:00.000    

STREAM DIAGNOSTICS:

File            PID             Type            Codec           Language                Seconds                 Bitrate                 Bytes           Packets         
----            ---             ----            -----           --------                --------------          --------------          -------------   -----           
00000.M2TS      4113 (0x1011)   0x1B            AVC                                     0,042                   0                       0               0               
00000.M2TS      4352 (0x1100)   0x86            DTS-HD MA       eng (English)           0,042                   0                       0        			  		  		  	 			   		  	   		   	  		 		   	 			   		  	   			     	 			   		  	   		 	 	  		    			        0               
00000.M2TS      4353 (0x1101)   0x86            DTS-HD MA       eng (English)           0,042                   0                       0               0               
00000.M2TS      4354 (0x1102)   0x80            LPCM            eng (English)           0,042                   0                       0               0               

<–– END FORUMS PASTE ––>

QUICK SUMMARY:

Disc Title: THE SONG REMAINS THE SAME
Disc Size: 28 129 905 192 bytes
Protection: AACS
BD-Java: No
Playlist: 00000.MPLS
Size: 0 bytes
Length: 2:11:54.281
Total Bitrate: 0,00 Mbps
Video: MPEG-4 AVC Video / 0 kbps / 1080p / 23,976 fps / 16:9 / High Profile 4.1
Audio: English / DTS-HD Master Audio / 5.1 / 96 kHz / 24-bit (DTS Core: 5.1 / 48 kHz / 1509 kbps / 24-bit)
Audio: English / DTS-HD Master Audio / 2.0 / 96 kHz / 24-bit (DTS Core: 2.0 / 48 kHz / 1509 kbps / 24-bit)
Audio: English / LPCM Audio / 2.0 / 96 kHz / 4608 kbps / 24-bit


********************
PLAYLIST: 00002.MPLS
********************

<–- BEGIN FORUMS PASTE –->
                                                                                                                Total   Video                                             
Title                                                           Codec   Length  Movie Size      Disc Size       Bitrate Bitrate Main Audio Track                          Secondary Audio Track
-----                                                           ------  ------- --------------  --------------  ------- ------- ------------------                        ---------------------
00002.MPLS                                                      AVC     0:19:29 0               28 129 905 192  0,00    0,00    DTS-HD Master 5.1 (96kHz/24-bit)          DTS-HD Master 2.0 (96kHz/24-bit)


DISC INFO:

Disc Title:     THE SONG REMAINS THE SAME
Disc Size:      28 129 905 192 bytes
Protection:     AACS
BD-Java:        No
BDInfo:         0.7.3.3

PLAYLIST REPORT:

Name:                   00002.MPLS
Length:                 0:19:29.368 (h:m:s.ms)
Size:                   0 bytes
Total Bitrate:          0,00 Mbps

VIDEO:

Codec                   Bitrate             Description     
-----                   -------             -----------     
MPEG-4 AVC Video        0 kbps              1080i / 29,970 fps / 16:9 / High Profile 4.1

AUDIO:

Codec                           Language        Bitrate         Description     
-----                           --------        -------         -----------     
DTS-HD Master Audio             English         0 kbps          5.1 / 96 kHz / 24-bit (DTS Core: 5.1 / 48 kHz / 1509 kbps / 24-bit)
DTS-HD Master Audio             English         0 kbps          2.0 / 96 kHz / 24-bit (DTS Core: 2.0 / 48 kHz / 1509 kbps / 24-bit)
LPCM Audio                      English         4608 kbps       2.0 / 96 kHz / 4608 kbps / 24-bit

FILES:

Name            Time In         Length          Size            Total Bitrate   
----            -------         ------          ----            -------------   
00004.M2TS      0:00:00.000     0:03:41.221     0               0               
00005.M2TS      0:03:41.221     0:06:14.574     0               0               
00006.M2TS      0:09:55.795     0:04:51.291     0               0               
00007.M2TS      0:14:47.086     0:04:42.282     0               0               

CHAPTERS:

Number          Time In         Length          Avg Video Rate  Max 1-Sec Rate  Max 1-Sec Time  Max 5-Sec Rate  Max 5-Sec Time  Max 10Sec Rate  Max 10Sec Time  Avg Frame Size  Max Frame Size  Max Frame Time  
------          -------         ------          --------------  --------------  --------------  --------------  --------------  --------------  --------------  --------------  --------------  --------------  
1               0:00:00.000     0:03:41.221     0 kbps          0 kbps          00:00:00.000    0 kbps          00:00:00.000    0 kbps          00:00:00.000    0 bytes         0 bytes         00:00:00.000    
2               0:03:41.221     0:06:14.574     0 kbps          0 kbps          00:00:00.000    0 kbps          00:00:00.000    0 kbps          00:00:00.000    0 bytes         0 bytes         00:00:00.000    
3               0:09:55.795     0:04:51.291     0 kbps          0 kbps          00:00:00.000    0 kbps          00:00:00.000    0 kbps          00:00:00.000    0 bytes         0 bytes         00:00:00.000    
4               0:14:47.086     0:04:42.282     0 kbps          0 kbps          00:00:00.000    0 kbps          00:00:00.000    0 kbps          00:00:00.000    0 bytes         0 bytes         00:00:00.000    

STREAM DIAGNOSTICS:

File            PID             Type            Codec           Language                Seconds                 Bitrate                 Bytes           Packets         
----            ---             ----            -----           --------                --------------          --------------          -------------   -----           
00004.M2TS      4113 (0x1011)   0x1B            AVC                                     0,033                   0                       0               0               
00004.M2TS      4352 (0x1100)   0x86            DTS-HD MA       eng (English)           0,033                   0                       0               0               
00004.M2TS      4353 (0x1101)   0x86            DTS-HD MA       eng (English)           0,033                   0                       0               0               
00004.M2TS      4354 (0x1102)   0x80            LPCM            eng (English)           0,033                   0                       0               0               
00005.M2TS      4113 (0x1011)   0x1B            AVC                                     0,033                   0                       0               0               
00005.M2TS      4352 (0x1100)   0x86            DTS-HD MA       eng (English)           0,033                   0                       0               0               
00005.M2TS      4353 (0x1101)   0x86            DTS-HD MA       eng (English)           0,033                   0                       0               0               
00005.M2TS      4354 (0x1102)   0x80            LPCM            eng (English)           0,033                   0                       0               0               
00006.M2TS      4113 (0x1011)   0x1B            AVC                                     0,033                   0                       0               0               
00006.M2TS      4352 (0x1100)   0x86            DTS-HD MA       eng (English)           0,033                   0                       0               0               
00006.M2TS      4353 (0x1101)   0x86            DTS-HD MA       eng (English)           0,033                   0                       0               0               
00006.M2TS      4354 (0x1102)   0x80            LPCM            eng (English)           0,033                   0                       0               0               
00007.M2TS      4113 (0x1011)   0x1B            AVC                                     0,033                   0                       0               0               
00007.M2TS      4352 (0x1100)   0x86            DTS-HD MA       eng (English)           0,033                   0                       0               0               
00007.M2TS      4353 (0x1101)   0x86            DTS-HD MA       eng (English)           0,033                   0                       0               0               
00007.M2TS      4354 (0x1102)   0x80            LPCM            eng (English)           0,033                   0                       0               0               

<–– END FORUMS PASTE ––>

QUICK SUMMARY:

Disc Title: THE SONG REMAINS THE SAME
Disc Size: 28 129 905 192 bytes
Protection: AACS
BD-Java: No
Playlist: 00002.MPLS
Size: 0 bytes
Length: 0:19:29.368
Total Bitrate: 0,00 Mbps
Video: MPEG-4 AVC Video / 0 kbps / 1080i / 29,970 fps / 16:9 / High Profile 4.1
Audio: English / DTS-HD Master Audio / 5.1 / 96 kHz / 24-bit (DTS Core: 5.1 / 48 kHz / 1509 kbps / 24-bit)
Audio: English / DTS-HD Master Audio / 2.0 / 96 kHz / 24-bit (DTS Core: 2.0 / 48 kHz / 1509 kbps / 24-bit)
Audio: English / LPCM Audio / 2.0 / 96 kHz / 4608 kbps / 24-bit




All thanks go to ALLexxess

Led Zeppelin in my Blog

Download Led Zeppelin - The Song Remains The Same (1976):