Subcategories

Matzumi - 3 Albums (2009-2011)

Posted By: gribovar
Matzumi - 3 Albums (2009-2011)

Matzumi - 3 Albums (2009-2011)
EAC Rip | FLAC (tracks+.cue+log) - 939 MB | MP3 CBR 320 kbps (LAME 3.93) - 406 MB | Covers - 189 MB
Genre: Electronic, New Age, Berlin School, Ambient | RAR 3% Rec. | Label: CandyRush-Music

Matzumi (Kathrin Manz): this is monumental symphonic-electronic music, accompanied by her unmistakable singing voice.
Sometimes (2009). Electronica full of emotions, feelings set to music, never leaving you impassive but taking you on an intriguing journey across a sometimes unexplored, sometimes strangely familiar region - Matzumi attracts, captures, enchants, touches. Is 'Sometimes' a concept album? By any means, each track bares a motive, an individual experience, a stage in the artist's life, granting deep insights into a fragile but nevertheless stable construct of feelings - self-contained and keeping in touch with the more profane areas of life. 'Sometimes' is Matzumi, Matzumi is 'Sometimes'. Often compared to pioneers like Tangerine Dream, Klaus Schulze or even Jean Michel Jarre, Matzumi has found her very individual form of impression long ago. We're not afraid to call 'Sometimes' a tour de force…

In Mutatio Tempora (2011). This CD played by Matzumi comes with two tracks, where Nattefrost and F.D. Project join the music. The result is emotinal Berlin School based sequencer music with nice melodies and sometimes the voice of Matzumi, that goes right into the heart.

Matzumi - 3 Albums (2009-2011)

Matzumi - Sometimes (2009) [Reissue 2012]
EAC Rip | FLAC (tracks+.cue+log) - 325 MB | MP3 CBR 320 kbps (LAME 3.93) - 136 MB | Covers - 49 MB
Genre: Electronic, New Age, Berlin School, Ambient | RAR 3% Rec. | Label: CandyRush-Music

Tracklist:
01. Far Away
02. Life is a Journey
03. Discover the Love
04. The Voice of My Heart
05. Who We Are (Original Version)
06. Waiting for a Sign
07. Triton-Dreams
08. Echojam
09. Dancing Shadows
10. Death and Reincarnation
11. Faith and Devotion
12. Mirror of the Past
13. Why Does My Heart
14. Lonely in the Dark

Total time: 57:46

Exact Audio Copy V1.0 beta 3 from 29. August 2011

EAC extraction logfile from 23. October 2014, 20:47

Matzumi / Sometimes

Used drive : PIONEER DVD-RW DVR-215D Adapter: 5 ID: 0

Read mode : Secure
Utilize accurate stream : Yes
Defeat audio cache : Yes
Make use of C2 pointers : No

Read offset correction : 48
Overread into Lead-In and Lead-Out : No
Fill up missing offset samples with silence : Yes
Delete leading and trailing silent blocks : No
Null samples used in CRC calculations : Yes
Used interface : Installed external ASPI interface
Gap handling : Appended to previous track

Used output format : User Defined Encoder
Selected bitrate : 1024 kBit/s
Quality : High
Add ID3 tag : No
Command line compressor : ..\..\codecs\flac.exe
Additional command line options : -T "comment=Ripped by Synthrex for New-Team.org" -8 -V %source%


TOC of the extracted CD

Track | Start | Length | Start sector | End sector
––––––––––––––––––––––––––––-
1 | 0:00.00 | 3:45.64 | 0 | 16938
2 | 3:45.64 | 4:14.46 | 16939 | 36034
3 | 8:00.35 | 4:52.60 | 36035 | 57994
4 | 12:53.20 | 2:42.42 | 57995 | 70186
5 | 15:35.62 | 6:30.06 | 70187 | 99442
6 | 22:05.68 | 4:20.28 | 99443 | 118970
7 | 26:26.21 | 3:28.44 | 118971 | 134614
8 | 29:54.65 | 2:35.18 | 134615 | 146257
9 | 32:30.08 | 4:33.73 | 146258 | 166805
10 | 37:04.06 | 3:45.64 | 166806 | 183744
11 | 40:49.70 | 4:07.22 | 183745 | 202291
12 | 44:57.17 | 6:01.24 | 202292 | 229390
13 | 50:58.41 | 3:57.27 | 229391 | 247192
14 | 54:55.68 | 2:49.73 | 247193 | 259940


Track 1

Filename C:\Matzumi - (2010) - Sometimes\01.Far Away.wav

Pre-gap length 0:00:02.00

Peak level 63.3 %
Extraction speed 4.5 X
Track quality 100.0 %
Test CRC 8A846505
Copy CRC 8A846505
Accurately ripped (confidence 1) [1897379E] (AR v2)
Copy OK

Track 2

Filename C:\Matzumi - (2010) - Sometimes\02.Life is a Journey.wav

Pre-gap length 0:00:02.00

Peak level 63.3 %
Extraction speed 4.4 X
Track quality 99.9 %
Test CRC CA906B4F
Copy CRC CA906B4F
Accurately ripped (confidence 1) [E23181F6] (AR v2)
Copy OK

Track 3

Filename C:\Matzumi - (2010) - Sometimes\03.Discover the Love.wav

Peak level 63.3 %
Extraction speed 4.9 X
Track quality 99.9 %
Test CRC 92E5DD9B
Copy CRC 92E5DD9B
Accurately ripped (confidence 1) [C40D3D3C] (AR v2)
Copy OK

Track 4

Filename C:\Matzumi - (2010) - Sometimes\04.The Voice of My Heart.wav

Peak level 63.3 %
Extraction speed 5.3 X
Track quality 100.0 %
Test CRC 911B5BF8
Copy CRC 911B5BF8
Accurately ripped (confidence 1) [3B98300F] (AR v2)
Copy OK

Track 5

Filename C:\Matzumi - (2010) - Sometimes\05.Who We Are (Original Version).wav

Peak level 63.3 %
Extraction speed 5.8 X
Track quality 99.9 %
Test CRC 30B46A5C
Copy CRC 30B46A5C
Accurately ripped (confidence 1) [3383D32A] (AR v2)
Copy OK

Track 6

Filename C:\Matzumi - (2010) - Sometimes\06.Waiting for a Sign.wav

Peak level 63.3 %
Extraction speed 6.3 X
Track quality 100.0 %
Test CRC B468E92B
Copy CRC B468E92B
Accurately ripped (confidence 1) [B07B052D] (AR v2)
Copy OK

Track 7

Filename C:\Matzumi - (2010) - Sometimes\07.Triton-Dreams.wav

Peak level 63.3 %
Extraction speed 6.3 X
Track quality 100.0 %
Test CRC 466DD0E4
Copy CRC 466DD0E4
Accurately ripped (confidence 1) [A430454F] (AR v2)
Copy OK

Track 8

Filename C:\Matzumi - (2010) - Sometimes\08.Echojam.wav

Peak level 63.3 %
Extraction speed 6.0 X
Track quality 100.0 %
Test CRC A3FEA2DC
Copy CRC A3FEA2DC
Accurately ripped (confidence 1) [2F23E8BB] (AR v2)
Copy OK

Track 9

Filename C:\Matzumi - (2010) - Sometimes\09.Dancing Shadows.wav

Peak level 63.3 %
Extraction speed 7.0 X
Track quality 100.0 %
Test CRC F0845F6E
Copy CRC F0845F6E
Accurately ripped (confidence 1) [CBC2457A] (AR v2)
Copy OK

Track 10

Filename C:\Matzumi - (2010) - Sometimes\10.Death and Reincarnation.wav

Peak level 63.3 %
Extraction speed 7.0 X
Track quality 100.0 %
Test CRC 6D9E8F2B
Copy CRC 6D9E8F2B
Accurately ripped (confidence 1) [63ADE128] (AR v2)
Copy OK

Track 11

Filename C:\Matzumi - (2010) - Sometimes\11.Faith and Devotion.wav

Peak level 63.3 %
Extraction speed 6.3 X
Track quality 99.9 %
Test CRC AE50F275
Copy CRC AE50F275
Accurately ripped (confidence 1) [1FFA7FCD] (AR v2)
Copy OK

Track 12

Filename C:\Matzumi - (2010) - Sometimes\12.Mirror of the Past.wav

Peak level 62.7 %
Extraction speed 7.6 X
Track quality 100.0 %
Test CRC 81BA69C6
Copy CRC 81BA69C6
Accurately ripped (confidence 1) [81CB4E42] (AR v2)
Copy OK

Track 13

Filename C:\\Matzumi - (2010) - Sometimes\13.Why Does My Heart.wav

Peak level 63.3 %
Extraction speed 6.5 X
Track quality 99.9 %
Test CRC F139A9E2
Copy CRC F139A9E2
Accurately ripped (confidence 1) [BD1BF5C3] (AR v2)
Copy OK

Track 14

Filename C:\Matzumi - (2010) - Sometimes\14.Lonely in the Dark.wav

Peak level 63.3 %
Extraction speed 6.2 X
Track quality 99.9 %
Test CRC 91285B21
Copy CRC 91285B21
Accurately ripped (confidence 1) [E88E26E7] (AR v2)
Copy OK


All tracks accurately ripped

No errors occurred

End of status report

–– CUETools DB Plugin V2.1.3

[CTDB TOCID: GJA9Qh1IpBSMHnK5L0yVhZ1McmE-] found, Submit result: GJA9Qh1IpBSMHnK5L0yVhZ1McmE- has been confirmed
[45f6ea7e] (1/1) Accurately ripped


==== Log checksum 4E5786ADC5A4A7DE6893F1D9B21DB61DA10A135B2700CFA5F6E0A8E36B95A651 ====

[CUETools log; Date: 18.10.2020 2:08:28; Version: 2.1.4]
[CTDB TOCID: GJA9Qh1IpBSMHnK5L0yVhZ1McmE-] found.
Track | CTDB Status
1 | (2/2) Accurately ripped
2 | (2/2) Accurately ripped
3 | (2/2) Accurately ripped
4 | (2/2) Accurately ripped
5 | (2/2) Accurately ripped
6 | (2/2) Accurately ripped
7 | (2/2) Accurately ripped
8 | (2/2) Accurately ripped
9 | (2/2) Accurately ripped
10 | (2/2) Accurately ripped
11 | (2/2) Accurately ripped
12 | (2/2) Accurately ripped
13 | (2/2) Accurately ripped
14 | (2/2) Accurately ripped
[AccurateRip ID: 001e0e93-014087af-dc0d890e] found.
Track [ CRC | V2 ] Status
01 [5f543ce6|1897379e] (1+0/1) Accurately ripped
02 [5a07fde1|e23181f6] (1+0/1) Accurately ripped
03 [8e58b2b2|c40d3d3c] (1+0/1) Accurately ripped
04 [bd7b273d|3b98300f] (1+0/1) Accurately ripped
05 [adbd49e9|3383d32a] (1+0/1) Accurately ripped
06 [91e4dd77|b07b052d] (1+0/1) Accurately ripped
07 [ae5d4916|a430454f] (1+0/1) Accurately ripped
08 [ee8ab512|2f23e8bb] (1+0/1) Accurately ripped
09 [bec1bcc4|cbc2457a] (1+0/1) Accurately ripped
10 [3adcf198|63ade128] (1+0/1) Accurately ripped
11 [13787b1b|1ffa7fcd] (1+0/1) Accurately ripped
12 [521386f2|81cb4e42] (1+0/1) Accurately ripped
13 [e536bfba|bd1bf5c3] (1+0/1) Accurately ripped
14 [f0d81c5b|e88e26e7] (1+0/1) Accurately ripped

Track Peak [ CRC32 ] [W/O NULL] [ LOG ]
– 63,3 [64A76659] [CE5CE6DB]
01 63,3 [8A846505] [51DF3598] CRC32
02 63,3 [CA906B4F] [87C7F9A3] CRC32
03 63,3 [92E5DD9B] [899C343C] CRC32
04 63,3 [911B5BF8] [C776A905] CRC32
05 63,3 [30B46A5C] [0B7F5304] CRC32
06 63,3 [B468E92B] [53AB59FB] CRC32
07 63,3 [466DD0E4] [6EF498CA] CRC32
08 63,3 [A3FEA2DC] [F3447FCB] CRC32
09 63,3 [F0845F6E] [80172741] CRC32
10 63,3 [6D9E8F2B] [2ACCFE26] CRC32
11 63,3 [AE50F275] [AD43319A] CRC32
12 62,7 [81BA69C6] [449EE6C7] CRC32
13 63,3 [F139A9E2] [1E197442] CRC32
14 63,3 [91285B21] [27206B91] CRC32

Matzumi - 3 Albums (2009-2011)

Matzumi - Ad Infinitum (2010) [Reissue 2012]
EAC Rip | FLAC (tracks+.cue+log) - 255 MB | MP3 CBR 320 kbps (LAME 3.93) - 120 MB | Covers - 54 MB
Genre: Electronic, New Age, Ambient | RAR 3% Rec. | Label: CandyRush-Music

Tracklist:
01. The Lonely Path - Prologue
02. The Sense of Life
03. We are One
04. Dreamtraveller
05. Epilogue
06. The Lonely Path (Live, Bonus track)
07. The Migration (Live, Bonus track)
08. Epilogue (Live, Bonus track)

Total time: 51:14

Exact Audio Copy V1.0 beta 3 from 29. August 2011

EAC extraction logfile from 23. October 2014, 21:15

Matzumi / Ad Infinitum

Used drive : PIONEER DVD-RW DVR-215D Adapter: 5 ID: 0

Read mode : Secure
Utilize accurate stream : Yes
Defeat audio cache : Yes
Make use of C2 pointers : No

Read offset correction : 48
Overread into Lead-In and Lead-Out : No
Fill up missing offset samples with silence : Yes
Delete leading and trailing silent blocks : No
Null samples used in CRC calculations : Yes
Used interface : Installed external ASPI interface
Gap handling : Appended to previous track

Used output format : User Defined Encoder
Selected bitrate : 1024 kBit/s
Quality : High
Add ID3 tag : No
Command line compressor : ..\..\codecs\flac.exe
Additional command line options : -T "comment=Ripped by Synthrex for New-Team.org" -8 -V %source%


TOC of the extracted CD

Track | Start | Length | Start sector | End sector
––––––––––––––––––––––––––––-
1 | 0:00.00 | 2:37.30 | 0 | 11804
2 | 2:37.30 | 7:37.08 | 11805 | 46087
3 | 10:14.38 | 5:25.65 | 46088 | 70527
4 | 15:40.28 | 7:54.54 | 70528 | 106131
5 | 23:35.07 | 9:55.30 | 106132 | 150786
6 | 33:30.37 | 2:23.24 | 150787 | 161535
7 | 35:53.61 | 5:10.58 | 161536 | 184843
8 | 41:04.44 | 10:09.25 | 184844 | 230543


Track 1

Filename C:\Matzumi - (2010) - Ad Infinitum\01.The Lonely Path - Prologue.wav

Pre-gap length 0:00:02.00

Peak level 98.1 %
Extraction speed 4.2 X
Track quality 100.0 %
Test CRC E6B25814
Copy CRC E6B25814
Accurately ripped (confidence 1) [E91C8B8A] (AR v1)
Copy OK

Track 2

Filename C:\Matzumi - (2010) - Ad Infinitum\02.The Sense of Life.wav

Peak level 100.0 %
Extraction speed 5.4 X
Track quality 100.0 %
Test CRC CA69716A
Copy CRC CA69716A
Accurately ripped (confidence 1) [06015B71] (AR v1)
Copy OK

Track 3

Filename C:\Matzumi - (2010) - Ad Infinitum\03.We are One.wav

Peak level 99.7 %
Extraction speed 5.8 X
Track quality 100.0 %
Test CRC 28CA25BC
Copy CRC 28CA25BC
Accurately ripped (confidence 1) [89285685] (AR v1)
Copy OK

Track 4

Filename C:\Matzumi - (2010) - Ad Infinitum\04.Dreamtraveller.wav

Peak level 100.0 %
Extraction speed 6.0 X
Track quality 99.9 %
Test CRC D728784A
Copy CRC D728784A
Accurately ripped (confidence 1) [2EED6596] (AR v1)
Copy OK

Track 5

Filename C:\Matzumi - (2010) - Ad Infinitum\05.Epilogue.wav

Peak level 100.0 %
Extraction speed 7.1 X
Track quality 100.0 %
Test CRC 3F96EEF5
Copy CRC 3F96EEF5
Accurately ripped (confidence 1) [9D8AC2C9] (AR v1)
Copy OK

Track 6

Filename C:\Matzumi - (2010) - Ad Infinitum\06.The Lonely Path-Live.wav

Peak level 63.3 %
Extraction speed 6.3 X
Track quality 100.0 %
Test CRC DA86FBCF
Copy CRC DA86FBCF
Accurately ripped (confidence 1) [05B41D4D] (AR v1)
Copy OK

Track 7

Filename C:\Matzumi - (2010) - Ad Infinitum\07.The Migration-Live.wav

Peak level 63.0 %
Extraction speed 6.6 X
Track quality 99.9 %
Test CRC 19283E94
Copy CRC 19283E94
Accurately ripped (confidence 1) [4F89D6DB] (AR v1)
Copy OK

Track 8

Filename C:\Matzumi - (2010) - Ad Infinitum\08.Epilogue-Live.wav

Peak level 62.7 %
Extraction speed 8.3 X
Track quality 100.0 %
Test CRC 1AE6B1E5
Copy CRC 1AE6B1E5
Accurately ripped (confidence 1) [BAC96F35] (AR v1)
Copy OK


All tracks accurately ripped

No errors occurred

End of status report

–– CUETools DB Plugin V2.1.3

[CTDB TOCID: aFN62fa8VnvoBaUUXa4AUIc6e1s-] found, Submit result: aFN62fa8VnvoBaUUXa4AUIc6e1s- has been confirmed
[225550e5] (1/1) Accurately ripped


==== Log checksum 71C961DA706F1AF6999EE52BF8DD2C4D2AE9D83161924EA76C0A324244052B07 ====

[CUETools log; Date: 18.10.2020 2:07:03; Version: 2.1.4]
[CTDB TOCID: aFN62fa8VnvoBaUUXa4AUIc6e1s-] found.
Track | CTDB Status
1 | (3/3) Accurately ripped
2 | (3/3) Accurately ripped
3 | (3/3) Accurately ripped
4 | (3/3) Accurately ripped
5 | (3/3) Accurately ripped
6 | (3/3) Accurately ripped
7 | (3/3) Accurately ripped
8 | (3/3) Accurately ripped
[AccurateRip ID: 000eaed8-006427b9-5e0c0108] found.
Track [ CRC | V2 ] Status
01 [e91c8b8a|c6a3b2c4] (1+0/1) Accurately ripped
02 [06015b71|4a24177b] (1+0/1) Accurately ripped
03 [89285685|6fdcdb5f] (1+0/1) Accurately ripped
04 [2eed6596|33d31fc5] (1+0/1) Accurately ripped
05 [9d8ac2c9|5b9f4ebf] (1+0/1) Accurately ripped
06 [05b41d4d|9727d746] (1+0/1) Accurately ripped
07 [4f89d6db|c3476c31] (1+0/1) Accurately ripped
08 [bac96f35|4081dd03] (1+0/1) Accurately ripped

Track Peak [ CRC32 ] [W/O NULL] [ LOG ]
– 100,0 [F9D38248] [C581ED56]
01 98,1 [E6B25814] [B14C61C1] CRC32
02 100,0 [CA69716A] [DE734976] CRC32
03 99,7 [28CA25BC] [6D42CA00] CRC32
04 100,0 [D728784A] [12068D62] CRC32
05 100,0 [3F96EEF5] [322A5F2F] CRC32
06 63,3 [DA86FBCF] [E28F177A] CRC32
07 63,0 [19283E94] [09B2AD79] CRC32
08 62,7 [1AE6B1E5] [28BBD449] CRC32

Matzumi - 3 Albums (2009-2011)

Matzumi - In Mutatio Tempora (2011)
EAC Rip | FLAC (tracks+.cue+log) - 359 MB | MP3 CBR 320 kbps (LAME 3.93) - 150 MB | Covers - 86 MB
Genre: Electronic, Berlin School, New Age, Ambient | RAR 3% Rec. | Label: CandyRush-Music (Kat09092)

Tracklist:
01. A Long Journey
02. Step by Step
03. Heights and Depths
04. Die Kinder der Erde - Vocal Version
05. Who We Are - Instrumental Version
06. Chapters of Life
07. In Mutatio Tempora
08. Consolation and Oblivion
09. Never Alone
10. The Migration

Total time: 01:03:42

Exact Audio Copy V1.0 beta 3 from 29. August 2011

EAC extraction logfile from 23. October 2014, 22:04

Matzumi / In Mutatio Tempora

Used drive : PIONEER DVD-RW DVR-215D Adapter: 5 ID: 0

Read mode : Secure
Utilize accurate stream : Yes
Defeat audio cache : Yes
Make use of C2 pointers : No

Read offset correction : 48
Overread into Lead-In and Lead-Out : No
Fill up missing offset samples with silence : Yes
Delete leading and trailing silent blocks : No
Null samples used in CRC calculations : Yes
Used interface : Installed external ASPI interface
Gap handling : Appended to previous track

Used output format : User Defined Encoder
Selected bitrate : 1024 kBit/s
Quality : High
Add ID3 tag : No
Command line compressor : ..\..\codecs\flac.exe
Additional command line options : -T "comment=Ripped by Synthrex for New-Team.org" -8 -V %source%


TOC of the extracted CD

Track | Start | Length | Start sector | End sector
––––––––––––––––––––––––––––-
1 | 0:00.00 | 6:01.69 | 0 | 27143
2 | 6:01.69 | 5:16.12 | 27144 | 50855
3 | 11:18.06 | 7:27.69 | 50856 | 84449
4 | 18:46.00 | 5:02.65 | 84450 | 107164
5 | 23:48.65 | 6:04.27 | 107165 | 134491
6 | 29:53.17 | 6:54.16 | 134492 | 165557
7 | 36:47.33 | 4:59.12 | 165558 | 187994
8 | 41:46.45 | 8:14.12 | 187995 | 225056
9 | 50:00.57 | 8:27.06 | 225057 | 263087
10 | 58:27.63 | 5:14.26 | 263088 | 286663


Track 1

Filename C:\Matzumi - (2011) - In Mutatio Tempora\01.A Long Journey.wav

Pre-gap length 0:00:02.00

Peak level 68.2 %
Extraction speed 4.7 X
Track quality 100.0 %
Test CRC E7FF88F1
Copy CRC E7FF88F1
Accurately ripped (confidence 2) [00954272] (AR v2)
Copy OK

Track 2

Filename C:\Matzumi - (2011) - In Mutatio Tempora\02.Step by Step.wav

Pre-gap length 0:00:02.00

Peak level 72.7 %
Extraction speed 5.3 X
Track quality 100.0 %
Test CRC AF3D1A94
Copy CRC AF3D1A94
Accurately ripped (confidence 2) [1DC60E7E] (AR v2)
Copy OK

Track 3

Filename C:\Matzumi - (2011) - In Mutatio Tempora\03.Heights and Depths.wav

Pre-gap length 0:00:02.00

Peak level 70.5 %
Extraction speed 6.1 X
Track quality 100.0 %
Test CRC 366F0BDF
Copy CRC 366F0BDF
Accurately ripped (confidence 2) [02D14993] (AR v2)
Copy OK

Track 4

Filename C:\Matzumi - (2011) - In Mutatio Tempora\04.Die Kinder der Erde - Vocal Version.wav

Pre-gap length 0:00:02.00

Peak level 64.6 %
Extraction speed 6.4 X
Track quality 100.0 %
Test CRC 25A71904
Copy CRC 25A71904
Accurately ripped (confidence 1) [53C18344] (AR v2)
Copy OK

Track 5

Filename C:\Matzumi - (2011) - In Mutatio Tempora\05.Who We Are - Instrumental Version.wav

Pre-gap length 0:00:02.00

Peak level 100.0 %
Extraction speed 6.9 X
Track quality 100.0 %
Test CRC 1E0C8764
Copy CRC 1E0C8764
Accurately ripped (confidence 2) [E833BC12] (AR v2)
Copy OK

Track 6

Filename C:\Matzumi - (2011) - In Mutatio Tempora\06.Chapters of Life.wav

Pre-gap length 0:00:02.00

Peak level 58.5 %
Extraction speed 7.4 X
Track quality 100.0 %
Test CRC 2D9D6E80
Copy CRC 2D9D6E80
Accurately ripped (confidence 1) [69737256] (AR v2)
Copy OK

Track 7

Filename C:\Matzumi - (2011) - In Mutatio Tempora\07.In Mutatio Tempora.wav

Pre-gap length 0:00:02.00

Peak level 72.0 %
Extraction speed 6.8 X
Track quality 99.9 %
Test CRC 42D9045B
Copy CRC 42D9045B
Accurately ripped (confidence 2) [DB00BDF2] (AR v2)
Copy OK

Track 8

Filename C:\Matzumi - (2011) - In Mutatio Tempora\08.Consolation and Oblivion.wav

Pre-gap length 0:00:02.00

Peak level 72.8 %
Extraction speed 8.3 X
Track quality 100.0 %
Test CRC CDF0E708
Copy CRC CDF0E708
Accurately ripped (confidence 2) [864DCF1C] (AR v2)
Copy OK

Track 9

Filename C:\Matzumi - (2011) - In Mutatio Tempora\09.Never Alone.wav

Pre-gap length 0:00:02.00

Peak level 57.3 %
Extraction speed 8.8 X
Track quality 100.0 %
Test CRC E49C277E
Copy CRC E49C277E
Accurately ripped (confidence 2) [6B3B8F5F] (AR v2)
Copy OK

Track 10

Filename C:\Matzumi - (2011) - In Mutatio Tempora\10.The Migration.wav

Pre-gap length 0:00:02.00

Peak level 80.6 %
Extraction speed 8.8 X
Track quality 100.0 %
Test CRC 4B0ADBC8
Copy CRC 4B0ADBC8
Accurately ripped (confidence 2) [853CADD1] (AR v2)
Copy OK


All tracks accurately ripped

No errors occurred

End of status report

–– CUETools DB Plugin V2.1.3

[CTDB TOCID: KtNWJK.U5xmsB2h74H0ZhBe1gzM-] found, Submit result: KtNWJK.U5xmsB2h74H0ZhBe1gzM- has been confirmed
[afa23768] (1/1) Accurately ripped


==== Log checksum 10CB75E83890F68BBF90B8AD09EBE1989021F720F7C830EA52739320DD3487BE ====

[CUETools log; Date: 18.10.2020 2:09:44; Version: 2.1.4]
[CTDB TOCID: KtNWJK.U5xmsB2h74H0ZhBe1gzM-] found.
Track | CTDB Status
1 | (4/4) Accurately ripped
2 | (4/4) Accurately ripped
3 | (4/4) Accurately ripped
4 | (4/4) Accurately ripped
5 | (4/4) Accurately ripped
6 | (4/4) Accurately ripped
7 | (4/4) Accurately ripped
8 | (4/4) Accurately ripped
9 | (4/4) Accurately ripped
10 | (4/4) Accurately ripped
[AccurateRip ID: 00176235-00bc993d-780eee0a] found.
Track [ CRC | V2 ] Status
01 [56510114|00954272] (0+2/2) Accurately ripped
02 [4e69e508|1dc60e7e] (0+2/2) Accurately ripped
03 [df00f654|02d14993] (0+2/2) Accurately ripped
04 [ca9ca120|53c18344] (0+1/2) Accurately ripped
05 [126a8379|e833bc12] (0+2/2) Accurately ripped
06 [dc8d23e7|69737256] (0+1/2) Accurately ripped
07 [53262b88|db00bdf2] (0+2/2) Accurately ripped
08 [a0b93c75|864dcf1c] (0+2/2) Accurately ripped
09 [9f32e403|6b3b8f5f] (0+2/2) Accurately ripped
10 [2a5ff366|853cadd1] (0+2/2) Accurately ripped

Track Peak [ CRC32 ] [W/O NULL] [ LOG ]
– 100,0 [998FB183] [B6B0D2AE]
01 68,2 [E7FF88F1] [E137CBF7] CRC32
02 72,7 [AF3D1A94] [792F49FE] CRC32
03 70,5 [366F0BDF] [DA4DBBE0] CRC32
04 64,6 [25A71904] [A8F9DF96] CRC32
05 100,0 [1E0C8764] [E73B0475] CRC32
06 58,5 [2D9D6E80] [A26D0B30] CRC32
07 72,0 [42D9045B] [05AF0192] CRC32
08 72,8 [CDF0E708] [61A6A3CC] CRC32
09 57,3 [E49C277E] [59464226] CRC32
10 80,6 [4B0ADBC8] [B207F43F] CRC32

Thanks to Synthrex