Subcategories

Metallica ‎- ...And Justice For All (2018) [Deluxe Edition Box Set]

Posted By: v3122
Metallica ‎- ...And Justice For All (2018) [Deluxe Edition Box Set]

Metallica ‎- …And Justice For All (2018)
EAC | Flac(Image) + Cue + Log & MP3 CBR 320Kbps
11CD | Blackened Recordings, BLCKND007RD-1 | ~ 4895 or 2128 Mb | Artwork(jpg) -> 10.95 Gb
4xDVD9: NTSC 4:3 & 16:9 (720x480) VBR | Dolby AC3, 2 ch
4xLP: Vinyl Rip 24/96 & 16/44 | Flac(Image + Cue) > 3044 or 907 Mb
MP3 CBR 320Kbps > 394 Mb
Thrash Metal

…And Justice for All is the fourth studio album by American heavy metal band Metallica, released on August 25, 1988, through Elektra Records. It is the first Metallica studio album to feature bassist Jason Newsted after the death of Cliff Burton in 1986.

…And Justice for All was recorded in early 1988 at One on One Recording Studios in Los Angeles. It features long and complex songs, fast tempos, and few verse-chorus structures. It is infamous for its sterile production, which producer Flemming Rasmussen attributed to his absence during the mixing process. The lyrics feature themes of political and legal injustice seen through the prisms of censorship, war, and nuclear brinkmanship. The cover, designed by Stephen Gorman based on a concept by Metallica guitarist James Hetfield and drummer Lars Ulrich, depicts Lady Justice bound in ropes. The album title is derived from the American Pledge of Allegiance. Three songs from the album were released as singles: "Harvester of Sorrow", "Eye of the Beholder", and "One"; the title track was released as a promotional single.

…And Justice for All was acclaimed by music critics. It was included in The Village Voice's annual Pazz & Jop critics' poll of the year's best albums, and the single "One", which also marked the band's first music video, earned Metallica its first Grammy Award (and the first ever in the Best Metal Performance category) in 1990. The group's best-selling album at the time, it is the first underground metal album to achieve chart success in the United States, peaking at number six on the Billboard 200. The album was certified 8× platinum by the Recording Industry Association of America (RIAA) in 2003 for shipping eight million copies in the U.S., making it Metallica's second-best-selling album in the country. A remastering of the album was released on November 2, 2018 and reached number 37 and 42 on Billboard's Top Album Sales and Top Rock Albums charts respectively…

~ wiki
Metallica ‎- …And Justice For All (2018):

Metallica ‎- ...And Justice For All (2018) [Deluxe Edition Box Set]

Tracklist CD1 - 1988 - …And Justice For All:

01. Blackened (06:42)
02. …And Justice For All (09:46)
03. Eye Of The Beholder (06:26)
04. One (07:26)
05. The Shortest Straw (06:35)
06. Harvester of Sorrow (05:45)
07. The Frayed Ends of Sanity (07:43)
08. To Live is to Die (09:48)
09. Dyers Eve (05:13)

Exact Audio Copy V1.1 from 23. June 2015

EAC extraction logfile from 3. January 2019, 19:34

Metallica / …And Justice For All (BLCKND007RD-1) CD 1

Used drive : HL-DT-STBD-RE WH16NS40 Adapter: 5 ID: 0

Read mode : Secure
Utilize accurate stream : Yes
Defeat audio cache : Yes
Make use of C2 pointers : No

Read offset correction : 6
Overread into Lead-In and Lead-Out : No
Fill up missing offset samples with silence : Yes
Delete leading and trailing silent blocks : No
Null samples used in CRC calculations : Yes
Used interface : Installed external ASPI interface

Used output format : Internal WAV Routines
Sample format : 44.100 Hz; 16 Bit; Stereo


TOC of the extracted CD

Track | Start | Length | Start sector | End sector
––––––––––––––––––––––––––––-
1 | 0:00.00 | 6:42.10 | 0 | 30159
2 | 6:42.10 | 9:45.38 | 30160 | 74072
3 | 16:27.48 | 6:25.74 | 74073 | 103021
4 | 22:53.47 | 7:26.11 | 103022 | 136482
5 | 30:19.58 | 6:35.08 | 136483 | 166115
6 | 36:54.66 | 5:45.21 | 166116 | 192011
7 | 42:40.12 | 7:43.12 | 192012 | 226748
8 | 50:23.24 | 9:48.29 | 226749 | 270877
9 | 60:11.53 | 5:13.04 | 270878 | 294356


Range status and errors

Selected range

Filename Z:\data\hexonut\Seeding\Metallica\1988-…And Justice For All\2018-…And Justice For All [Blackened Records, US, BLCKND007RD-1, Deluxe]\And Justice For All (BLCKND007RD-1) CD 1.wav

Peak level 98.8 %
Extraction speed 7.6 X
Range quality 100.0 %
Test CRC DE094A41
Copy CRC DE094A41
Copy OK

No errors occurred


AccurateRip summary

Track 1 accurately ripped (confidence 43) [CF03B5A0] (AR v2)
Track 2 accurately ripped (confidence 43) [D275E2AB] (AR v2)
Track 3 accurately ripped (confidence 42) [024E17B7] (AR v2)
Track 4 accurately ripped (confidence 41) [C7FB45E7] (AR v2)
Track 5 accurately ripped (confidence 42) [70EBD32A] (AR v2)
Track 6 accurately ripped (confidence 42) [BA5904DF] (AR v2)
Track 7 accurately ripped (confidence 42) [1399C1DB] (AR v2)
Track 8 accurately ripped (confidence 42) [8168FAFB] (AR v2)
Track 9 accurately ripped (confidence 41) [D5471B49] (AR v2)

All tracks accurately ripped

End of status report

==== Log checksum 7F6BC021AB216AC8B1B1681CFA09A131C5DC96F91CDA4F1E5860EDF1F944C01D ====


[CUETools log; Date: 08.01.2019 10:06:28; Version: 2.1.4]
[AccurateRip ID: 0016cb5a-00a68607-710f5409] found.
Track [ CRC | V2 ] Status
01 [79718ed0|cf03b5a0] (00+43/43) Accurately ripped
02 [f9d468f2|d275e2ab] (00+43/43) Accurately ripped
03 [7ec64b6d|024e17b7] (00+42/42) Accurately ripped
04 [37428eca|c7fb45e7] (00+41/41) Accurately ripped
05 [063025f9|70ebd32a] (00+42/42) Accurately ripped
06 [a7ac2b93|ba5904df] (00+42/42) Accurately ripped
07 [5685e19c|1399c1db] (00+42/42) Accurately ripped
08 [b0f894e1|8168fafb] (00+42/42) Accurately ripped
09 [c25c1562|d5471b49] (00+41/41) Accurately ripped

Track Peak [ CRC32 ] [W/O NULL] [ LOG ]
– 98,8 [DE094A41] [A1A5B82D] CRC32
01 98,8 [5FDB97CB] [AFA4F16F]
02 98,8 [3FA39A71] [1C577B1D]
03 98,8 [444F2849] [349DB556]
04 98,8 [EF2A154C] [DEC070E7]
05 98,8 [46F695D7] [989490EC]
06 98,8 [AD0F16A2] [643DF58B]
07 98,8 [C08F8246] [ECDCF8C6]
08 98,8 [4DB9D72D] [456B142B]
09 98,8 [B31DCF37] [75355C98]


Metallica ‎- ...And Justice For All (2018) [Deluxe Edition Box Set]

Tracklist CD2 - Interviews:

01. KSDT Interview with Jason (10:03)
02. Circus Magazine Interview with James (25:16)
03. KNAC Report from LA Monsters of Rock (00:43)
04. KHDX Interview with Kirk (10:15)
05. Metal Forces Magazine Interview with Lars (33:25)

Exact Audio Copy V1.1 from 23. June 2015

EAC extraction logfile from 3. January 2019, 21:18

Metallica / …And Justice For All (BLCKND007RD-1) CD 2 Interviews

Used drive : MATSHITADVD-RAM UJ8C0 Adapter: 1 ID: 0

Read mode : Secure
Utilize accurate stream : Yes
Defeat audio cache : Yes
Make use of C2 pointers : No

Read offset correction : 103
Overread into Lead-In and Lead-Out : No
Fill up missing offset samples with silence : Yes
Delete leading and trailing silent blocks : No
Null samples used in CRC calculations : Yes
Used interface : Installed external ASPI interface

Used output format : Internal WAV Routines
Sample format : 44.100 Hz; 16 Bit; Stereo


TOC of the extracted CD

Track | Start | Length | Start sector | End sector
––––––––––––––––––––––––––––-
1 | 0:00.00 | 10:03.03 | 0 | 45227
2 | 10:03.03 | 25:15.65 | 45228 | 158917
3 | 35:18.68 | 0:43.02 | 158918 | 162144
4 | 36:01.70 | 10:14.46 | 162145 | 208240
5 | 46:16.41 | 33:24.61 | 208241 | 358601


Range status and errors

Selected range

Filename U:\data\hexonut\Seeding\Metallica\1988-…And Justice For All\2018-…And Justice For All [Blackened Records, US, BLCKND007RD-1, Deluxe]\And Justice For All (BLCKND007RD-1) CD 2 - Interviews.wav

Peak level 96.6 %
Extraction speed 4.6 X
Range quality 100.0 %
Test CRC 975DA8EC
Copy CRC 975DA8EC
Copy OK

No errors occurred


AccurateRip summary

Track 1 accurately ripped (confidence 7) [A4CDC2C0] (AR v2)
Track 2 accurately ripped (confidence 7) [1050B309] (AR v2)
Track 3 accurately ripped (confidence 7) [C359DD03] (AR v2)
Track 4 accurately ripped (confidence 7) [F046C9A5] (AR v2)
Track 5 accurately ripped (confidence 7) [B1AD7CCF] (AR v2)

All tracks accurately ripped

End of status report

==== Log checksum A8FA41F823BFD3ACAB2A595BCF414B3F67D546411B4231A9E862D3F1FF56F2A2 ====


[CUETools log; Date: 08.01.2019 10:09:39; Version: 2.1.4]
[AccurateRip ID: 000e3d0e-00434520-3612ad05] found.
Track [ CRC | V2 ] Status
01 [46f8d6ed|a4cdc2c0] (0+7/7) Accurately ripped
02 [0bbe4ad5|1050b309] (0+7/7) Accurately ripped
03 [ce6107c3|c359dd03] (0+7/7) Accurately ripped
04 [f6532773|f046c9a5] (0+7/7) Accurately ripped
05 [85c7e1bf|b1ad7ccf] (0+7/7) Accurately ripped

Track Peak [ CRC32 ] [W/O NULL] [ LOG ]
– 96,6 [975DA8EC] [24598CCF] CRC32
01 49,9 [3705E62B] [A5949C19]
02 96,6 [BEC7C4D6] [E5393219]
03 52,2 [08568B2B] [E494E0F6]
04 60,8 [4E71170B] [2DA83BA0]
05 48,1 [C678F02D] [4641D357]


Metallica ‎- ...And Justice For All (2018) [Deluxe Edition Box Set]

Tracklist CD3-4 - Riffs, Jams & Demos:

01. Blackened (1987, From James' Riff Tapes) (00:36)
02. Blackened (1987, From James' Riff Tapes II) (03:09)
03. …And Justice for All (1987, From James' Riff Tapes) (02:39)
04. …And Justice for All (1988, From James' Riff Tapes) (00:44)
05. Eye of the Beholder (1987, From James' Riff Tapes) (01:29)
06. Eye of the Beholder (1987, From James' Riff Tapes II) (00:38)
07. One (1987, From James' Riff Tapes) (02:23)
08. The Shortest Straw (1986, From James' Riff Tapes) (01:47)
09. The Shortest Straw (1986, From James' Riff Tapes II) (00:47)
10. Harvester of Sorrow (1987, From James' Riff Tapes) (01:10)
11. The Frayed Ends of Sanity (1987, From James' Riff Tapes) (01:40)
12. To Live Is To Die (1986, From James' Riff Tapes) (01:31)
13. To Live Is To Die (1988, From James' Riff Tapes) (00:57)
14. Dyers Eve (1986, From James' Riff Tapes) (01:12)
15. Dyers Eve (1987, From James' Riff Tapes) (06:05)
16. Blackened (October 1987, Writing in Progress) (03:23)
17. …And Justice for All (October 1987, Writing in Progress) (00:59)
18. …And Justice for All (October 1987 ,Writing in Progress II) (01:28)
19. One (October 1987, Writing in Progress) (01:10)
20. The Shortest Straw (October 1987, Writing in Progress) (00:52)
21. …And Justice for All (November 1987, Writing in Progress) (08:25)
22. The Frayed Ends of Sanity (November 1987, Writing in Progress) (07:57)
23. One (November 1987, Writing in Progress) (02:18)
24. Dyers Eve (November 1987, Writing in Progress) (05:43)
25. Eye of the Beholder (November 1987, Writing in Progress) (06:52)
26. To Live Is To Die (November 1987, Writing in Progress) (00:55)
27. The Shortest Straw (December 1987, Writing in Progress) (06:46)
28. Harvester of Sorrow (December 1987, Writing in Progress) (05:22)

Exact Audio Copy V1.1 from 23. June 2015

EAC extraction logfile from 3. January 2019, 21:12

Metallica / …And Justice For All (BLCKND007RD-1) CD 3 - Riffs, Jams & Demos Disc 1

Used drive : PLEXTOR DVDR PX-760A Adapter: 6 ID: 1

Read mode : Secure
Utilize accurate stream : Yes
Defeat audio cache : Yes
Make use of C2 pointers : No

Read offset correction : 30
Overread into Lead-In and Lead-Out : Yes
Fill up missing offset samples with silence : Yes
Delete leading and trailing silent blocks : No
Null samples used in CRC calculations : Yes
Used interface : Installed external ASPI interface

Used output format : Internal WAV Routines
Sample format : 44.100 Hz; 16 Bit; Stereo


TOC of the extracted CD

Track | Start | Length | Start sector | End sector
––––––––––––––––––––––––––––-
1 | 0:00.00 | 0:36.01 | 0 | 2700
2 | 0:36.01 | 3:09.17 | 2701 | 16892
3 | 3:45.18 | 2:38.59 | 16893 | 28801
4 | 6:24.02 | 0:43.50 | 28802 | 32076
5 | 7:07.52 | 1:28.39 | 32077 | 38715
6 | 8:36.16 | 0:37.52 | 38716 | 41542
7 | 9:13.68 | 2:22.47 | 41543 | 52239
8 | 11:36.40 | 1:46.60 | 52240 | 60249
9 | 13:23.25 | 0:46.62 | 60250 | 63761
10 | 14:10.12 | 1:09.53 | 63762 | 68989
11 | 15:19.65 | 1:39.59 | 68990 | 76473
12 | 16:59.49 | 1:30.74 | 76474 | 83297
13 | 18:30.48 | 0:57.35 | 83298 | 87607
14 | 19:28.08 | 1:11.61 | 87608 | 92993
15 | 20:39.69 | 6:05.11 | 92994 | 120379
16 | 26:45.05 | 3:23.00 | 120380 | 135604
17 | 30:08.05 | 0:58.52 | 135605 | 140006
18 | 31:06.57 | 1:27.44 | 140007 | 146575
19 | 32:34.26 | 1:09.46 | 146576 | 151796
20 | 33:43.72 | 0:51.71 | 151797 | 155692
21 | 34:35.68 | 8:25.37 | 155693 | 193604
22 | 43:01.30 | 7:56.42 | 193605 | 229346
23 | 50:57.72 | 2:17.69 | 229347 | 239690
24 | 53:15.66 | 5:42.47 | 239691 | 265387
25 | 58:58.38 | 6:51.47 | 265388 | 296259
26 | 65:50.10 | 0:55.24 | 296260 | 300408
27 | 66:45.34 | 6:45.68 | 300409 | 330851
28 | 73:31.27 | 5:21.54 | 330852 | 354980


Range status and errors

Selected range

Filename Z:\data\hexonut\Seeding\Metallica\1988-…And Justice For All\2018-…And Justice For All [Blackened Records, US, BLCKND007RD-1, Deluxe]\And Justice For All (BLCKND007RD-1) CD 3 - Riffs, Jams & Demos Disc 1.wav

Peak level 99.8 %
Extraction speed 2.5 X
Range quality 100.0 %
Test CRC 7C4C38B3
Copy CRC 7C4C38B3
Copy OK

No errors occurred


AccurateRip summary

Track 1 accurately ripped (confidence 7) [E9BC79AA] (AR v2)
Track 2 accurately ripped (confidence 7) [5E9A2639] (AR v2)
Track 3 accurately ripped (confidence 7) [FDE28949] (AR v2)
Track 4 accurately ripped (confidence 7) [AC93F468] (AR v2)
Track 5 accurately ripped (confidence 7) [0B50C4DC] (AR v2)
Track 6 accurately ripped (confidence 7) [3B7A7337] (AR v2)
Track 7 accurately ripped (confidence 7) [56107A50] (AR v2)
Track 8 accurately ripped (confidence 7) [4C1F9786] (AR v2)
Track 9 accurately ripped (confidence 7) [D4A8CDDC] (AR v2)
Track 10 accurately ripped (confidence 7) [774628DF] (AR v2)
Track 11 accurately ripped (confidence 7) [1D1F931F] (AR v2)
Track 12 accurately ripped (confidence 7) [FE8492DB] (AR v2)
Track 13 accurately ripped (confidence 7) [344F0237] (AR v2)
Track 14 accurately ripped (confidence 7) [E28D0398] (AR v2)
Track 15 accurately ripped (confidence 7) [AEA92CA2] (AR v2)
Track 16 accurately ripped (confidence 7) [5BF287AE] (AR v2)
Track 17 accurately ripped (confidence 7) [15286A7C] (AR v2)
Track 18 accurately ripped (confidence 7) [5EA8A6FA] (AR v2)
Track 19 accurately ripped (confidence 7) [8CE561D2] (AR v2)
Track 20 accurately ripped (confidence 7) [0836A799] (AR v2)
Track 21 accurately ripped (confidence 7) [ABB62EA9] (AR v2)
Track 22 accurately ripped (confidence 7) [8273FB81] (AR v2)
Track 23 accurately ripped (confidence 7) [019D0CA1] (AR v2)
Track 24 accurately ripped (confidence 7) [A5203398] (AR v2)
Track 25 accurately ripped (confidence 7) [40E9A0DD] (AR v2)
Track 26 accurately ripped (confidence 7) [1A6F59C6] (AR v2)
Track 27 accurately ripped (confidence 7) [F73B3A3C] (AR v2)
Track 28 accurately ripped (confidence 6) [F88CB54A] (AR v2)

All tracks accurately ripped

End of status report

==== Log checksum A9B3F370D38FDB0CB336018207DC161843A311E882D591C1129C2BCEA015EE88 ====


[CUETools log; Date: 08.01.2019 10:12:53; Version: 2.1.4]
[AccurateRip ID: 003a16db-04d37d57-79127d1c] found.
Track [ CRC | V2 ] Status
01 [b44e0a9c|e9bc79aa] (0+7/7) Accurately ripped
02 [c3e9f4f5|5e9a2639] (0+7/7) Accurately ripped
03 [4879c6af|fde28949] (0+7/7) Accurately ripped
04 [e5153c64|ac93f468] (0+7/7) Accurately ripped
05 [ca39d74f|0b50c4dc] (0+7/7) Accurately ripped
06 [ee3db6f5|3b7a7337] (0+7/7) Accurately ripped
07 [d03cc62c|56107a50] (0+7/7) Accurately ripped
08 [eb74fd07|4c1f9786] (0+7/7) Accurately ripped
09 [98e7ece9|d4a8cddc] (0+7/7) Accurately ripped
10 [1639508a|774628df] (0+7/7) Accurately ripped
11 [b690c4d1|1d1f931f] (0+7/7) Accurately ripped
12 [fd9b9230|fe8492db] (0+7/7) Accurately ripped
13 [e684eb42|344f0237] (0+7/7) Accurately ripped
14 [5bc02417|e28d0398] (0+7/7) Accurately ripped
15 [0c0affc8|aea92ca2] (0+7/7) Accurately ripped
16 [0911b194|5bf287ae] (0+7/7) Accurately ripped
17 [d75266ea|15286a7c] (0+7/7) Accurately ripped
18 [3a8dc62b|5ea8a6fa] (0+7/7) Accurately ripped
19 [7fff188f|8ce561d2] (0+7/7) Accurately ripped
20 [da4334d4|0836a799] (0+7/7) Accurately ripped
21 [ce0087ca|abb62ea9] (0+7/7) Accurately ripped
22 [ce881294|8273fb81] (0+7/7) Accurately ripped
23 [8f5cef56|019d0ca1] (0+7/7) Accurately ripped
24 [d31fd882|a5203398] (0+7/7) Accurately ripped
25 [08e4f4a8|40e9a0dd] (0+7/7) Accurately ripped
26 [9d7eb4e3|1a6f59c6] (0+7/7) Accurately ripped
27 [b6d4be85|f73b3a3c] (0+7/7) Accurately ripped
28 [2cf185cb|f88cb54a] (0+6/6) Accurately ripped

Track Peak [ CRC32 ] [W/O NULL] [ LOG ]
– 99,8 [7C4C38B3] [F9C9707C] CRC32
01 66,3 [26455196] [66DCD507]
02 49,6 [A580AC3F] [CB2ABA18]
03 56,5 [5AC5773F] [14E620D3]
04 29,7 [39140827] [67DFAA7D]
05 67,1 [7706C492] [707F0E37]
06 42,2 [05436866] [5E98C0C5]
07 41,5 [66FA4823] [8D0FBCF4]
08 96,3 [C985F94E] [F765B407]
09 41,2 [89D99A0B] [AD79720F]
10 56,3 [333C21B1] [CC76254E]
11 63,5 [A8EE824B] [6421F14D]
12 53,1 [D884AD20] [5EE820AF]
13 40,3 [204EA419] [A2E48231]
14 39,3 [BB7C08A8] [B95749A6]
15 94,6 [C470898E] [89BBBDF8]
16 97,6 [CE2C7E79] [55FBC35C]
17 96,6 [9D057A00] [57E4BDC6]
18 97,0 [970AC1C4] [CF8CC726]
19 96,6 [3B6EE270] [8D2EF03B]
20 96,8 [23AAD5E1] [46ABCF7D]
21 97,5 [45DB31F1] [2A1E6068]
22 97,2 [30C0B898] [84E0F422]
23 96,5 [F6CF5992] [6DBFA932]
24 96,8 [AC70BB4F] [CA1D8B8B]
25 97,7 [F65BDF02] [E6E140FD]
26 96,5 [5FFEE9FD] [97F39436]
27 97,1 [591A6517] [5BE647E7]
28 99,8 [E48AC232] [56AA2541]


01. Blackened (November 1987 Demo) (05:58)
02. …And Justice for All (November 1987 Demo) (08:18)
03. Eye of the Beholder (November 1987 Demo) (06:30)
04. One (November 1987 Demo) (07:08)
05. The Frayed Ends of Sanity (November 1987 Demo) (07:38)
06. Eye of the Beholder (January 1988 Demo) (06:33)
07. The Shortest Straw (January 1988 Demo) (06:48)
08. Harvester of Sorrow (January 1988 Demo) (05:51)
09. Dyers Eve (January 1988 Demo) (06:01)
10. To Live Is To Die (January 1988 Demo) (10:05)

Exact Audio Copy V1.1 from 23. June 2015

EAC extraction logfile from 3. January 2019, 21:12

Metallica / …And Justice For All (BLCKND007RD-1) CD 4 - Riffs, Jams & Demos Disc 2

Used drive : PLEXTOR CD-R PX-240A Adapter: 6 ID: 0

Read mode : Secure
Utilize accurate stream : Yes
Defeat audio cache : Yes
Make use of C2 pointers : No

Read offset correction : 6
Overread into Lead-In and Lead-Out : No
Fill up missing offset samples with silence : Yes
Delete leading and trailing silent blocks : No
Null samples used in CRC calculations : Yes
Used interface : Installed external ASPI interface

Used output format : Internal WAV Routines
Sample format : 44.100 Hz; 16 Bit; Stereo


TOC of the extracted CD

Track | Start | Length | Start sector | End sector
––––––––––––––––––––––––––––-
1 | 0:00.00 | 5:58.05 | 0 | 26854
2 | 5:58.05 | 8:18.14 | 26855 | 64218
3 | 14:16.19 | 6:30.18 | 64219 | 93486
4 | 20:46.37 | 7:07.71 | 93487 | 125582
5 | 27:54.33 | 7:37.56 | 125583 | 159913
6 | 35:32.14 | 6:32.58 | 159914 | 189371
7 | 42:04.72 | 6:47.60 | 189372 | 219956
8 | 48:52.57 | 5:50.66 | 219957 | 246272
9 | 54:43.48 | 6:01.12 | 246273 | 273359
10 | 60:44.60 | 10:04.40 | 273360 | 318699


Range status and errors

Selected range

Filename Z:\data\hexonut\Seeding\Metallica\1988-…And Justice For All\2018-…And Justice For All [Blackened Records, US, BLCKND007RD-1, Deluxe]\And Justice For All (BLCKND007RD-1) CD 4 - Riffs, Jams & Demos Disc 2.wav

Peak level 98.9 %
Extraction speed 2.4 X
Range quality 100.0 %
Test CRC E78CDC7C
Copy CRC E78CDC7C
Copy OK

No errors occurred


AccurateRip summary

Track 1 accurately ripped (confidence 7) [68D02B9F] (AR v2)
Track 2 accurately ripped (confidence 7) [54519FAD] (AR v2)
Track 3 accurately ripped (confidence 7) [4E63720E] (AR v2)
Track 4 accurately ripped (confidence 7) [2BF1CC84] (AR v2)
Track 5 accurately ripped (confidence 7) [44E88EC0] (AR v2)
Track 6 accurately ripped (confidence 7) [6C8E8258] (AR v2)
Track 7 accurately ripped (confidence 7) [E958BBB4] (AR v2)
Track 8 accurately ripped (confidence 7) [CF246FB1] (AR v2)
Track 9 accurately ripped (confidence 7) [C1AEDC71] (AR v2)
Track 10 accurately ripped (confidence 6) [39357531] (AR v2)

All tracks accurately ripped

End of status report

==== Log checksum 086B06609D4E161B35C84BBDD8D9E40F76B775072248246855AF43FE52F82738 ====


[CUETools log; Date: 08.01.2019 10:15:28; Version: 2.1.4]
[AccurateRip ID: 001a35d8-00d1c9fc-9310990a] found.
Track [ CRC | V2 ] Status
01 [de7e8f9e|68d02b9f] (0+7/7) Accurately ripped
02 [3033094b|54519fad] (0+7/7) Accurately ripped
03 [8faa3e3f|4e63720e] (0+7/7) Accurately ripped
04 [54d6d574|2bf1cc84] (0+7/7) Accurately ripped
05 [2e887e15|44e88ec0] (0+7/7) Accurately ripped
06 [4df3cd00|6c8e8258] (0+7/7) Accurately ripped
07 [0d255d6d|e958bbb4] (0+7/7) Accurately ripped
08 [e39857b9|cf246fb1] (0+7/7) Accurately ripped
09 [c4f4d67c|c1aedc71] (0+7/7) Accurately ripped
10 [53865e73|39357531] (0+6/6) Accurately ripped

Track Peak [ CRC32 ] [W/O NULL] [ LOG ]
– 98,9 [E78CDC7C] [03F5941B] CRC32
01 97,6 [79A993D1] [8B154944]
02 97,3 [E166585A] [ECF6BC53]
03 98,0 [952A0189] [AD49ACB9]
04 97,6 [DAE0F2B6] [160AAE24]
05 97,6 [9FBDB16F] [78C201B1]
06 96,7 [461FB229] [CD04B35B]
07 98,9 [65F65992] [FD73F208]
08 97,1 [7CDCEAC3] [31CA1FC8]
09 97,1 [AA0F4586] [873A9C36]
10 96,9 [951AF933] [AA375918]


Metallica ‎- ...And Justice For All (2018) [Deluxe Edition Box Set]

Tracklist CD5 - Rough Mixes From The Vault:

01. Blackened (Work in Progress Rough Mix) (06:02)
02. …And Justice for All (Work in Progress Rough Mix) (09:50)
03. Eye of the Beholder (Work in Progress Rough Mix) (06:32)
04. One (Work in Progress Rough Mix) (07:14)
05. The Shortest Straw (Work in Progress Rough Mix) (06:39)
06. Harvester of Sorrow (Work in Progress Rough Mix) (05:48)
07. The Frayed Ends of Sanity (Work in Progress Rough Mix) (07:42)
08. To Live Is To Die (Acoustic Intro) (Work in Progress Rough Mix) (02:40)
09. To Live Is To Die (Work in Progress Rough Mix) (08:57)
10. Dyers Eve (Work in Progress Rough Mix) (05:24)
11. Breadfan (Work in Progress Rough Mix) (05:38)
12. The Prince (Work in Progress Rough Mix) (04:26)

Exact Audio Copy V1.1 from 23. June 2015

EAC extraction logfile from 3. January 2019, 21:47

Metallica / …And Justice For All (BLCKND007RD-1) CD 5 - Rough Mixes From The Vault

Used drive : HL-DT-STBD-RE WH16NS40 Adapter: 5 ID: 0

Read mode : Secure
Utilize accurate stream : Yes
Defeat audio cache : Yes
Make use of C2 pointers : No

Read offset correction : 6
Overread into Lead-In and Lead-Out : No
Fill up missing offset samples with silence : Yes
Delete leading and trailing silent blocks : No
Null samples used in CRC calculations : Yes
Used interface : Installed external ASPI interface

Used output format : Internal WAV Routines
Sample format : 44.100 Hz; 16 Bit; Stereo


TOC of the extracted CD

Track | Start | Length | Start sector | End sector
––––––––––––––––––––––––––––-
1 | 0:00.00 | 6:01.38 | 0 | 27112
2 | 6:01.38 | 9:49.43 | 27113 | 71330
3 | 15:51.06 | 6:32.06 | 71331 | 100736
4 | 22:23.12 | 7:13.64 | 100737 | 133275
5 | 29:37.01 | 6:39.10 | 133276 | 163210
6 | 36:16.11 | 5:47.51 | 163211 | 189286
7 | 42:03.62 | 7:42.29 | 189287 | 223965
8 | 49:46.16 | 2:39.46 | 223966 | 235936
9 | 52:25.62 | 8:56.57 | 235937 | 276193
10 | 61:22.44 | 5:23.65 | 276194 | 300483
11 | 66:46.34 | 5:37.72 | 300484 | 325830
12 | 72:24.31 | 4:25.53 | 325831 | 345758


Range status and errors

Selected range

Filename Z:\data\hexonut\Seeding\Metallica\1988-…And Justice For All\2018-…And Justice For All [Blackened Records, US, BLCKND007RD-1, Deluxe]\And Justice For All (BLCKND007RD-1) CD 5 - Rough Mixes From The Vault.wav

Peak level 99.4 %
Extraction speed 5.3 X
Range quality 99.9 %
Test CRC 88D6B688
Copy CRC 88D6B688
Copy OK

No errors occurred


AccurateRip summary

Track 1 accurately ripped (confidence 7) [4D759C16] (AR v2)
Track 2 accurately ripped (confidence 7) [C8E97B5D] (AR v2)
Track 3 accurately ripped (confidence 7) [01C49C01] (AR v2)
Track 4 accurately ripped (confidence 7) [40B01694] (AR v2)
Track 5 accurately ripped (confidence 7) [26C42F17] (AR v2)
Track 6 accurately ripped (confidence 7) [C406CB26] (AR v2)
Track 7 accurately ripped (confidence 7) [77B16A8D] (AR v2)
Track 8 accurately ripped (confidence 7) [42FEB556] (AR v2)
Track 9 accurately ripped (confidence 7) [42D5136B] (AR v2)
Track 10 accurately ripped (confidence 7) [B2EA58C2] (AR v2)
Track 11 accurately ripped (confidence 7) [67F63BEB] (AR v2)
Track 12 accurately ripped (confidence 7) [CF58E956] (AR v2)

All tracks accurately ripped

End of status report

==== Log checksum 98BF0A7A137CDFE20BDB8E2DE41F0FFE59D67E1A6F292B2BB15D483CEC58C548 ====


[CUETools log; Date: 08.01.2019 10:19:23; Version: 2.1.4]
[AccurateRip ID: 00248426-0150231f-c012020c] found.
Track [ CRC | V2 ] Status
01 [38e7f684|4d759c16] (0+7/7) Accurately ripped
02 [de2133bd|c8e97b5d] (0+7/7) Accurately ripped
03 [f943bd1d|01c49c01] (0+7/7) Accurately ripped
04 [dd9b3dd2|40b01694] (0+7/7) Accurately ripped
05 [12ffd027|26c42f17] (0+7/7) Accurately ripped
06 [ed44e9b8|c406cb26] (0+7/7) Accurately ripped
07 [f62e04d1|77b16a8d] (0+7/7) Accurately ripped
08 [5ab98476|42feb556] (0+7/7) Accurately ripped
09 [bae1805a|42d5136b] (0+7/7) Accurately ripped
10 [d113d997|b2ea58c2] (0+7/7) Accurately ripped
11 [db1c4800|67f63beb] (0+7/7) Accurately ripped
12 [d9580240|cf58e956] (0+7/7) Accurately ripped

Track Peak [ CRC32 ] [W/O NULL] [ LOG ]
– 99,4 [88D6B688] [06D9FD3C] CRC32
01 99,4 [A7C76D07] [3FB545A3]
02 97,5 [E5A31ADD] [F320FA91]
03 98,1 [1190804E] [E19FCB0B]
04 98,3 [D8B2F625] [6DDCEA42]
05 98,6 [80B91E8A] [E705435E]
06 97,4 [F839A9FB] [F0A33699]
07 98,8 [9BDB04D7] [624BB097]
08 69,9 [15FB5B68] [7500AABF]
09 97,3 [0E402637] [006B3794]
10 98,3 [658A08BC] [6B25B9CF]
11 97,5 [440938CB] [A5E1523B]
12 99,1 [FF6C3344] [8C36A17E]


Metallica ‎- ...And Justice For All (2018) [Deluxe Edition Box Set]

Tracklist CD6-7 - Live At The Troubadour:

01. Creeping Death (Live at The Troubadour) (06:55)
02. For Whom the Bell Tolls (Live at The Troubadour) (04:33)
03. Welcome Home (Sanitarium) (Live at The Troubadour) (07:00)
04. The Four Horsemen (Live at The Troubadour) (05:50)
05. Whiplash (Live at The Troubadour) (04:19)
06. Fade to Black (Live at The Troubadour) (07:21)
07. Seek & Destroy (Live at The Troubadour) (07:19)
08. Master of Puppets (Live at The Troubadour) (09:01)
09. Encore Jam (Live at The Troubadour) (01:27)
10. Last Caress (Live at The Troubadour) (01:22)
11. Am I Evil? (Live at The Troubadour) (03:45)
12. Battery (Live at The Troubadour) (05:16)

Exact Audio Copy V1.1 from 23. June 2015

EAC extraction logfile from 3. January 2019, 22:18

Metallica / …And Justice For All (BLCKND007RD-1) CD 6 - Live At The Troubadour, West Hollywood, CA - May 24th, 1988 + B-Sides

Used drive : hp DVDRAM GT50N Adapter: 1 ID: 0

Read mode : Secure
Utilize accurate stream : Yes
Defeat audio cache : Yes
Make use of C2 pointers : No

Read offset correction : 103
Overread into Lead-In and Lead-Out : No
Fill up missing offset samples with silence : Yes
Delete leading and trailing silent blocks : No
Null samples used in CRC calculations : Yes
Used interface : Native Win32 interface for Win NT & 2000

Used output format : Internal WAV Routines
Sample format : 44.100 Hz; 16 Bit; Stereo


TOC of the extracted CD

Track | Start | Length | Start sector | End sector
––––––––––––––––––––––––––––-
1 | 0:00.00 | 6:54.44 | 0 | 31093
2 | 6:54.44 | 4:32.65 | 31094 | 51558
3 | 11:27.34 | 6:59.61 | 51559 | 83044
4 | 18:27.20 | 5:49.51 | 83045 | 109270
5 | 24:16.71 | 4:18.72 | 109271 | 128692
6 | 28:35.68 | 7:20.59 | 128693 | 161751
7 | 35:56.52 | 7:18.57 | 161752 | 194658
8 | 43:15.34 | 9:00.69 | 194659 | 235227
9 | 52:16.28 | 1:26.44 | 235228 | 241721
10 | 53:42.72 | 1:21.43 | 241722 | 247839
11 | 55:04.40 | 3:44.64 | 247840 | 264703
12 | 58:49.29 | 5:15.66 | 264704 | 288394


Range status and errors

Selected range

Filename Z:\hexonut\Seeding\Metallica\1988-…And Justice For All\2018-…And Justice For All [Blackened Records, US, BLCKND007RD-1, Deluxe]\And Justice For All (BLCKND007RD-1) CD 6 - Live At The Troubadour, West Hollywood, CA - May 24th, 1988 + B-Side

Peak level 100.0 %
Extraction speed 3.0 X
Range quality 100.0 %
Test CRC D8AB2E30
Copy CRC D8AB2E30
Copy OK

No errors occurred


AccurateRip summary

Track 1 accurately ripped (confidence 7) [1F2DEB27] (AR v2)
Track 2 accurately ripped (confidence 7) [952AF1D5] (AR v2)
Track 3 accurately ripped (confidence 7) [1A78F047] (AR v2)
Track 4 accurately ripped (confidence 7) [3CDF4BFC] (AR v2)
Track 5 accurately ripped (confidence 7) [F17D75BC] (AR v2)
Track 6 accurately ripped (confidence 7) [78914DA3] (AR v2)
Track 7 accurately ripped (confidence 7) [431EB60A] (AR v2)
Track 8 accurately ripped (confidence 7) [817D1DBA] (AR v2)
Track 9 accurately ripped (confidence 7) [4E95C8DE] (AR v2)
Track 10 accurately ripped (confidence 7) [ACE87060] (AR v2)
Track 11 accurately ripped (confidence 7) [1BAFB7B8] (AR v2)
Track 12 accurately ripped (confidence 7) [47F3C5A4] (AR v2)

All tracks accurately ripped

End of status report

–– CUETools DB Plugin V2.1.6

[CTDB TOCID: UtrokS62sqAn2kJ.o2f5fnL4ZtE-] found
Submit result: UtrokS62sqAn2kJ.o2f5fnL4ZtE- has been confirmed
Track | CTDB Status
1 | (29/29) Accurately ripped
2 | (29/29) Accurately ripped
3 | (29/29) Accurately ripped
4 | (29/29) Accurately ripped
5 | (29/29) Accurately ripped
6 | (29/29) Accurately ripped
7 | (29/29) Accurately ripped
8 | (29/29) Accurately ripped
9 | (29/29) Accurately ripped
10 | (29/29) Accurately ripped
11 | (29/29) Accurately ripped
12 | (29/29) Accurately ripped


==== Log checksum DE72F26DBDBADAEFD11F4B7AA91C9AB8C98B0A13D3F2976588505A263A5760EA ====


[CUETools log; Date: 08.01.2019 10:23:43; Version: 2.1.4]
[AccurateRip ID: 001f18ca-011dff96-aa0f050c] found.
Track [ CRC | V2 ] Status
01 [f1e90077|1f2deb27] (0+7/7) Accurately ripped
02 [a53d4143|952af1d5] (0+7/7) Accurately ripped
03 [7b8df1b5|1a78f047] (0+7/7) Accurately ripped
04 [062bbdde|3cdf4bfc] (0+7/7) Accurately ripped
05 [31a64581|f17d75bc] (0+7/7) Accurately ripped
06 [5a77eb70|78914da3] (0+7/7) Accurately ripped
07 [784ce6c7|431eb60a] (0+7/7) Accurately ripped
08 [3b1f1c48|817d1dba] (0+7/7) Accurately ripped
09 [53fa4748|4e95c8de] (0+7/7) Accurately ripped
10 [10f9dd5e|ace87060] (0+7/7) Accurately ripped
11 [63e00c98|1bafb7b8] (0+7/7) Accurately ripped
12 [409a465c|47f3c5a4] (0+7/7) Accurately ripped

Track Peak [ CRC32 ] [W/O NULL]
– 100,0 [D8AB2E30] [6DEE0053]
01 100,0 [299A7996] [7A166443]
02 98,9 [2C792AA5] [41105D9C]
03 99,3 [71F6861C] [FE40A369]
04 98,3 [B8CBEA6D] [5C1BC3A4]
05 98,3 [C0AEA77C] [0020671A]
06 99,6 [FCC8AD0C] [552F37CC]
07 98,5 [5C4D6D02] [96976184]
08 100,0 [07E59CD3] [9D6C8F92]
09 97,0 [DE58D2FC] [00104C89]
10 99,4 [F66BE558] [3CC8FE47]
11 98,3 [17A55B71] [C0B5A629]
12 99,0 [3176490A] [70C57E86]


01. Encore Jam #2 (Live at The Troubadour) (01:05)
02. Harvester of Sorrow (Live at The Troubadour) (06:48)
03. Leper Messiah (Live at The Troubadour) (05:35)
04. Blitzkrieg (Live at The Troubadour) (05:39)
05. Breadfan (Remastered) (05:44)
06. The Prince (Remastered) (04:26)
07. For Whom the Bell Tolls (Live at Reunion Arena) (04:47)
08. Welcome Home (Sanitarium) (Live at Reunion Arena) (06:06)
09. Seek & Destroy (Live at Reunion Arena) (08:43)
10. Creeping Death (Live at Reunion Arena) (08:11)
11. Harvester of Sorrow (Live at Seattle Coliseum) (06:19)
12. One (Live at Seattle Coliseum) (07:12)
13. Breadfan (Live at Seattle Coliseum) (04:17)
14. Last Caress (Live at Seattle Coliseum) (01:40)

Exact Audio Copy V1.1 from 23. June 2015

EAC extraction logfile from 4. January 2019, 1:39

Metallica / …And Justice For All (BLCKND007RD-1) CD 7 - Live At The Troubadour, West Hollywood, CA - May 24th, 1988 + B-Sides Disc 2

Used drive : hp DVDRAM GT50N Adapter: 1 ID: 0

Read mode : Secure
Utilize accurate stream : Yes
Defeat audio cache : Yes
Make use of C2 pointers : No

Read offset correction : 103
Overread into Lead-In and Lead-Out : No
Fill up missing offset samples with silence : Yes
Delete leading and trailing silent blocks : No
Null samples used in CRC calculations : Yes
Used interface : Native Win32 interface for Win NT & 2000

Used output format : Internal WAV Routines
Sample format : 44.100 Hz; 16 Bit; Stereo


TOC of the extracted CD

Track | Start | Length | Start sector | End sector
––––––––––––––––––––––––––––-
1 | 0:00.00 | 1:04.66 | 0 | 4865
2 | 1:04.66 | 6:47.51 | 4866 | 35441
3 | 7:52.42 | 5:35.26 | 35442 | 60592
4 | 13:27.68 | 5:38.66 | 60593 | 86008
5 | 19:06.59 | 5:43.59 | 86009 | 111792
6 | 24:50.43 | 4:26.23 | 111793 | 131765
7 | 29:16.66 | 4:47.26 | 131766 | 153316
8 | 34:04.17 | 6:06.32 | 153317 | 180798
9 | 40:10.49 | 8:43.03 | 180799 | 220026
10 | 48:53.52 | 8:10.42 | 220027 | 256818
11 | 57:04.19 | 6:19.00 | 256819 | 285243
12 | 63:23.19 | 7:12.13 | 285244 | 317656
13 | 70:35.32 | 4:16.49 | 317657 | 336905
14 | 74:52.06 | 1:39.68 | 336906 | 344398


Range status and errors

Selected range

Filename Z:\hexonut\Seeding\Metallica\1988-…And Justice For All\2018-…And Justice For All [Blackened Records, US, BLCKND007RD-1, Deluxe]\And Justice For All (BLCKND007RD-1) CD 7 - Live At The Troubadour, West Hollywood, CA - May 24th, 1988 + B-Side

Peak level 100.0 %
Extraction speed 2.7 X
Range quality 100.0 %
Test CRC BB3F5529
Copy CRC BB3F5529
Copy OK

No errors occurred


AccurateRip summary

Track 1 accurately ripped (confidence 6) [AB49EE3F] (AR v2)
Track 2 accurately ripped (confidence 6) [D78C9279] (AR v2)
Track 3 accurately ripped (confidence 6) [6494AC9F] (AR v2)
Track 4 accurately ripped (confidence 6) [EE599546] (AR v2)
Track 5 accurately ripped (confidence 6) [E5855E5A] (AR v2)
Track 6 accurately ripped (confidence 6) [DD9CFB9D] (AR v2)
Track 7 accurately ripped (confidence 6) [A4993C94] (AR v2)
Track 8 accurately ripped (confidence 6) [A1915F62] (AR v2)
Track 9 accurately ripped (confidence 6) [1EE07507] (AR v2)
Track 10 accurately ripped (confidence 6) [7CADD68C] (AR v2)
Track 11 accurately ripped (confidence 6) [A041ADF9] (AR v2)
Track 12 accurately ripped (confidence 6) [5BBA4C59] (AR v2)
Track 13 accurately ripped (confidence 6) [3D4BF4FF] (AR v2)
Track 14 accurately ripped (confidence 6) [038272FB] (AR v2)

All tracks accurately ripped

End of status report

–– CUETools DB Plugin V2.1.6

[CTDB TOCID: 0figzscTmb7PO7lV554F9TLalMk-] found
Submit result: 0figzscTmb7PO7lV554F9TLalMk- has been confirmed
Track | CTDB Status
1 | (24/24) Accurately ripped
2 | (24/24) Accurately ripped
3 | (24/24) Accurately ripped
4 | (24/24) Accurately ripped
5 | (24/24) Accurately ripped
6 | (24/24) Accurately ripped
7 | (24/24) Accurately ripped
8 | (24/24) Accurately ripped
9 | (24/24) Accurately ripped
10 | (24/24) Accurately ripped
11 | (24/24) Accurately ripped
12 | (24/24) Accurately ripped
13 | (24/24) Accurately ripped
14 | (24/24) Accurately ripped


==== Log checksum 18CD117CB39C4837E33C6EEF1DA2F48595BAC734BC58CCA19C21227EBA12B0D3 ====


[CUETools log; Date: 08.01.2019 10:27:11; Version: 2.1.4]
[AccurateRip ID: 002689c5-01a69a7c-cd11ef0e] found.
Track [ CRC | V2 ] Status
01 [e0a6ec4f|ab49ee3f] (0+6/6) Accurately ripped
02 [3c984739|d78c9279] (0+6/6) Accurately ripped
03 [0bca4859|6494ac9f] (0+6/6) Accurately ripped
04 [bb0fadd9|ee599546] (0+6/6) Accurately ripped
05 [ea060878|e5855e5a] (0+6/6) Accurately ripped
06 [6b56617e|dd9cfb9d] (0+6/6) Accurately ripped
07 [0aa11955|a4993c94] (0+6/6) Accurately ripped
08 [2e042f64|a1915f62] (0+6/6) Accurately ripped
09 [3c5f6ba4|1ee07507] (0+6/6) Accurately ripped
10 [98d615f7|7cadd68c] (0+6/6) Accurately ripped
11 [34b428d9|a041adf9] (0+6/6) Accurately ripped
12 [37bb0f13|5bba4c59] (0+6/6) Accurately ripped
13 [11a12c65|3d4bf4ff] (0+6/6) Accurately ripped
14 [df63c43c|038272fb] (0+6/6) Accurately ripped

Track Peak [ CRC32 ] [W/O NULL]
– 100,0 [BB3F5529] [ABAC0A40]
01 99,2 [986133CA] [724DEFC4]
02 100,0 [E474EC5D] [1C2C9FFE]
03 99,6 [95D55CAE] [6E0E641C]
04 99,5 [667A54DB] [A80D9F41]
05 75,4 [7BC0172C] [F991AC7F]
06 76,0 [52C5D9F1] [86519BBF]
07 98,4 [AE95525C] [A2A44085]
08 97,2 [2D0ADA88] [9968D11F]
09 97,9 [8C7CC117] [5886A03D]
10 98,6 [CAA464F9] [4F1E9042]
11 96,7 [DAD19B79] [E0A7DA4E]
12 96,8 [8D2A5579] [6BDAED83]
13 96,6 [FF678FD3] [57552BCB]
14 97,2 [C21560A0] [6249966A]


Metallica ‎- ...And Justice For All (2018) [Deluxe Edition Box Set]

Tracklist CD8-9 - Live At Hammersmith Odeon:

01. Welcome Home (Sanitarium) (Live at Hammersmith Odeon) (06:27)
02. The Four Horsemen (Live at Hammersmith Odeon) (05:14)
03. Harvester of Sorrow (Live at Hammersmith Odeon) (05:20)
04. Eye of the Beholder (Live at Hammersmith Odeon) (06:05)
05. Bass Solo (Live at Hammersmith Odeon) (06:46)
06. Master of Puppets (Live at Hammersmith Odeon) (07:37)
07. Damage, Inc. (Live at Hammersmith Odeon) (03:58)
08. One (Live at Hammersmith Odeon) (08:13)
09. Seek & Destroy (Live at Hammersmith Odeon) (06:57)
10. …And Justice for All (Live at Hammersmith Odeon) (07:05)

Exact Audio Copy V1.1 from 23. June 2015

EAC extraction logfile from 3. January 2019, 23:03

Metallica / …And Justice For All (BLCKND007RD-1) CD 8 - Live At Hammersmith Odeon, London, England - October 10th, 1988 Disc 1

Used drive : HL-DT-STBD-RE WH16NS40 Adapter: 5 ID: 0

Read mode : Secure
Utilize accurate stream : Yes
Defeat audio cache : Yes
Make use of C2 pointers : No

Read offset correction : 6
Overread into Lead-In and Lead-Out : No
Fill up missing offset samples with silence : Yes
Delete leading and trailing silent blocks : No
Null samples used in CRC calculations : Yes
Used interface : Installed external ASPI interface

Used output format : Internal WAV Routines
Sample format : 44.100 Hz; 16 Bit; Stereo


TOC of the extracted CD

Track | Start | Length | Start sector | End sector
––––––––––––––––––––––––––––-
1 | 0:00.00 | 6:27.16 | 0 | 29040
2 | 6:27.16 | 5:14.36 | 29041 | 52626
3 | 11:41.52 | 5:20.22 | 52627 | 76648
4 | 17:01.74 | 6:04.74 | 76649 | 104022
5 | 23:06.73 | 6:46.20 | 104023 | 134492
6 | 29:53.18 | 7:37.34 | 134493 | 168801
7 | 37:30.52 | 3:58.14 | 168802 | 186665
8 | 41:28.66 | 8:12.47 | 186666 | 223612
9 | 49:41.38 | 6:57.14 | 223613 | 254901
10 | 56:38.52 | 7:05.08 | 254902 | 286784


Range status and errors

Selected range

Filename Z:\data\hexonut\Seeding\Metallica\1988-…And Justice For All.And Justice For All (BLCKND007RD-1) CD 8 - Live At Hammersmith Odeon, London, England - October 10th, 1988 Disc 1.wav

Peak level 99.1 %
Extraction speed 3.4 X
Range quality 100.0 %
Test CRC 4C29CF2E
Copy CRC 4C29CF2E
Copy OK

No errors occurred


AccurateRip summary

Track 1 accurately ripped (confidence 7) [C15359D7] (AR v2)
Track 2 accurately ripped (confidence 7) [40B46010] (AR v2)
Track 3 accurately ripped (confidence 7) [8D1F276F] (AR v2)
Track 4 accurately ripped (confidence 7) [8147BC06] (AR v2)
Track 5 accurately ripped (confidence 7) [0F0AFDE7] (AR v2)
Track 6 accurately ripped (confidence 7) [56E85485] (AR v2)
Track 7 accurately ripped (confidence 7) [92FFCFB5] (AR v2)
Track 8 accurately ripped (confidence 7) [3EE9B448] (AR v2)
Track 9 accurately ripped (confidence 7) [1B594996] (AR v2)
Track 10 accurately ripped (confidence 7) [406C4E3B] (AR v2)

All tracks accurately ripped

End of status report

==== Log checksum D0E260B00ADE58680569819C528432322F4D78A2B32CB62D4013F4EE50CF058F ====


[CUETools log; Date: 08.01.2019 10:30:40; Version: 2.1.4]
[AccurateRip ID: 00172821-00bac76b-870eef0a] found.
Track [ CRC | V2 ] Status
01 [83b4d6ed|c15359d7] (0+7/7) Accurately ripped
02 [c882bd51|40b46010] (0+7/7) Accurately ripped
03 [3c55bf2f|8d1f276f] (0+7/7) Accurately ripped
04 [af7c040e|8147bc06] (0+7/7) Accurately ripped
05 [a958caf2|0f0afde7] (0+7/7) Accurately ripped
06 [2a5df2c5|56e85485] (0+7/7) Accurately ripped
07 [36e51d65|92ffcfb5] (0+7/7) Accurately ripped
08 [22902bf2|3ee9b448] (0+7/7) Accurately ripped
09 [e293ee9d|1b594996] (0+7/7) Accurately ripped
10 [f819b6a5|406c4e3b] (0+7/7) Accurately ripped

Track Peak [ CRC32 ] [W/O NULL]
– 99,1 [4C29CF2E] [3AE3D3F2]
01 98,7 [F7F503A9] [DF33A858]
02 98,5 [95F30BE5] [9ACB4CDE]
03 99,1 [73B51BBE] [6B2054A2]
04 98,7 [547B27E5] [44FF9B04]
05 96,8 [01812561] [A5DD4E4F]
06 98,4 [62BE71CC] [E698AFF8]
07 98,5 [4151E52E] [CF3D9F8C]
08 97,9 [3A2A5DD7] [9FEB0AD5]
09 98,4 [1D74F1F2] [8463FA38]
10 98,2 [B65171F1] [0E6159ED]


01. Encore Jam (Live at Hammersmith Odeon) (01:02)
02. Creeping Death (Live at Hammersmith Odeon) (07:13)
03. Fade to Black (Live at Hammersmith Odeon) (06:47)
04. Guitar Solo (Live at Hammersmith Odeon) (06:16)
05. Battery (Live at Hammersmith Odeon) (04:54)
06. Encore Jam #2 (Live at Hammersmith Odeon) (03:32)
07. Last Caress (Live at Hammersmith Odeon) (01:20)
08. Am I Evil? (Live at Hammersmith Odeon) (03:45)
09. Whiplash (Live at Hammersmith Odeon) (04:01)
10. Eye of the Beholder (Radio Edit) (05:58)
11. One (Radio Edit) (05:02)
12. …And Justice For All (Radio Edit) (06:00)

Exact Audio Copy V1.1 from 23. June 2015

EAC extraction logfile from 3. January 2019, 23:18

Metallica / …And Justice For All (BLCKND007RD-1) CD 9 - Live At Hammersmith Odeon, London England - October 10th, 1988 Disc 2

Used drive : PLEXTOR CD-R PX-240A Adapter: 6 ID: 0

Read mode : Secure
Utilize accurate stream : Yes
Defeat audio cache : Yes
Make use of C2 pointers : No

Read offset correction : 6
Overread into Lead-In and Lead-Out : No
Fill up missing offset samples with silence : Yes
Delete leading and trailing silent blocks : No
Null samples used in CRC calculations : Yes
Used interface : Installed external ASPI interface

Used output format : Internal WAV Routines
Sample format : 44.100 Hz; 16 Bit; Stereo


TOC of the extracted CD

Track | Start | Length | Start sector | End sector
––––––––––––––––––––––––––––-
1 | 0:00.00 | 1:02.19 | 0 | 4668
2 | 1:02.19 | 7:13.13 | 4669 | 37156
3 | 8:15.32 | 6:46.38 | 37157 | 67644
4 | 15:01.70 | 6:15.45 | 67645 | 95814
5 | 21:17.40 | 4:53.72 | 95815 | 117861
6 | 26:11.37 | 3:31.62 | 117862 | 133748
7 | 29:43.24 | 1:20.34 | 133749 | 139782
8 | 31:03.58 | 3:45.06 | 139783 | 156663
9 | 34:48.64 | 4:00.67 | 156664 | 174730
10 | 38:49.56 | 5:58.12 | 174731 | 201592
11 | 44:47.68 | 5:02.30 | 201593 | 224272
12 | 49:50.23 | 5:59.71 | 224273 | 251268


Range status and errors

Selected range

Filename Z:\data\hexonut\Seeding\Metallica\1988-…And Justice For All.And Justice For All (BLCKND007RD-1) CD 9 - Live At Hammersmith Odeon, London England - October 10th, 1988 Disc 2.wav

Peak level 100.0 %
Extraction speed 1.8 X
Range quality 100.0 %
Test CRC ED9AD982
Copy CRC ED9AD982
Copy OK

No errors occurred


AccurateRip summary

Track 1 accurately ripped (confidence 7) [08644862] (AR v2)
Track 2 accurately ripped (confidence 7) [7DFB13DE] (AR v2)
Track 3 accurately ripped (confidence 7) [AA1F1B83] (AR v2)
Track 4 accurately ripped (confidence 7) [A1CC22BE] (AR v2)
Track 5 accurately ripped (confidence 7) [5C016B14] (AR v2)
Track 6 accurately ripped (confidence 7) [61C9A0BA] (AR v2)
Track 7 accurately ripped (confidence 7) [E10AE42A] (AR v2)
Track 8 accurately ripped (confidence 7) [BF112FFA] (AR v2)
Track 9 accurately ripped (confidence 7) [E0EA35FC] (AR v2)
Track 10 accurately ripped (confidence 7) [109500F8] (AR v2)
Track 11 accurately ripped (confidence 7) [60CBCAAA] (AR v2)
Track 12 accurately ripped (confidence 7) [FA961471] (AR v2)

All tracks accurately ripped

End of status report

==== Log checksum A8A339C245A56DF39A7EFA911AA825116612BC0E1162754B5C7E04E5440EA513 ====


[CUETools log; Date: 08.01.2019 10:32:57; Version: 2.1.4]
[AccurateRip ID: 00187e5a-00e457f6-bb0d160c] found.
Track [ CRC | V2 ] Status
01 [86d04d1f|08644862] (0+7/7) Accurately ripped
02 [d787d67a|7dfb13de] (0+7/7) Accurately ripped
03 [3839a7a4|aa1f1b83] (0+7/7) Accurately ripped
04 [f4776db4|a1cc22be] (0+7/7) Accurately ripped
05 [1816d646|5c016b14] (0+7/7) Accurately ripped
06 [1cdd4661|61c9a0ba] (0+7/7) Accurately ripped
07 [c991f62e|e10ae42a] (0+7/7) Accurately ripped
08 [7ce110bb|bf112ffa] (0+7/7) Accurately ripped
09 [9d4bceb8|e0ea35fc] (0+7/7) Accurately ripped
10 [1d36352f|109500f8] (0+7/7) Accurately ripped
11 [665ffe19|60cbcaaa] (0+7/7) Accurately ripped
12 [a6109757|fa961471] (0+7/7) Accurately ripped

Track Peak [ CRC32 ] [W/O NULL]
– 100,0 [ED9AD982] [E81D996C]
01 98,5 [2DCA214C] [D1FE4CFC]
02 98,5 [C7433CD3] [A0FE9E37]
03 98,1 [5CC46B58] [BA2DCB1F]
04 97,7 [F50DB257] [954060A4]
05 98,5 [C3E7E241] [DD2B90ED]
06 97,9 [5F0150EA] [9E626AD2]
07 97,5 [24AB39A4] [394873B9]
08 98,3 [944D9BCC] [79F43CC1]
09 97,6 [A26ECDAA] [8688ABCE]
10 100,0 [C51B6508] [5B2DE9FB]
11 98,4 [2E211C52] [06F8B4A0]
12 99,5 [AF3BFB1B] [9195231B]


Metallica ‎- ...And Justice For All (2018) [Deluxe Edition Box Set]

Tracklist CD10-11 - Live At Long Beach Arena:

01. Blackened (Live at Long Beach Arena) (02:02)
02. For Whom the Bell Tolls (Live at Long Beach Arena) (04:29)
03. Welcome Home (Sanitarium) (Live at Long Beach Arena) (06:11)
04. Leper Messiah (Live at Long Beach Arena) (05:45)
05. Harvester of Sorrow (Live at Long Beach Arena) (05:12)
06. Eye of the Beholder (Live at Long Beach Arena) (06:06)
07. Bass Solo (Live at Long Beach Arena) (06:18)
08. Master of Puppets (Live at Long Beach Arena) (07:29)
09. One (Live at Long Beach Arena) (08:09)
10. Seek & Destroy (Live at Long Beach Arena) (07:09)

Exact Audio Copy V1.1 from 23. June 2015

EAC extraction logfile from 4. January 2019, 11:26

Metallica / …And Justice For All (BLCKND007RD-1) CD 10 - Live At Long Beach Arena, Long Beach, CA - December 7th, 1988 Disc 1

Used drive : HL-DT-STBD-RE WH16NS40 Adapter: 5 ID: 0

Read mode : Secure
Utilize accurate stream : Yes
Defeat audio cache : Yes
Make use of C2 pointers : No

Read offset correction : 6
Overread into Lead-In and Lead-Out : No
Fill up missing offset samples with silence : Yes
Delete leading and trailing silent blocks : No
Null samples used in CRC calculations : Yes
Used interface : Installed external ASPI interface

Used output format : Internal WAV Routines
Sample format : 44.100 Hz; 16 Bit; Stereo


TOC of the extracted CD

Track | Start | Length | Start sector | End sector
––––––––––––––––––––––––––––-
1 | 0:00.00 | 2:01.49 | 0 | 9123
2 | 2:01.49 | 4:29.35 | 9124 | 29333
3 | 6:31.09 | 6:10.42 | 29334 | 57125
4 | 12:41.51 | 5:45.34 | 57126 | 83034
5 | 18:27.10 | 5:12.30 | 83035 | 106464
6 | 23:39.40 | 6:06.30 | 106465 | 133944
7 | 29:45.70 | 6:17.71 | 133945 | 162290
8 | 36:03.66 | 7:28.44 | 162291 | 195934
9 | 43:32.35 | 8:08.49 | 195935 | 232583
10 | 51:41.09 | 7:09.32 | 232584 | 264790


Range status and errors

Selected range

Filename Z:\data\hexonut\Seeding\Metallica\1988-…And Justice For All\2018-…And Justice For All [Blackened Records, US, BLCKND007RD-1, Deluxe]\And Justice For All (BLCKND007RD-1) CD 10 - Live At Long Beach Arena Disc 1.wav

Peak level 98.0 %
Extraction speed 7.6 X
Range quality 100.0 %
Test CRC B151A6AE
Copy CRC B151A6AE
Copy OK

No errors occurred


AccurateRip summary

Track 1 accurately ripped (confidence 7) [4DA3ED75] (AR v2)
Track 2 accurately ripped (confidence 7) [92697A7E] (AR v2)
Track 3 accurately ripped (confidence 7) [393FF910] (AR v2)
Track 4 accurately ripped (confidence 7) [24E1D2FA] (AR v2)
Track 5 accurately ripped (confidence 7) [6A3F4CD6] (AR v2)
Track 6 accurately ripped (confidence 7) [D96DA79D] (AR v2)
Track 7 accurately ripped (confidence 7) [3B388130] (AR v2)
Track 8 accurately ripped (confidence 7) [C1FD4406] (AR v2)
Track 9 accurately ripped (confidence 7) [F4736BDE] (AR v2)
Track 10 accurately ripped (confidence 7) [7EA8EC10] (AR v2)

All tracks accurately ripped

End of status report

==== Log checksum 39DABD6BF01499EFBE5F526D45B1061C5A176D39C6901F69B5753CA8986C1A8B ====


[CUETools log; Date: 08.01.2019 10:35:15; Version: 2.1.4]
[AccurateRip ID: 00137306-00a2263b-730dca0a] found.
Track [ CRC | V2 ] Status
01 [38749549|4da3ed75] (0+7/7) Accurately ripped
02 [52ea0ec5|92697a7e] (0+7/7) Accurately ripped
03 [dcfc829f|393ff910] (0+7/7) Accurately ripped
04 [5ff33e4e|24e1d2fa] (0+7/7) Accurately ripped
05 [07f4ab8c|6a3f4cd6] (0+7/7) Accurately ripped
06 [2ac55948|d96da79d] (0+7/7) Accurately ripped
07 [6facfc7b|3b388130] (0+7/7) Accurately ripped
08 [e175f692|c1fd4406] (0+7/7) Accurately ripped
09 [a666c237|f4736bde] (0+7/7) Accurately ripped
10 [fc48e3e1|7ea8ec10] (0+7/7) Accurately ripped

Track Peak [ CRC32 ] [W/O NULL] [ LOG ]
– 98,0 [B151A6AE] [5B14F458] CRC32
01 96,7 [E9C9CC9F] [74B6F839]
02 97,3 [25E59222] [78B67C58]
03 97,4 [51303659] [1FB13944]
04 98,0 [24A66428] [DBA2AC8C]
05 96,9 [1241B23F] [9019F6B3]
06 98,0 [F3C25DD7] [53381A34]
07 96,6 [F9093CBD] [1B02E42F]
08 97,4 [95CB30CA] [3E891E21]
09 96,9 [D6EC8702] [0F549086]
10 97,2 [7ECBBC3C] [679521CE]


01. …And Justice for All (Live at Long Beach Arena) (09:47)
02. Encore Jam (Live at Long Beach Arena) (00:49)
03. Creeping Death (Live at Long Beach Arena) (06:54)
04. Fade to Black (Live at Long Beach Arena) (06:33)
05. Guitar Solo (Live at Long Beach Arena) (05:53)
06. Battery (Live at Long Beach Arena) (04:45)
07. Last Caress (Live at UIC Pavilion) (01:20)
08. Am I Evil? (Live at UIC Pavilion) (03:45)
09. Whiplash (Live at UIC Pavilion) (03:52)

Exact Audio Copy V1.1 from 23. June 2015

EAC extraction logfile from 4. January 2019, 11:26

Metallica / …And Justice For All (BLCKND007RD-1) CD 11 - Live At Long Beach Arena, Long Beach, CA - December 7th, 1988 Disc 2 + More

Used drive : PLEXTOR CD-R PX-240A Adapter: 6 ID: 0

Read mode : Secure
Utilize accurate stream : Yes
Defeat audio cache : Yes
Make use of C2 pointers : No

Read offset correction : 6
Overread into Lead-In and Lead-Out : No
Fill up missing offset samples with silence : Yes
Delete leading and trailing silent blocks : No
Null samples used in CRC calculations : Yes
Used interface : Installed external ASPI interface

Used output format : Internal WAV Routines
Sample format : 44.100 Hz; 16 Bit; Stereo


TOC of the extracted CD

Track | Start | Length | Start sector | End sector
––––––––––––––––––––––––––––-
1 | 0:00.00 | 9:47.29 | 0 | 44053
2 | 9:47.29 | 0:49.33 | 44054 | 47761
3 | 10:36.62 | 6:54.20 | 47762 | 78831
4 | 17:31.07 | 6:32.43 | 78832 | 108274
5 | 24:03.50 | 5:53.13 | 108275 | 134762
6 | 29:56.63 | 4:44.59 | 134763 | 156121
7 | 34:41.47 | 1:19.47 | 156122 | 162093
8 | 36:01.19 | 3:45.03 | 162094 | 178971
9 | 39:46.22 | 3:52.15 | 178972 | 196386


Range status and errors

Selected range

Filename Z:\data\hexonut\Seeding\Metallica\1988-…And Justice For All\2018-…And Justice For All [Blackened Records, US, BLCKND007RD-1, Deluxe]\And Justice For All (BLCKND007RD-1) CD 11 - Live At Long Beach Arena Disc 2 + More.wav

Peak level 97.5 %
Extraction speed 8.4 X
Range quality 99.9 %
Test CRC 4FD83AAE
Copy CRC 4FD83AAE
Copy OK

No errors occurred


AccurateRip summary

Track 1 accurately ripped (confidence 7) [09C4E9F1] (AR v2)
Track 2 accurately ripped (confidence 7) [7EDD3D1A] (AR v2)
Track 3 accurately ripped (confidence 7) [4A5C8CE7] (AR v2)
Track 4 accurately ripped (confidence 7) [81003712] (AR v2)
Track 5 accurately ripped (confidence 7) [DC185184] (AR v2)
Track 6 accurately ripped (confidence 7) [2E42B9AD] (AR v2)
Track 7 accurately ripped (confidence 7) [351D0657] (AR v2)
Track 8 accurately ripped (confidence 7) [85A79BD3] (AR v2)
Track 9 accurately ripped (confidence 7) [E00177F1] (AR v2)

All tracks accurately ripped

End of status report

==== Log checksum 6CC9D413304EE420B3D0392E1BEB98FE118E3F5727DAE3C92E9D9B08A76C7BA0 ====


[CUETools log; Date: 08.01.2019 10:37:32; Version: 2.1.4]
[AccurateRip ID: 0010e53d-0077f2a4-870a3a09] found.
Track [ CRC | V2 ] Status
01 [4fd60733|09c4e9f1] (0+7/7) Accurately ripped
02 [ea1d5e72|7edd3d1a] (0+7/7) Accurately ripped
03 [bd0ebfe4|4a5c8ce7] (0+7/7) Accurately ripped
04 [b7a44a21|81003712] (0+7/7) Accurately ripped
05 [e07b8e66|dc185184] (0+7/7) Accurately ripped
06 [4f1f1101|2e42b9ad] (0+7/7) Accurately ripped
07 [12a06c41|351d0657] (0+7/7) Accurately ripped
08 [ad29f2a3|85a79bd3] (0+7/7) Accurately ripped
09 [d509c94c|e00177f1] (0+7/7) Accurately ripped

Track Peak [ CRC32 ] [W/O NULL] [ LOG ]
– 97,5 [4FD83AAE] [6CBCA99A] CRC32
01 97,5 [3E7F80E6] [19DC4600]
02 96,9 [3761234C] [F5C61390]
03 97,4 [236ECD07] [7B9FD145]
04 97,3 [53268080] [21F54903]
05 96,8 [634531C4] [BC2C9E00]
06 97,3 [1B4EC36C] [CD10166F]
07 96,7 [A9EA94DA] [D4E21798]
08 96,8 [25380B8E] [A2880B26]
09 96,6 [925969BE] [3EE6D5BC]


Metallica ‎- ...And Justice For All (2018) [Deluxe Edition Box Set]

Tracklist DVD1 - …And Camcorders For All & "One:

…And Camcorders For All

1 Intro
2 Barcelona
3 Leiden
4 San Francisco
5 San Antonio
6 Dallas
7 Philadelphia
8 Buffalo
9 Auckland
10 Osaka
11 Hoffman Estates
12 Richfield
13 Thornville
14 Greenville
15 Atlanta
16 Biloxi
17 Concord
18 Irvine (Night #2)
19 Irvine (Night #3)
20 São Paulo (Night #1)
21 São Paulo (Night #2)

"One" Videos

1 Of One Introduction With Lars
2 One (Music Videos)
3 One (Jammin' Version)(Music Videos)
4 One (Live At The 31st Annual Grammy Awards)

"ONE" B-ROLL

1 Intro
2 Band
3 Lars
4 Kirk
5 James
6 Jason
7More Band

Title: DVD1
Size: 7.74 Gb ( 8 119 210,00 KBytes ) - DVD-9
Enabled regions: 1, 2, 3, 4, 5, 6, 7, 8

VTS_01 :
Play Length: 00:00:17+{00:00:17}+{00:00:17}+{00:00:17}+{00:00:17}
Video: NTSC 16:9 (720x480) VBR, Auto Letterboxed
Audio:
English (Dolby AC3, 2 ch)

VTS_02 :
Play Length: 00:00:06
Video: NTSC 16:9 (720x480) VBR, Auto Letterboxed
Audio:
English (Dolby AC3, 2 ch)

VTS_03 :
Play Length: 00:30:57+{00:30:57}+{00:30:57}+{00:01:21}+{00:30:57}
Video: NTSC 4:3 (720x480) VBR
Audio:
English (Dolby AC3, 2 ch)

VTS_04 :
Play Length: 01:34:39+{01:34:39}+{01:34:39}+{01:34:39}
Video: NTSC 4:3 (720x480) VBR
Audio:
English (Dolby AC3, 2 ch)

VTS_05 :
Play Length: 00:25:03+{00:25:03}+{00:25:03}+{00:25:03}
Video: NTSC 4:3 (720x480) VBR
Audio:
English (Dolby AC3, 2 ch)


Metallica ‎- ...And Justice For All (2018) [Deluxe Edition Box Set]

Tracklist DVD2 - Live At Shoreline Amphitheatre, Mountain View, Ca - September 15th 1989:

1 The Ecstasy Of Gold
2 Blackened
3 For Whom The Bell Tolls
4 Welcome Home (Sanitarium)
5 Harvester of Sorrow
6 The Four Horsemen
7 The Thing That Should Not Be
8 Bass Solo
9 Master Of Puppets
10 Fade To Black
11 Seek & Destroy
12 …And Justice For All
13 One
14 Creeping Death
15 Guitar Solo
16 Battery
17 Encore Jam
18 Last Caress
19 Am I Evil?
20 Damage, Inc.
21 Blitzkrieg
22 Blitzkrieg

Title: DVD2
Size: 6.72 Gb ( 7 045 186,00 KBytes ) - DVD-9
Enabled regions: 1, 2, 3, 4, 5, 6, 7, 8

VTS_01 :
Play Length: 00:00:17
Video: NTSC 16:9 (720x480) VBR, Auto Letterboxed
Audio:
English (Dolby AC3, 2 ch)

VTS_02 :
Play Length: 00:00:06
Video: NTSC 16:9 (720x480) VBR, Auto Letterboxed
Audio:
English (Dolby AC3, 2 ch)

VTS_03 :
Play Length: 02:23:28+{02:23:28}
Video: NTSC 4:3 (720x480) VBR
Audio:
English (Dolby AC3, 2 ch)


Metallica ‎- ...And Justice For All (2018) [Deluxe Edition Box Set]

Tracklist DVD3 - Live At The Stone Balloon, Newark, DE - August 7th, 1988:

1 Backstage Shit
2 The Ecstasy of Gold
3 Creeping Death
4 For Whom The Bell Tolls
5 Welcome Home (Sanitarium)
6 The Four Horsemen
7 Harvester Of Sorrow
8 Harvester Of Sorrow
9 Bass Solo
10 Master Of Puppets
11 Fade To Black
12 No Remorse
13 Seek & Destroy
14 Last Caress
15 Am I Evil?
16 Motorbreath
17 Hit The Lights
18 Blitzkrieg
19 Damage, Inc.
20 Breadfan

Title: DVD3
Size: 7.01 Gb ( 7 348 928,00 KBytes ) - DVD-9
Enabled regions: 1, 2, 3, 4, 5, 6, 7, 8

VTS_01 :
Play Length: 00:00:17
Video: NTSC 16:9 (720x480) VBR, Auto Letterboxed
Audio:
English (Dolby AC3, 2 ch)

VTS_02 :
Play Length: 00:00:06
Video: NTSC 16:9 (720x480) VBR, Auto Letterboxed
Audio:
English (Dolby AC3, 2 ch)

VTS_03 :
Play Length: 02:09:29+{02:09:29}
Video: NTSC 4:3 (720x480) VBR
Audio:
English (Dolby AC3, 2 ch)


Metallica ‎- ...And Justice For All (2018) [Deluxe Edition Box Set]

Tracklist DVD4 - Justice On Wheels, Masa Ito Interviews, Raw Live Footage:

Justice On Wheels - A Muchmusic Documentary
1 Intro
2 The Road Crew
3 The Fans
4 The Band
5 The Video

Masa Ito Interviews
6 Lars
7 James
8 Jason
9 Kirk

Raw Live Footage (Live At JFL Stadium, Philadelphia, PA - June 11th ,1988)
10 Whiplash
11 Fade To Black
12 Seek & Destroy

Raw Live Footage (Live At RPI Field House, Troy, NY - March 15th, 1989)
13 Master Of Puppets
14 One

Raw Live Footage (Live At Copps Coliseum, Hamilton, Ontario - April 8th, 1989

15 Master Of Puppets
16 One
17 Seek & Destroy

Title: DVD4
Size: 7.25 Gb ( 7 603 286,00 KBytes ) - DVD-9
Enabled regions: 1, 2, 3, 4, 5, 6, 7, 8

VTS_01 :
Play Length: 00:00:17
Video: NTSC 16:9 (720x480) VBR, Auto Letterboxed
Audio:
English (Dolby AC3, 2 ch)

VTS_02 :
Play Length: 00:00:06
Video: NTSC 16:9 (720x480) VBR, Auto Letterboxed
Audio:
English (Dolby AC3, 2 ch)

VTS_03 :
Play Length: 00:43:19+{00:43:19}+{00:43:19}+{00:43:19}
Video: NTSC 4:3 (720x480) VBR
Audio:
English (Dolby AC3, 2 ch)

VTS_04 :
Play Length: 00:47:13+{00:47:13}+{00:47:13}+{00:47:13}
Video: NTSC 4:3 (720x480) VBR
Audio:
English (Dolby AC3, 2 ch)

VTS_05 :
Play Length: 00:09:04+{00:09:04}+{00:09:04}+{00:09:04}
Video: NTSC 4:3 (720x480) VBR
Audio:
English (Dolby AC3, 2 ch)

VTS_06 :
Play Length: 00:17:54+{00:17:54}+{00:17:54}+{00:17:54}
Video: NTSC 4:3 (720x480) VBR
Audio:
English (Dolby AC3, 2 ch)

VTS_07 :
Play Length: 00:19:16+{00:19:16}+{00:19:16}+{00:19:16}
Video: NTSC 4:3 (720x480) VBR
Audio:
English (Dolby AC3, 2 ch)

VTS_08 :
Play Length: 00:00:44
Video: NTSC 4:3 (720x480) VBR
Audio:
English (Dolby AC3, 2 ch)


Metallica ‎- ...And Justice For All (2018) [Deluxe Edition Box Set]

Metallica ‎- ...And Justice For All (2018) [Deluxe Edition Box Set]

Metallica ‎- ...And Justice For All (2018) [Deluxe Edition Box Set]

Metallica ‎- ...And Justice For All (2018) [Deluxe Edition Box Set]

Metallica ‎- ...And Justice For All (2018) [Deluxe Edition Box Set]

* * *

Metallica ‎- ...And Justice For All (2018) [Deluxe Edition Box Set]

Tracklist LP01-02 - …And Justice For All 2018 Reissue:

A1 Blackened 6:40
A2 …And Justice For All 9:44
B1 Eye Of The Beholder 6:25
B2 One 7:24
C1 The Shortest Straw 6:35
C2 Harvester Of Sorrow 5:42
C3 The Frayed Ends Of Sanity 7:40
D1 To Live Is To Die 9:48
D2 Dyers Eve 5:12

foobar2000 1.4 / Dynamic Range Meter 1.1.1
log date: 2019-01-09 03:43:48

––––––––––––––––––––––––––––––––––––––––
Analyzed: Metallica / …And Justice For All
––––––––––––––––––––––––––––––––––––––––

DR Peak RMS Duration Track
––––––––––––––––––––––––––––––––––––––––
DR13 -0.07 dB -14.96 dB 6:41 01-Blackened
DR13 -0.55 dB -15.28 dB 9:44 02-…And Justice For All
DR12 -0.08 dB -13.93 dB 6:24 03-Eye Of The Beholder
DR13 -0.15 dB -15.65 dB 7:22 04-One
DR12 -0.68 dB -14.80 dB 6:34 05-The Shortest Straw
DR13 -0.11 dB -14.89 dB 5:44 06-Harvester Of Sorrow
DR13 -0.50 dB -15.70 dB 7:41 07-The Frayed Ends Of Sanity
DR13 -0.06 dB -15.41 dB 9:47 08-To Live Is To Die
DR13 -0.02 dB -14.20 dB 5:13 09-Dyers Eve
––––––––––––––––––––––––––––––––––––––––

Number of tracks: 9
Official DR value: DR13

Samplerate: 96000 Hz
Channels: 2
Bits per sample: 24
Bitrate: 3195 kbps
Codec: FLAC
================================================================================



Tracklist LP03-04 - …And Justice For All 2018 Remaster
:


A1 Blackened 6:40
A2 …And Justice For All 9:44
B1 Eye Of The Beholder 6:25
B2 One 7:24
C1 The Shortest Straw 6:35
C2 Harvester Of Sorrow 5:42
C3 The Frayed Ends Of Sanity 7:40
D1 To Live Is To Die 9:48
D2 Dyers Eve 5:12

foobar2000 1.4 / Dynamic Range Meter 1.1.1
log date: 2019-01-09 03:45:00

––––––––––––––––––––––––––––––––––––––––
Analyzed: Metallica / …And Justice For All
––––––––––––––––––––––––––––––––––––––––

DR Peak RMS Duration Track
––––––––––––––––––––––––––––––––––––––––
DR11 -0.35 dB -13.02 dB 6:42 01-Blackened
DR11 -0.82 dB -13.45 dB 9:44 02-…And Justice For All
DR11 -0.81 dB -12.96 dB 6:26 03-Eye Of The Beholder
DR11 -0.86 dB -14.45 dB 7:24 04-One
DR11 -0.53 dB -12.80 dB 6:35 05-The Shortest Straw
DR10 -0.61 dB -12.79 dB 5:45 06-Harvester Of Sorrow
DR10 -0.13 dB -12.55 dB 7:41 07-The Frayed Ends Of Sanity
DR11 -0.08 dB -14.74 dB 9:47 08-To Live Is To Die
DR10 -0.08 dB -12.35 dB 5:14 09-Dyers Eve
––––––––––––––––––––––––––––––––––––––––

Number of tracks: 9
Official DR value: DR11

Samplerate: 96000 Hz
Channels: 2
Bits per sample: 24
Bitrate: 3299 kbps
Codec: FLAC
================================================================================




Original ripper: letemeatpvc
Original format: 24/96
Vinyl Condition: Mint
Cleaning:
Direct Drive Turntable: Technics SL1210GR
Cartridge: Hana SL
Amplifier: Musical Fidelity LX LPS
ADC: Focusrite Scarlett 2i4 2nd Gen
Postprocessing: iZotope RX 6 - Minor click removal

Downsampled to 16/44

All thanks go to hexonut, letemeatpvc & oleg-1937

Metallica in my Blog

Download Metallica ‎- …And Justice For All (2018):