Subcategories

Peter Green Splinter Group - The Best Of Peter Green Splinter Group (2002) {2004, Reissue}

Posted By: popsakov
Peter Green Splinter Group - The Best Of Peter Green Splinter Group (2002) {2004, Reissue}

Peter Green Splinter Group - The Best Of Peter Green Splinter Group (2002) {2004, Reissue}
2CD | EAC Rip | FLAC (Img) + Cue + Log ~ 534 Mb | MP3 CBR320 ~ 226 Mb
Full Scans | 01:12:20 + 00:20:02 | RAR 5% Recovery
British Blues, Electric Blues, Blues Rock | Snapper Music / Artisan Recordings #SMADD849

Peter Green is one of the best guitarists of his generation and after a period in the wilderness he re-emerged in 1997 to critical acclaim with the Splinter Group. The material Peter Green recorded with the Splinter Group on five albums for Snapper Music represents a true return to form for the ex-Fleetwood Mac guitarist, including the W.C. Handy award winning album The Robert Johnson Songbook. This new vitality was confirmed on the classic limited edition double live album Soho Session (sold out week one), recorded at the world-famous Ronnie Scott's club. Then his first original material since the early '80s was presented on Destiny Road, produced by Cream lyricist Pete Brown. In 2000, Peter Green released the second instalment of the Robert Johnson songbook Hotfoot Powder, boasting guest appearances from Buddy Guy, Otis Rush, Dr John, Hubert Sumlin, Joe Louis Walker and Honeyboy Edwards. The 15 tracks on The Best Of The Peter Green Splinter Group, comprising the best material from the five Splinter Group albums, provide the perfect reintroduction to the man who has inspired a generation of guitarists and blues lovers alike. In addition to the 15 tracks highlighting the best of Peter Green's renaissance, the package includes a special bonus disc revisiting five classic tracks from Green's early career.

***************

Track List CD1:

01. Burglar (Destiny Road) [5:55]
02. I'm A Steady Rollin Man (Hot Foot Powder) [3:32]
03. Big Change Is Gonna Come (Destiny Road) [5:03]
04. Phonograph Blues (Robert Johnson Songbook) [3:26]
05. Help Me (Soho Live) [4:37]
06. Sweet Home Chicago (Robert Johnson Songbook) [4:14]
07. Hitch Hiking Woman (Peter Green Splinter Group) [3:45]
08. Tribal Dance (Destiny Road) [5:30]
09. Homework (Soho Live) [3:41]
10. Love In Vain Blues (Robert Johnson Songbook) [4:45]
11. You'll Be Sorry Someday (Destiny Road) [6:31]
12. Look On Yonder Wall (Peter Green Splinter Group) [6:07]
13. Traveling Riverside Blues (Hot Foot Powder) [4:05]
14. Goin Down (Soho Live) [6:28]
15. Hiding In Shadows (Destiny Road) [4:40]

Exact Audio Copy V1.0 beta 1 from 15. November 2010

EAC extraction logfile from 19. September 2011, 20:24

Peter Green Splinter Group / The Best Of (CD 1)

Used drive : PIONEER DVD-RW DVR-219L Adapter: 4 ID: 0

Read mode : Secure
Utilize accurate stream : Yes
Defeat audio cache : Yes
Make use of C2 pointers : No

Read offset correction : 6
Overread into Lead-In and Lead-Out : No
Fill up missing offset samples with silence : Yes
Delete leading and trailing silent blocks : No
Null samples used in CRC calculations : Yes
Used interface : Native Win32 interface for Win NT & 2000
Gap handling : Appended to previous track

Used output format : User Defined Encoder
Selected bitrate : 256 kBit/s
Quality : High
Add ID3 tag : No
Command line compressor : D:\Exact Audio Copy\flac.exe
Additional command line options : -8 -V -T "ARTIST=%a" -T "TITLE=%t" -T "ALBUM=%g" -T "DATE=%y" -T "TRACKNUMBER=%n" -T "TOTALTRACKS=%x" -T "GENRE=%m" -T "ALBUMARTIST=%v" -T "ALBUM ARTIST=%v" -T "COMMENT=EAC Secure Mode, Test & Copy, AccurateRip, FLAC -8" %s


TOC of the extracted CD

Track | Start | Length | Start sector | End sector
––––––––––––––––––––––––––––-
1 | 0:00.00 | 5:57.70 | 0 | 26844
2 | 5:57.70 | 3:33.74 | 26845 | 42893
3 | 9:31.69 | 5:04.33 | 42894 | 65726
4 | 14:36.27 | 3:28.63 | 65727 | 81389
5 | 18:05.15 | 4:39.72 | 81390 | 102386
6 | 22:45.12 | 4:16.58 | 102387 | 121644
7 | 27:01.70 | 3:48.25 | 121645 | 138769
8 | 30:50.20 | 5:31.50 | 138770 | 163644
9 | 36:21.70 | 3:42.00 | 163645 | 180294
10 | 40:03.70 | 4:48.32 | 180295 | 201926
11 | 44:52.27 | 6:33.43 | 201927 | 231444
12 | 51:25.70 | 6:09.00 | 231445 | 259119
13 | 57:34.70 | 4:08.51 | 259120 | 277770
14 | 61:43.46 | 6:29.24 | 277771 | 306969
15 | 68:12.70 | 4:40.37 | 306970 | 328006


Track 1

Filename D:\01 - Burglar (Destiny Road).wav

Pre-gap length 0:00:02.00

Peak level 47.7 %
Extraction speed 1.1 X
Track quality 99.9 %
Test CRC 7ECE1B05
Copy CRC 7ECE1B05
Accurately ripped (confidence 5) [CA435FA1]
Copy OK

Track 2

Filename D:\02 - I'm A Steady Rollin Man (Hot Foot Powder).wav

Pre-gap length 0:00:02.40

Peak level 100.0 %
Extraction speed 1.2 X
Track quality 100.0 %
Test CRC F9BE8A2A
Copy CRC F9BE8A2A
Accurately ripped (confidence 5) [645EDA7B]
Copy OK

Track 3

Filename D:\03 - Big Change Is Gonna Come (Destiny Road).wav

Pre-gap length 0:00:02.35

Peak level 50.9 %
Extraction speed 1.4 X
Track quality 100.0 %
Test CRC B59C9CCB
Copy CRC B59C9CCB
Accurately ripped (confidence 5) [968880C5]
Copy OK

Track 4

Filename D:\04 - Phonograph Blues (Robert Johnson Songbook).wav

Pre-gap length 0:00:01.63

Peak level 100.0 %
Extraction speed 1.4 X
Track quality 100.0 %
Test CRC 69981135
Copy CRC 69981135
Accurately ripped (confidence 5) [EFD0B900]
Copy OK

Track 5

Filename D:\05 - Help Me (Soho Live).wav

Pre-gap length 0:00:02.70

Peak level 78.2 %
Extraction speed 1.6 X
Track quality 100.0 %
Test CRC 17D8912D
Copy CRC 17D8912D
Accurately ripped (confidence 4) [994C1DF0]
Copy OK

Track 6

Filename D:\06 - Sweet Home Chicago (Robert Johnson Songbook).wav

Pre-gap length 0:00:03.02

Peak level 100.0 %
Extraction speed 1.6 X
Track quality 100.0 %
Test CRC DEC4E10F
Copy CRC DEC4E10F
Accurately ripped (confidence 5) [92672DF8]
Copy OK

Track 7

Filename D:\07 - Hitch Hiking Woman (Peter Green Splinter Group).wav

Pre-gap length 0:00:02.21

Peak level 65.4 %
Extraction speed 1.7 X
Track quality 100.0 %
Test CRC 8546745B
Copy CRC 8546745B
Accurately ripped (confidence 5) [C88A1E30]
Copy OK

Track 8

Filename D:\08 - Tribal Dance (Destiny Road).wav

Pre-gap length 0:00:02.67

Peak level 51.7 %
Extraction speed 1.8 X
Track quality 100.0 %
Test CRC F22C105B
Copy CRC F22C105B
Accurately ripped (confidence 5) [05F6F94E]
Copy OK

Track 9

Filename D:\09 - Homework (Soho Live).wav

Pre-gap length 0:00:02.02

Peak level 88.6 %
Extraction speed 1.8 X
Track quality 100.0 %
Test CRC 9D5DF734
Copy CRC 9D5DF734
Accurately ripped (confidence 5) [BD88FEFF]
Copy OK

Track 10

Filename D:\10 - Love In Vain Blues (Robert Johnson Songbook).wav

Pre-gap length 0:00:00.66

Peak level 100.0 %
Extraction speed 2.0 X
Track quality 100.0 %
Test CRC 02932E80
Copy CRC 02932E80
Accurately ripped (confidence 5) [75F60166]
Copy OK

Track 11

Filename D:\11 - You'll Be Sorry Someday (Destiny Road).wav

Pre-gap length 0:00:03.12

Peak level 49.2 %
Extraction speed 2.1 X
Track quality 100.0 %
Test CRC E55C755E
Copy CRC E55C755E
Accurately ripped (confidence 5) [3A937AC4]
Copy OK

Track 12

Filename D:\12 - Look On Yonder Wall (Peter Green Splinter Group).wav

Pre-gap length 0:00:02.23

Peak level 92.7 %
Extraction speed 2.2 X
Track quality 100.0 %
Test CRC BD7318B1
Copy CRC BD7318B1
Accurately ripped (confidence 5) [B80CC70D]
Copy OK

Track 13

Filename D:\13 - Traveling Riverside Blues (Hot Foot Powder).wav

Pre-gap length 0:00:02.07

Peak level 100.0 %
Extraction speed 2.2 X
Track quality 100.0 %
Test CRC 5F99EFD9
Copy CRC 5F99EFD9
Accurately ripped (confidence 5) [22A784AF]
Copy OK

Track 14

Filename D:\14 - Goin Down (Soho Live).wav

Pre-gap length 0:00:03.37

Peak level 84.6 %
Extraction speed 2.4 X
Track quality 100.0 %
Test CRC 4C63A54B
Copy CRC 4C63A54B
Accurately ripped (confidence 4) [8C26DE66]
Copy OK

Track 15

Filename D:\15 - Hiding In Shadows (Destiny Road).wav

Pre-gap length 0:00:01.24

Peak level 47.1 %
Extraction speed 2.4 X
Track quality 100.0 %
Test CRC 6223A483
Copy CRC 6223A483
Accurately ripped (confidence 4) [5B130A94]
Copy OK


All tracks accurately ripped

No errors occurred

End of status report

==== Log checksum 2232B5A541304CE978B43C6DF6E4A5771399A2042203604F81C6DD1485EE6127 ====

[CUETools log; Date: 14.10.2020 22:57:19; Version: 2.1.6]
[CTDB TOCID: OKUsquycu4.Q5e58g.EmB0O3PWU-] found.
Track | CTDB Status
1 | (52/53) Accurately ripped
2 | (52/53) Accurately ripped
3 | (52/53) Accurately ripped
4 | (52/53) Accurately ripped
5 | (52/53) Accurately ripped
6 | (51/53) Accurately ripped
7 | (51/53) Accurately ripped
8 | (52/53) Accurately ripped
9 | (52/53) Accurately ripped
10 | (51/53) Accurately ripped
11 | (51/53) Accurately ripped
12 | (51/53) Accurately ripped
13 | (52/53) Accurately ripped
14 | (44/53) Accurately ripped
15 | (46/53) Accurately ripped
[AccurateRip ID: 00269646-01b7a4f8-e811150f] found.
Track [ CRC | V2 ] Status
01 [ca435fa1|53ae990a] (05+00/39) Accurately ripped
02 [645eda7b|a00c0ad7] (05+00/40) Accurately ripped
03 [968880c5|9fda27c3] (05+00/39) Accurately ripped
04 [efd0b900|579d8956] (05+00/39) Accurately ripped
05 [994c1df0|83dac745] (04+00/39) Accurately ripped
06 [92672df8|f1c1e700] (05+00/40) Accurately ripped
07 [c88a1e30|fa81237c] (05+00/40) Accurately ripped
08 [05f6f94e|d9e153ce] (05+00/40) Accurately ripped
09 [bd88feff|58c8de96] (05+00/40) Accurately ripped
10 [75f60166|aab3d611] (05+00/40) Accurately ripped
11 [3a937ac4|15225b3d] (05+00/40) Accurately ripped
12 [b80cc70d|4ad491d7] (05+00/39) Accurately ripped
13 [22a784af|53737e4a] (05+00/39) Accurately ripped
14 [8c26de66|6da346c7] (04+00/39) Accurately ripped
15 [5b130a94|e723d62c] (04+00/38) Accurately ripped
Offsetted by 664:
01 [c44cdc21] (15/39) Accurately ripped
02 [e8f4bfbb] (15/40) Accurately ripped
03 [84c276c5] (15/39) Accurately ripped
04 [709d1138] (15/39) Accurately ripped
05 [8c13f870] (15/39) Accurately ripped
06 [e67a5528] (15/40) Accurately ripped
07 [cd550098] (15/40) Accurately ripped
08 [c7ba489e] (15/40) Accurately ripped
09 [dec7a8cf] (15/40) Accurately ripped
10 [da82df1e] (15/40) Accurately ripped
11 [10cb2dc4] (15/40) Accurately ripped
12 [f390a5f5] (14/39) Accurately ripped
13 [7efbf187] (15/39) Accurately ripped
14 [78771cc6] (15/39) Accurately ripped
15 [569d9294] (15/38) Accurately ripped
Offsetted by 6:
01 [bac9a0c1] (00/39) No match
02 [96eb00cb] (00/40) No match
03 [36c21645] (00/39) No match
04 [a0c950ee] (00/39) No match
05 [eae9ae90] (00/39) No match (V2 was not tested)
06 [1a1a3e84] (00/40) No match
07 [0baacb6a] (00/40) No match
08 [b2201062] (00/40) No match
09 [b55a86b3] (00/40) No match
10 [af28a0b4] (00/40) No match
11 [ba32d384] (00/40) No match
12 [0e2d9567] (00/39) No match
13 [134bc045] (00/39) No match
14 [aad13b7e] (00/39) No match
15 [83e6cc94] (00/38) No match

Track Peak [ CRC32 ] [W/O NULL] [ LOG ]
– 100,0 [279EA44B] [0EAAF180]
01 47,7 [7ECE1B05] [A44FFF82] CRC32
02 100,0 [F9BE8A2A] [E95F0035] CRC32
03 50,9 [B59C9CCB] [F6CCCD0D] CRC32
04 100,0 [69981135] [2361A994] CRC32
05 78,2 [17D8912D] [EAEEFA8B] CRC32
06 100,0 [DEC4E10F] [6A2DF62A] CRC32
07 65,4 [8546745B] [F254AD7A] CRC32
08 51,7 [F22C105B] [E3FE79DF] CRC32
09 88,5 [9D5DF734] [D2AEEC17] CRC32
10 100,0 [02932E80] [717B48AA] CRC32
11 49,2 [E55C755E] [DF907213] CRC32
12 92,7 [BD7318B1] [0FA4C24F] CRC32
13 100,0 [5F99EFD9] [EB8A5986] CRC32
14 84,6 [4C63A54B] [D947AAB2] CRC32
15 47,1 [6223A483] [A64F87B4] CRC32

Track List CD2

01. Albatross [3:21]
02. Green Manalishi [5:26]
03. Rattlesnake Shake [5:00]
04. Supernatural [3:12]
05. Man Of The World [3:05]

Exact Audio Copy V1.0 beta 1 from 15. November 2010

EAC extraction logfile from 19. September 2011, 21:13

Peter Green Splinter Group / The Best Of (Bonus Disc)

Used drive : PIONEER DVD-RW DVR-219L Adapter: 4 ID: 0

Read mode : Secure
Utilize accurate stream : Yes
Defeat audio cache : Yes
Make use of C2 pointers : No

Read offset correction : 6
Overread into Lead-In and Lead-Out : No
Fill up missing offset samples with silence : Yes
Delete leading and trailing silent blocks : No
Null samples used in CRC calculations : Yes
Used interface : Native Win32 interface for Win NT & 2000
Gap handling : Appended to previous track

Used output format : User Defined Encoder
Selected bitrate : 256 kBit/s
Quality : High
Add ID3 tag : No
Command line compressor : D:\Exact Audio Copy\flac.exe
Additional command line options : -8 -V -T "ARTIST=%a" -T "TITLE=%t" -T "ALBUM=%g" -T "DATE=%y" -T "TRACKNUMBER=%n" -T "TOTALTRACKS=%x" -T "GENRE=%m" -T "ALBUMARTIST=%v" -T "ALBUM ARTIST=%v" -T "COMMENT=EAC Secure Mode, Test & Copy, AccurateRip, FLAC -8" %s


TOC of the extracted CD

Track | Start | Length | Start sector | End sector
––––––––––––––––––––––––––––-
1 | 0:00.00 | 3:22.38 | 0 | 15187
2 | 3:22.38 | 5:27.45 | 15188 | 39757
3 | 8:50.08 | 5:01.38 | 39758 | 62370
4 | 13:51.46 | 3:13.29 | 62371 | 76874
5 | 17:05.00 | 3:04.45 | 76875 | 90719


Track 1

Filename D:\01 - Albatross.wav

Pre-gap length 0:00:02.00

Peak level 100.0 %
Extraction speed 0.9 X
Track quality 100.0 %
Test CRC C3D39527
Copy CRC C3D39527
Accurately ripped (confidence 6) [1E8526A7]
Copy OK

Track 2

Filename D:\02 - Green Manalishi.wav

Pre-gap length 0:00:01.64

Peak level 70.8 %
Extraction speed 1.1 X
Track quality 100.0 %
Test CRC 52AF9178
Copy CRC 52AF9178
Accurately ripped (confidence 6) [F6654E52]
Copy OK

Track 3

Filename D:\03 - Rattlesnake Shake.wav

Pre-gap length 0:00:01.68

Peak level 59.0 %
Extraction speed 1.1 X
Track quality 99.9 %
Test CRC B4FECE13
Copy CRC B4FECE13
Accurately ripped (confidence 6) [CB0AAEFE]
Copy OK

Track 4

Filename D:\04 - Supernatural.wav

Pre-gap length 0:00:01.64

Peak level 97.7 %
Extraction speed 1.2 X
Track quality 100.0 %
Test CRC 6F2B80F6
Copy CRC 6F2B80F6
Accurately ripped (confidence 6) [3C03B60C]
Copy OK

Track 5

Filename D:\05 - Man Of The World.wav

Pre-gap length 0:00:01.64

Peak level 57.3 %
Extraction speed 1.3 X
Track quality 100.0 %
Test CRC AEB90C38
Copy CRC AEB90C38
Accurately ripped (confidence 5) [6E7BD927]
Copy OK


All tracks accurately ripped

No errors occurred

End of status report

==== Log checksum 3C14F7148A10C4E3F9AC6930A2B1B260EC8C517701510C06201AF8468C7B2EA7 ====

[CUETools log; Date: 14.10.2020 22:58:13; Version: 2.1.6]
[CTDB TOCID: NB3y38LfAri4SXnF3LMC5_qZyoQ-] found.
Track | CTDB Status
1 | (38/40) Accurately ripped
2 | (39/40) Accurately ripped
3 | (39/40) Accurately ripped
4 | (39/40) Accurately ripped
5 | (40/40) Accurately ripped
[AccurateRip ID: 000458f0-001442d6-2a04b905] found.
Track [ CRC | V2 ] Status
01 [1e8526a7|0c883a6f] (06+00/37) Accurately ripped
02 [f6654e52|7a2a5902] (06+00/37) Accurately ripped
03 [cb0aaefe|347c4dab] (06+00/37) Accurately ripped
04 [3c03b60c|7e9567a7] (06+00/36) Accurately ripped
05 [6e7bd927|8b0e9250] (05+00/34) Accurately ripped
Offsetted by 664:
01 [88f20787] (12/37) Accurately ripped
02 [4b93474a] (12/37) Accurately ripped
03 [4741e1ee] (12/37) Accurately ripped
04 [451e7364] (12/36) Accurately ripped
05 [be178fb7] (12/34) Accurately ripped

Track Peak [ CRC32 ] [W/O NULL] [ LOG ]
– 100,0 [78179FBF] [97636A73]
01 100,0 [C3D39527] [B74285DC] CRC32
02 70,8 [52AF9178] [BB69AF64] CRC32
03 59,0 [B4FECE13] [C97C2B83] CRC32
04 97,7 [6F2B80F6] [33CE828E] CRC32
05 57,3 [AEB90C38] [F676BB1A] CRC32

Peter Green Splinter Group - The Best Of Peter Green Splinter Group (2002) {2004, Reissue}


All thanks go to the original ripper(s) …

>>> Peter Green in my Blog <<<

DOWNLOAD: