Subcategories

Robin Trower - The Studio Albums 1973-1983 (2019) {10CD Box Set}

Posted By: popsakov
Robin Trower - The Studio Albums 1973-1983 (2019) {10CD Box Set}

Robin Trower - The Studio Albums 1973-1983 (2019) {10CD Box Set}
EAC Rip | FLAC (Img) + Cue + Log ~ 2,48 Gb | MP3 CBR320 ~ 0,98 Gb
Covers Included / Scans (Box) ~ 10 Mb | RAR 5% Recovery
Blues Rock, Hard Rock, Psychedelic Rock | Chrysalis #CRB1075

Ten-disc box set of all Robin Trower's album on the Chrysalis label from 1973-1983. For existing fans and those new to Trower, the set is a comprehensive look back over classic blues-rock albums with a psychedelic feel now and again. Robin Trower had an impressive run of albums between 1973 to 1983 for Chrysalis Records. The ex-Procol Harum guitarist released his debut solo album, Twice Removed From Yesterday, in 1973. This kicked off a string of 10 albums over the course of the next ten years including collaborations with Jack Bruce (Cream). Collected here for the first time these albums are a reminder of Robin's amazing guitar style and songwriting ability. 10CD's presented in card sleeves housed in a clamshell box.

Throughout his long and winding solo career, guitarist Robin Trower has had to endure countless comparisons to Jimi Hendrix due to his uncanny ability to channel Hendrix's bluesy/psychedelic, Fender Strat-fueled playing style. Born on March 9, 1945 in Catford, England, Trower spent the early '60s playing guitar in various London-based outfits, the most successful being the R&B group the Paramounts, who specialized mostly in covers, but managed to issue several singles between 1963 and 1965. It wasn't until 1967 that Trower received his big break, however, when he joined Procol Harum. The group had just scored a worldwide smash hit with "A Whiter Shade of Pale," but the only problem was that the band's leader, singer/pianist Gary Brooker, didn't have a proper band to back him. Brooker was previously a bandmate of Trower's in the Paramounts, and offered the guitar slot in his new fast-rising project to his old friend. As a result, Trower appeared on such Procol Harum classics as 1967's Procol Harum, 1968's Shine on Brightly, 1969's A Salty Dog, 1970's Home (which spawned the popular Trower tune "Whiskey Train"), and 1971's Broken Barricades.

While Procol Harum helped launch Trower's career, the guitarist realized there was limited space for his guitar work and eventually left for a solo career. Enlisting singer/bassist James Dewar and drummer Reg Isidore (who was soon replaced by Bill Lordan) as a backing band, Trower issued his solo debut, Twice Removed from Yesterday, in 1973. The album barely made a dent in the U.S. charts, but that would change soon enough with his next release, 1974's Bridge of Sighs. With rock fans still reeling from Hendrix's death a few years earlier, the album sounded eerily similar to the late guitarist's work with the Jimi Hendrix Experience (especially his 1968 release, Electric Ladyland), and as a result, the album skyrocketed into the U.S. Top Ten, peaking at number seven.

Although Bridge of Sighs was to be his most popular solo release, Trower's stock continued to rise throughout the mid-'70s, as he became an arena headliner on the strength of such hit albums as 1975's For Earth Below, 1976's Robin Trower Live!, and Long Misty Days, plus 1977's In City Dreams. Further releases followed, yet by the dawn of the '80s, it became quite obvious that Trower's star was rapidly fading, as each album sold less than its predecessor. A brief union with ex-Cream bassist/vocalist Jack Bruce spawned a pair of releases, 1981's B.L.T. and 1982's Truce, before Trower returned to his solo career.

The '80s saw Trower make efforts to expand his audience with several releases that attempted to update his blues-rock style (such as 1987's slickly produced Passion), but none returned the guitarist back to the top of the charts. During the early '90s, Trower returned to Procol Harum for a brief reunion (1991's Prodigal Stranger), before backing ex-Roxy Music singer Bryan Ferry on a few releases (1993's Taxi and 1994's Mamouna, the latter of which featured a Trower co-producer credit). Trower continued to issue solo albums at the dawn of the 21st century (2000's Go My Way), and a steady stream of live sets and compilations also appeared. Trower returned to work with Ferry once more on 2002's Frantic (again earning a production credit). Reassembling most of his late-'80s band, Trower released Living Out of Time in 2004 and returned with Another Days Blues in late 2005. What Lies Beneath appeared in 2009 from V-12 Records. Over the next several years, Trower recorded steadily, issuing albums every few years: The Playful Heart appeared in 2010, followed by Roots and Branches in 2013, Something's About to Change in 2015, and Where You Are Going To in 2016. Trower's prolific run continued in 2017 with Time and Emotion which debuted at number two on Billboard's blues chart, and in 2019 with Coming Closer to the Day.

~ Greg Prato, All Music

***************

Track List CD1 - Twice Removed From Yesterday (1973):

01. I Can't Wait Much Longer [0:05:25.45]
02. Daydream [0:06:27.46]
03. Hannah [0:05:29.65]
04. Man Of The World [0:02:43.70]
05. I Can't Stand It [0:03:42.67]
06. Rock Me Baby [0:04:20.73]
07. Twice Removed From Yesterday [0:03:58.13]
08. Sinner's Song [0:05:24.47]
09. Ballerina [0:03:47.34]

Exact Audio Copy V1.3 from 2. September 2016

EAC extraction logfile from 16. August 2020, 11:28

Robin Trower / Twice Removed From Yesterday

Used drive : TSSTcorpCDDVDW SE-S084C Adapter: 0 ID: 0

Read mode : Secure
Utilize accurate stream : Yes
Defeat audio cache : Yes
Make use of C2 pointers : No

Read offset correction : 6
Overread into Lead-In and Lead-Out : No
Fill up missing offset samples with silence : Yes
Delete leading and trailing silent blocks : No
Null samples used in CRC calculations : Yes
Used interface : Installed external ASPI interface

Used output format : User Defined Encoder
Selected bitrate : 128 kBit/s
Quality : High
Add ID3 tag : No
Command line compressor : D:\Codec\flac.exe
Additional command line options : -V -8 -T "Date=%year%" -T "Genre=%genre%" %source%


TOC of the extracted CD

Track | Start | Length | Start sector | End sector
––––––––––––––––––––––––––––-
1 | 0:00.00 | 5:25.45 | 0 | 24419
2 | 5:25.45 | 6:27.46 | 24420 | 53490
3 | 11:53.16 | 5:29.65 | 53491 | 78230
4 | 17:23.06 | 2:43.70 | 78231 | 90525
5 | 20:07.01 | 3:42.67 | 90526 | 107242
6 | 23:49.68 | 4:20.73 | 107243 | 126815
7 | 28:10.66 | 3:58.13 | 126816 | 144678
8 | 32:09.04 | 5:24.47 | 144679 | 169025
9 | 37:33.51 | 3:47.34 | 169026 | 186084


Range status and errors

Selected range

Filename D:\EAC\Robin Trower - Twice Removed From Yesterday.wav

Peak level 99.1 %
Extraction speed 4.0 X
Range quality 100.0 %
Test CRC D82A7013
Copy CRC D82A7013
Copy OK

No errors occurred


AccurateRip summary

Track 1 accurately ripped (confidence 25) [191076FB] (AR v2)
Track 2 accurately ripped (confidence 25) [3C84E90E] (AR v2)
Track 3 accurately ripped (confidence 25) [9FD8D0FF] (AR v2)
Track 4 accurately ripped (confidence 25) [D028EB3A] (AR v2)
Track 5 accurately ripped (confidence 25) [41ED7E08] (AR v2)
Track 6 accurately ripped (confidence 25) [2E770A2C] (AR v2)
Track 7 accurately ripped (confidence 25) [5BC97671] (AR v2)
Track 8 accurately ripped (confidence 25) [79C31309] (AR v2)
Track 9 accurately ripped (confidence 25) [0DDC4127] (AR v2)

All tracks accurately ripped

End of status report

–– CUETools DB Plugin V2.1.6

[CTDB TOCID: suThj8LAIMZKTC4a9wwMGCho9lk-] found
Submit result: suThj8LAIMZKTC4a9wwMGCho9lk- has been confirmed
Track | CTDB Status
1 | (173/173) Accurately ripped
2 | (173/173) Accurately ripped
3 | (173/173) Accurately ripped
4 | (173/173) Accurately ripped
5 | (173/173) Accurately ripped
6 | (173/173) Accurately ripped
7 | (173/173) Accurately ripped
8 | (173/173) Accurately ripped
9 | (172/173) Accurately ripped


==== Log checksum 5D29DC1624BBAE92714272EE32C64B5C9B7675AC0A80FAE3B7FA6DC048555B82 ====

[CUETools log; Date: 14.09.2020 9:59:41; Version: 2.1.6]
[CTDB TOCID: suThj8LAIMZKTC4a9wwMGCho9lk-] found.
Track | CTDB Status
1 | (178/178) Accurately ripped
2 | (178/178) Accurately ripped
3 | (178/178) Accurately ripped
4 | (178/178) Accurately ripped
5 | (178/178) Accurately ripped
6 | (178/178) Accurately ripped
7 | (178/178) Accurately ripped
8 | (178/178) Accurately ripped
9 | (177/178) Accurately ripped
[AccurateRip ID: 000ef625-006b81b2-6809b109] found.
Track [ CRC | V2 ] Status
01 [437e7640|191076fb] (00+25/85) Accurately ripped
02 [e56d9193|3c84e90e] (00+25/85) Accurately ripped
03 [27b8cee9|9fd8d0ff] (00+25/84) Accurately ripped
04 [08827c77|d028eb3a] (00+25/84) Accurately ripped
05 [fd450008|41ed7e08] (00+25/84) Accurately ripped
06 [2220a912|2e770a2c] (00+25/84) Accurately ripped
07 [d9185dfd|5bc97671] (00+25/84) Accurately ripped
08 [0d5507ea|79c31309] (00+25/84) Accurately ripped
09 [1df6b484|0ddc4127] (00+25/84) Accurately ripped
Offsetted by 12:
01 [6027adaa] (00/85) No match (V2 was not tested)
02 [676f6947] (00/85) No match (V2 was not tested)
03 [680df52d] (00/84) No match (V2 was not tested)
04 [6ae857d3] (00/84) No match (V2 was not tested)
05 [265427f8] (00/84) No match (V2 was not tested)
06 [ea603136] (00/84) No match (V2 was not tested)
07 [22ea6139] (00/84) No match (V2 was not tested)
08 [cc8da236] (00/84) No match (V2 was not tested)
09 [e2ac47a0] (00/84) No match (V2 was not tested)

Track Peak [ CRC32 ] [W/O NULL] [ LOG ]
– 99,1 [D82A7013] [FDE9EBC8] CRC32
01 99,1 [8EFBDD78] [FDC135A9]
02 99,1 [992B8663] [650002FD]
03 94,5 [EC86FEB0] [FACC2A6C]
04 98,9 [AA21C95E] [E8D92E62]
05 99,1 [8D027B21] [1BA19EAB]
06 99,1 [263684F5] [34EF877B]
07 98,8 [95E39062] [1388F0E8]
08 97,4 [53F63DB0] [E34FEFAE]
09 94,2 [6D6D81EE] [950C3765]

Track List CD2 - Bridge Of Sighs (1974):

01. Day Of The Eagle [0:05:02.44]
02. Bridge Of Sighs [0:05:01.53]
03. In This Place [0:04:29.37]
04. The Fool And Me [0:03:55.54]
05. Too Rolling Stoned [0:07:31.67]
06. About To Begin [0:03:46.13]
07. Lady Love [0:03:20.12]
08. Little Bit Of Sympathy [0:04:18.42]

Exact Audio Copy V1.3 from 2. September 2016

EAC extraction logfile from 19. August 2020, 21:29

Robin Trower / Bridge of Sighs

Used drive : TSSTcorpCDDVDW SE-S084C Adapter: 0 ID: 0

Read mode : Secure
Utilize accurate stream : Yes
Defeat audio cache : Yes
Make use of C2 pointers : No

Read offset correction : 6
Overread into Lead-In and Lead-Out : No
Fill up missing offset samples with silence : Yes
Delete leading and trailing silent blocks : No
Null samples used in CRC calculations : Yes
Used interface : Installed external ASPI interface

Used output format : User Defined Encoder
Selected bitrate : 128 kBit/s
Quality : High
Add ID3 tag : No
Command line compressor : D:\Codec\flac.exe
Additional command line options : -V -8 -T "Date=%year%" -T "Genre=%genre%" %source%


TOC of the extracted CD

Track | Start | Length | Start sector | End sector
––––––––––––––––––––––––––––-
1 | 0:00.00 | 5:02.44 | 0 | 22693
2 | 5:02.44 | 5:01.53 | 22694 | 45321
3 | 10:04.22 | 4:29.37 | 45322 | 65533
4 | 14:33.59 | 3:55.54 | 65534 | 83212
5 | 18:29.38 | 7:31.67 | 83213 | 117104
6 | 26:01.30 | 3:46.13 | 117105 | 134067
7 | 29:47.43 | 3:20.12 | 134068 | 149079
8 | 33:07.55 | 4:18.42 | 149080 | 168471


Range status and errors

Selected range

Filename D:\EAC\Robin Trower - Bridge of Sighs.wav

Peak level 99.2 %
Extraction speed 2.5 X
Range quality 99.9 %
Test CRC FDAF8713
Copy CRC FDAF8713
Copy OK

No errors occurred


AccurateRip summary

Track 1 accurately ripped (confidence 23) [666E3EA8] (AR v2)
Track 2 accurately ripped (confidence 23) [05ECA3F1] (AR v2)
Track 3 accurately ripped (confidence 23) [7A288690] (AR v2)
Track 4 accurately ripped (confidence 23) [682D30D7] (AR v2)
Track 5 accurately ripped (confidence 23) [7290D10C] (AR v2)
Track 6 accurately ripped (confidence 23) [D5036E26] (AR v2)
Track 7 accurately ripped (confidence 23) [866AA097] (AR v2)
Track 8 accurately ripped (confidence 23) [F53E0962] (AR v2)

All tracks accurately ripped

End of status report

–– CUETools DB Plugin V2.1.6

[CTDB TOCID: _RKKANNgyrI4XyC4k4aYBHNSlKk-] found
Submit result: _RKKANNgyrI4XyC4k4aYBHNSlKk- has been confirmed
Track | CTDB Status
1 | (167/167) Accurately ripped
2 | (167/167) Accurately ripped
3 | (167/167) Accurately ripped
4 | (167/167) Accurately ripped
5 | (166/167) Accurately ripped
6 | (166/167) Accurately ripped
7 | (165/167) Accurately ripped
8 | (166/167) Accurately ripped


==== Log checksum 9E52D0F88F8FDE622707A67E336EC6476CDF3276FC88303A3A36B51ADD9276E2 ====

[CUETools log; Date: 14.09.2020 10:02:09; Version: 2.1.6]
[CTDB TOCID: _RKKANNgyrI4XyC4k4aYBHNSlKk-] found.
Track | CTDB Status
1 | (171/171) Accurately ripped
2 | (171/171) Accurately ripped
3 | (171/171) Accurately ripped
4 | (171/171) Accurately ripped
5 | (170/171) Accurately ripped
6 | (170/171) Accurately ripped
7 | (169/171) Accurately ripped
8 | (170/171) Accurately ripped
[AccurateRip ID: 000bfc50-004f7dce-7008c608] found.
Track [ CRC | V2 ] Status
01 [68431df5|666e3ea8] (00+23/77) Accurately ripped
02 [75df15df|05eca3f1] (00+23/77) Accurately ripped
03 [4805a373|7a288690] (00+23/77) Accurately ripped
04 [dbd1b4d1|682d30d7] (00+23/77) Accurately ripped
05 [f87927ba|7290d10c] (00+23/78) Accurately ripped
06 [247bdc51|d5036e26] (00+23/77) Accurately ripped
07 [42556760|866aa097] (00+23/77) Accurately ripped
08 [de31c3ed|f53e0962] (00+23/77) Accurately ripped
Offsetted by 12:
01 [3b6ebacb] (00/77) No match (V2 was not tested)
02 [c1c7a5b5] (00/77) No match (V2 was not tested)
03 [55058bf9] (00/77) No match (V2 was not tested)
04 [c8d8f11a] (00/77) No match (V2 was not tested)
05 [6e0f9a89] (00/78) No match (V2 was not tested)
06 [40b6e619] (00/77) No match (V2 was not tested)
07 [2aeaebfe] (00/77) No match (V2 was not tested)
08 [5cd608d5] (00/77) No match (V2 was not tested)

Track Peak [ CRC32 ] [W/O NULL] [ LOG ]
– 99,2 [FDAF8713] [D5181A4C] CRC32
01 93,6 [FB6A7D9D] [55E89B76]
02 93,6 [8B15C791] [8A7AB95B]
03 93,5 [94C24C60] [5A74FC67]
04 93,6 [ABD1EAC2] [B41F1592]
05 99,2 [3B13946B] [E382F801]
06 93,6 [D7295C1A] [2AAC95F9]
07 93,6 [9225FC4C] [9BCC27E7]
08 93,6 [F2171E84] [984E0B70]

Track List CD3 - For Earth Below (1975):

01. Shame The Devil [0:03:26.50]
02. It's Only Money [0:05:30.07]
03. Confessin' Midnight [0:05:53.27]
04. Fine Day [0:03:35.56]
05. Alethea [0:03:05.45]
06. A Tale Untold [0:05:27.46]
07. Gonna Be More Suspicious [0:03:05.48]
08. For Earth Below [0:06:06.07]

Exact Audio Copy V1.3 from 2. September 2016

EAC extraction logfile from 22. August 2020, 15:41

Robin Trower / For Earth Below

Used drive : TSSTcorpCDDVDW SE-S084C Adapter: 0 ID: 0

Read mode : Secure
Utilize accurate stream : Yes
Defeat audio cache : Yes
Make use of C2 pointers : No

Read offset correction : 6
Overread into Lead-In and Lead-Out : No
Fill up missing offset samples with silence : Yes
Delete leading and trailing silent blocks : No
Null samples used in CRC calculations : Yes
Used interface : Installed external ASPI interface

Used output format : User Defined Encoder
Selected bitrate : 128 kBit/s
Quality : High
Add ID3 tag : No
Command line compressor : D:\Codec\flac.exe
Additional command line options : -V -8 -T "Date=%year%" -T "Genre=%genre%" %source%


TOC of the extracted CD

Track | Start | Length | Start sector | End sector
––––––––––––––––––––––––––––-
1 | 0:00.00 | 3:26.50 | 0 | 15499
2 | 3:26.50 | 5:30.07 | 15500 | 40256
3 | 8:56.57 | 5:53.27 | 40257 | 66758
4 | 14:50.09 | 3:35.56 | 66759 | 82939
5 | 18:25.65 | 3:05.45 | 82940 | 96859
6 | 21:31.35 | 5:27.46 | 96860 | 121430
7 | 26:59.06 | 3:05.48 | 121431 | 135353
8 | 30:04.54 | 6:06.07 | 135354 | 162810


Range status and errors

Selected range

Filename D:\EAC\Robin Trower - For Earth Below.wav

Peak level 99.2 %
Extraction speed 3.9 X
Range quality 100.0 %
Test CRC E01DDB62
Copy CRC E01DDB62
Copy OK

No errors occurred


AccurateRip summary

Track 1 accurately ripped (confidence 25) [BD9C13C3] (AR v2)
Track 2 accurately ripped (confidence 25) [3EA2FD81] (AR v2)
Track 3 accurately ripped (confidence 25) [226EA338] (AR v2)
Track 4 accurately ripped (confidence 25) [017988E3] (AR v2)
Track 5 accurately ripped (confidence 25) [0462EB66] (AR v2)
Track 6 accurately ripped (confidence 25) [EE7DA3BE] (AR v2)
Track 7 accurately ripped (confidence 25) [ECB24773] (AR v2)
Track 8 accurately ripped (confidence 25) [D9189E5D] (AR v2)

All tracks accurately ripped

End of status report

–– CUETools DB Plugin V2.1.6

[CTDB TOCID: z0mj_Qgv5X4Nva8o8.9o1.E4ZQ8-] found
Submit result: z0mj_Qgv5X4Nva8o8.9o1.E4ZQ8- has been confirmed
Track | CTDB Status
1 | (173/173) Accurately ripped
2 | (173/173) Accurately ripped
3 | (173/173) Accurately ripped
4 | (173/173) Accurately ripped
5 | (173/173) Accurately ripped
6 | (172/173) Accurately ripped
7 | (173/173) Accurately ripped
8 | (172/173) Accurately ripped


==== Log checksum 3A115E41CA53EBF5D3141F83612DD9017B52D8D25CB8B2792D1A8E330F2DFCAB ====

[CUETools log; Date: 14.09.2020 10:03:48; Version: 2.1.6]
[CTDB TOCID: z0mj_Qgv5X4Nva8o8.9o1.E4ZQ8-] found.
Track | CTDB Status
1 | (178/178) Accurately ripped
2 | (178/178) Accurately ripped
3 | (178/178) Accurately ripped
4 | (178/178) Accurately ripped
5 | (178/178) Accurately ripped
6 | (177/178) Accurately ripped
7 | (178/178) Accurately ripped
8 | (177/178) Accurately ripped
[AccurateRip ID: 000b03f8-00497010-60087a08] found.
Track [ CRC | V2 ] Status
01 [a71f7e2d|bd9c13c3] (00+25/81) Accurately ripped
02 [a0dece05|3ea2fd81] (00+25/82) Accurately ripped
03 [5563fc1d|226ea338] (00+25/82) Accurately ripped
04 [b6522348|017988e3] (00+25/82) Accurately ripped
05 [6c67cd44|0462eb66] (00+25/82) Accurately ripped
06 [156daac7|ee7da3be] (00+25/82) Accurately ripped
07 [7ca56139|ecb24773] (00+25/82) Accurately ripped
08 [cf8c34d8|d9189e5d] (00+25/82) Accurately ripped
Offsetted by 12:
01 [80df369f] (00/81) No match (V2 was not tested)
02 [300edcd9] (00/82) No match (V2 was not tested)
03 [f17f8d1d] (00/82) No match (V2 was not tested)
04 [f3ed2a34] (00/82) No match (V2 was not tested)
05 [fb0a4188] (00/82) No match (V2 was not tested)
06 [06325de7] (00/82) No match (V2 was not tested)
07 [490965fd] (00/82) No match (V2 was not tested)
08 [cd77bbba] (00/82) No match (V2 was not tested)

Track Peak [ CRC32 ] [W/O NULL] [ LOG ]
– 99,2 [E01DDB62] [7F827C54] CRC32
01 99,2 [7A4B61C3] [AC946FBC]
02 99,1 [BD9AAADF] [DB77830F]
03 99,1 [13C01E47] [3A598C30]
04 99,1 [E0A8C704] [8320F092]
05 99,1 [C850501A] [52DF6E20]
06 99,1 [C2A68CBD] [670195CD]
07 99,2 [02C78EB9] [D57A3EE2]
08 99,1 [B2738B5F] [369E75F0]

Track List CD4 - Long Misty Days (1976):

01. Same Rain Falls [0:03:14.47]
02. Long Misty Days [0:04:45.28]
03. Hold Me [0:03:35.56]
04. Caledonia [0:03:41.32]
05. Pride [0:03:09.72]
06. Sailing [0:03:45.19]
07. S.M.O. [0:03:44.23]
08. I Can't Live Without You [0:04:25.22]
09. Messin' The Blues [0:03:57.45]

Exact Audio Copy V1.3 from 2. September 2016

EAC extraction logfile from 23. August 2020, 12:36

Robin Trower / Long Misty Days

Used drive : TSSTcorpCDDVDW SE-S084C Adapter: 0 ID: 0

Read mode : Secure
Utilize accurate stream : Yes
Defeat audio cache : Yes
Make use of C2 pointers : No

Read offset correction : 6
Overread into Lead-In and Lead-Out : No
Fill up missing offset samples with silence : Yes
Delete leading and trailing silent blocks : No
Null samples used in CRC calculations : Yes
Used interface : Installed external ASPI interface

Used output format : User Defined Encoder
Selected bitrate : 128 kBit/s
Quality : High
Add ID3 tag : No
Command line compressor : D:\Codec\flac.exe
Additional command line options : -V -8 -T "Date=%year%" -T "Genre=%genre%" %source%


TOC of the extracted CD

Track | Start | Length | Start sector | End sector
––––––––––––––––––––––––––––-
1 | 0:00.00 | 3:14.47 | 0 | 14596
2 | 3:14.47 | 4:45.28 | 14597 | 35999
3 | 8:00.00 | 3:35.56 | 36000 | 52180
4 | 11:35.56 | 3:41.32 | 52181 | 68787
5 | 15:17.13 | 3:09.72 | 68788 | 83034
6 | 18:27.10 | 3:45.19 | 83035 | 99928
7 | 22:12.29 | 3:44.23 | 99929 | 116751
8 | 25:56.52 | 4:25.22 | 116752 | 136648
9 | 30:21.74 | 3:57.45 | 136649 | 154468


Range status and errors

Selected range

Filename D:\EAC\Robin Trower - Long Misty Days.wav

Peak level 99.2 %
Extraction speed 3.8 X
Range quality 100.0 %
Test CRC C59B2A83
Copy CRC C59B2A83
Copy OK

No errors occurred


AccurateRip summary

Track 1 accurately ripped (confidence 25) [C159671C] (AR v2)
Track 2 accurately ripped (confidence 25) [65247735] (AR v2)
Track 3 accurately ripped (confidence 25) [C6BDE3A2] (AR v2)
Track 4 accurately ripped (confidence 25) [42BEC1C2] (AR v2)
Track 5 accurately ripped (confidence 25) [236ADF0F] (AR v2)
Track 6 accurately ripped (confidence 25) [60444221] (AR v2)
Track 7 accurately ripped (confidence 25) [5E74D210] (AR v2)
Track 8 accurately ripped (confidence 25) [85105D4E] (AR v2)
Track 9 accurately ripped (confidence 25) [8895DA35] (AR v2)

All tracks accurately ripped

End of status report

–– CUETools DB Plugin V2.1.6

[CTDB TOCID: iGfuGK84nzT79WxMIuFOd7Am5oE-] found
Submit result: iGfuGK84nzT79WxMIuFOd7Am5oE- has been confirmed
Track | CTDB Status
1 | (172/173) Accurately ripped
2 | (172/173) Accurately ripped
3 | (172/173) Accurately ripped
4 | (172/173) Accurately ripped
5 | (172/173) Accurately ripped
6 | (172/173) Accurately ripped
7 | (172/173) Accurately ripped
8 | (172/173) Accurately ripped
9 | (172/173) Accurately ripped


==== Log checksum CF14FE2BE2C3D19D2E594D831847C0CFFD712CF8E46AA0325C3A02C95ED8357C ====

[CUETools log; Date: 14.09.2020 10:05:30; Version: 2.1.6]
[CTDB TOCID: iGfuGK84nzT79WxMIuFOd7Am5oE-] found.
Track | CTDB Status
1 | (177/178) Accurately ripped
2 | (177/178) Accurately ripped
3 | (177/178) Accurately ripped
4 | (177/178) Accurately ripped
5 | (177/178) Accurately ripped
6 | (177/178) Accurately ripped
7 | (177/178) Accurately ripped
8 | (177/178) Accurately ripped
9 | (177/178) Accurately ripped
[AccurateRip ID: 000ba220-005563d7-80080b09] found.
Track [ CRC | V2 ] Status
01 [736d9a64|c159671c] (00+25/80) Accurately ripped
02 [1143c49e|65247735] (00+25/81) Accurately ripped
03 [e6ef12b8|c6bde3a2] (00+25/81) Accurately ripped
04 [f3837b3d|42bec1c2] (00+25/81) Accurately ripped
05 [60a33900|236adf0f] (00+25/81) Accurately ripped
06 [e46a82f5|60444221] (00+25/81) Accurately ripped
07 [f2715667|5e74d210] (00+25/81) Accurately ripped
08 [704e1386|85105d4e] (00+25/81) Accurately ripped
09 [ac6dea80|8895da35] (00+25/81) Accurately ripped
Offsetted by 12:
01 [64f115a6] (00/80) No match (V2 was not tested)
02 [9b673bae] (00/81) No match (V2 was not tested)
03 [010ecc4c] (00/81) No match (V2 was not tested)
04 [51bf7c45] (00/81) No match (V2 was not tested)
05 [3f6479ec] (00/81) No match (V2 was not tested)
06 [025e5cc1] (00/81) No match (V2 was not tested)
07 [99800cbb] (00/81) No match (V2 was not tested)
08 [d0492716] (00/81) No match (V2 was not tested)
09 [4eaa5030] (00/81) No match (V2 was not tested)

Track Peak [ CRC32 ] [W/O NULL] [ LOG ]
– 99,2 [C59B2A83] [78B0712E] CRC32
01 99,1 [4076B1DD] [10CAF6D7]
02 99,1 [078BEA08] [FA6B7649]
03 99,2 [B7CA0EE4] [3C4D4E40]
04 99,1 [745EA37D] [977CC4A7]
05 99,1 [181AEA4A] [FC1A31E2]
06 99,1 [8505FFAE] [90163828]
07 99,2 [9CB1A908] [B2342F2A]
08 99,1 [45C6835F] [E40694C5]
09 99,1 [BCA0987F] [3DC4DC6C]

Track List CD5 - In City Dreams (1977):

01. Somebody Calling [0:04:58.35]
02. Sweet Wine of Love [0:02:57.04]
03. Bluebird [0:05:32.17]
04. Falling Star [0:02:47.47]
05. Farther On Up The Road [0:02:35.17]
06. Smile [0:04:49.10]
07. Little Girl [0:04:53.58]
08. Love's Gonna Bring You Round [0:04:41.00]
09. In City Dreams [0:05:14.24]

Exact Audio Copy V1.3 from 2. September 2016

EAC extraction logfile from 29. August 2020, 12:19

Robin Trower / In City Dreams

Used drive : TSSTcorpCDDVDW SE-S084C Adapter: 0 ID: 0

Read mode : Secure
Utilize accurate stream : Yes
Defeat audio cache : Yes
Make use of C2 pointers : No

Read offset correction : 6
Overread into Lead-In and Lead-Out : No
Fill up missing offset samples with silence : Yes
Delete leading and trailing silent blocks : No
Null samples used in CRC calculations : Yes
Used interface : Installed external ASPI interface

Used output format : User Defined Encoder
Selected bitrate : 128 kBit/s
Quality : High
Add ID3 tag : No
Command line compressor : D:\Codec\flac.exe
Additional command line options : -V -8 -T "Date=%year%" -T "Genre=%genre%" %source%


TOC of the extracted CD

Track | Start | Length | Start sector | End sector
––––––––––––––––––––––––––––-
1 | 0:00.00 | 4:58.35 | 0 | 22384
2 | 4:58.35 | 2:57.04 | 22385 | 35663
3 | 7:55.39 | 5:32.17 | 35664 | 60580
4 | 13:27.56 | 2:47.47 | 60581 | 73152
5 | 16:15.28 | 2:35.17 | 73153 | 84794
6 | 18:50.45 | 4:49.10 | 84795 | 106479
7 | 23:39.55 | 4:53.58 | 106480 | 128512
8 | 28:33.38 | 4:41.00 | 128513 | 149587
9 | 33:14.38 | 5:14.24 | 149588 | 173161


Range status and errors

Selected range

Filename D:\EAC\Robin Trower - In City Dreams.wav

Peak level 96.5 %
Extraction speed 3.9 X
Range quality 100.0 %
Test CRC 7F7DB24F
Copy CRC 7F7DB24F
Copy OK

No errors occurred


AccurateRip summary

Track 1 accurately ripped (confidence 26) [64A2577E] (AR v2)
Track 2 accurately ripped (confidence 26) [998C0DC0] (AR v2)
Track 3 accurately ripped (confidence 26) [7D92F5B3] (AR v2)
Track 4 accurately ripped (confidence 26) [48632C85] (AR v2)
Track 5 accurately ripped (confidence 26) [2D391D63] (AR v2)
Track 6 accurately ripped (confidence 26) [C8623293] (AR v2)
Track 7 accurately ripped (confidence 26) [E64A5826] (AR v2)
Track 8 accurately ripped (confidence 26) [893D02EC] (AR v2)
Track 9 accurately ripped (confidence 26) [1C42F565] (AR v2)

All tracks accurately ripped

End of status report

–– CUETools DB Plugin V2.1.6

[CTDB TOCID: xAvn5U5nl33c.8LCGgVfmgYJwb8-] found
Submit result: xAvn5U5nl33c.8LCGgVfmgYJwb8- has been confirmed
Track | CTDB Status
1 | (110/110) Accurately ripped
2 | (110/110) Accurately ripped
3 | (110/110) Accurately ripped
4 | (110/110) Accurately ripped
5 | (110/110) Accurately ripped
6 | (110/110) Accurately ripped
7 | (110/110) Accurately ripped
8 | (110/110) Accurately ripped
9 | (110/110) Accurately ripped


==== Log checksum 40B06B33F0CD5DAFEF91B94820B5ACC3D3B323650E79AD6C58F3EAF503C4FD96 ====

[CUETools log; Date: 14.09.2020 10:06:54; Version: 2.1.6]
[CTDB TOCID: xAvn5U5nl33c.8LCGgVfmgYJwb8-] found.
Track | CTDB Status
1 | (114/114) Accurately ripped
2 | (114/114) Accurately ripped
3 | (114/114) Accurately ripped
4 | (114/114) Accurately ripped
5 | (114/114) Accurately ripped
6 | (114/114) Accurately ripped
7 | (114/114) Accurately ripped
8 | (114/114) Accurately ripped
9 | (114/114) Accurately ripped
[AccurateRip ID: 000cbb11-005d623e-75090409] found.
Track [ CRC | V2 ] Status
01 [63e4e03e|64a2577e] (00+26/38) Accurately ripped
02 [063b7ae5|998c0dc0] (00+26/38) Accurately ripped
03 [79b11610|7d92f5b3] (00+26/38) Accurately ripped
04 [510d465a|48632c85] (00+26/38) Accurately ripped
05 [04d8fa58|2d391d63] (00+26/38) Accurately ripped
06 [daee6116|c8623293] (00+26/38) Accurately ripped
07 [1924e730|e64a5826] (00+26/38) Accurately ripped
08 [ce96046a|893d02ec] (00+26/38) Accurately ripped
09 [c58e8f2f|1c42f565] (00+26/38) Accurately ripped
Offsetted by 12:
01 [e7ebb586] (00/38) No match (V2 was not tested)
02 [f2078285] (00/38) No match (V2 was not tested)
03 [358e4d00] (00/38) No match (V2 was not tested)
04 [d9c8562e] (00/38) No match (V2 was not tested)
05 [d59ed138] (00/38) No match (V2 was not tested)
06 [8008595e] (00/38) No match (V2 was not tested)
07 [215c6d2c] (00/38) No match (V2 was not tested)
08 [bd263a06] (00/38) No match (V2 was not tested)
09 [bb19f677] (00/38) No match (V2 was not tested)

Track Peak [ CRC32 ] [W/O NULL] [ LOG ]
– 96,5 [7F7DB24F] [DB87BF4F] CRC32
01 96,0 [9AF3EFFD] [62C5878D]
02 96,2 [9E9702D1] [CCC66A31]
03 92,6 [F7E6FFBC] [5BF04FD1]
04 96,2 [143AFFC6] [B778CBF6]
05 96,1 [D5904EA6] [8DA74BBA]
06 95,9 [B0477451] [BFE4966A]
07 96,3 [FC1428C4] [391C43E8]
08 96,5 [EFA1D49B] [2F061F5F]
09 96,0 [FB561987] [9A956365]

Track List CD6 - Caravan To Midnight (1978):

01. My Love (Burning Love) [0:03:17.43]
02. Caravan To Midnight [0:05:00.60]
03. I'm Out to Get You [0:05:25.55]
04. Lost In Love [0:04:29.28]
05. Fool [0:03:46.20]
06. It's For You [0:04:37.61]
07. Birthday Boy [0:03:50.11]
08. King of The Dance [0:03:10.35]
09. Sail On [0:04:00.67]

Exact Audio Copy V1.3 from 2. September 2016

EAC extraction logfile from 29. August 2020, 14:04

Robin Trower / Caravan To Midnight

Used drive : TSSTcorpCDDVDW SE-S084C Adapter: 0 ID: 0

Read mode : Secure
Utilize accurate stream : Yes
Defeat audio cache : Yes
Make use of C2 pointers : No

Read offset correction : 6
Overread into Lead-In and Lead-Out : No
Fill up missing offset samples with silence : Yes
Delete leading and trailing silent blocks : No
Null samples used in CRC calculations : Yes
Used interface : Installed external ASPI interface

Used output format : User Defined Encoder
Selected bitrate : 128 kBit/s
Quality : High
Add ID3 tag : No
Command line compressor : D:\Codec\flac.exe
Additional command line options : -V -8 -T "Date=%year%" -T "Genre=%genre%" %source%


TOC of the extracted CD

Track | Start | Length | Start sector | End sector
––––––––––––––––––––––––––––-
1 | 0:00.00 | 3:17.43 | 0 | 14817
2 | 3:17.43 | 5:00.60 | 14818 | 37377
3 | 8:18.28 | 5:25.55 | 37378 | 61807
4 | 13:44.08 | 4:29.28 | 61808 | 82010
5 | 18:13.36 | 3:46.20 | 82011 | 98980
6 | 21:59.56 | 4:37.61 | 98981 | 119816
7 | 26:37.42 | 3:50.11 | 119817 | 137077
8 | 30:27.53 | 3:10.35 | 137078 | 151362
9 | 33:38.13 | 4:00.67 | 151363 | 169429


Range status and errors

Selected range

Filename D:\EAC\Robin Trower - Caravan To Midnight.wav

Peak level 98.2 %
Extraction speed 3.9 X
Range quality 100.0 %
Test CRC 59201557
Copy CRC 59201557
Copy OK

No errors occurred


AccurateRip summary

Track 1 accurately ripped (confidence 26) [2252B632] (AR v2)
Track 2 accurately ripped (confidence 26) [AB1B0B8C] (AR v2)
Track 3 accurately ripped (confidence 26) [7A7A5B78] (AR v2)
Track 4 accurately ripped (confidence 26) [7878478E] (AR v2)
Track 5 accurately ripped (confidence 26) [0DF3F4B8] (AR v2)
Track 6 accurately ripped (confidence 26) [31C7C4D9] (AR v2)
Track 7 accurately ripped (confidence 26) [7B566B9B] (AR v2)
Track 8 accurately ripped (confidence 26) [D53008BE] (AR v2)
Track 9 accurately ripped (confidence 26) [B80F0ECB] (AR v2)

All tracks accurately ripped

End of status report

–– CUETools DB Plugin V2.1.6

[CTDB TOCID: 3ZrFVqKk3AdXlQrRv.HzY076e9o-] found
Submit result: 3ZrFVqKk3AdXlQrRv.HzY076e9o- has been confirmed
Track | CTDB Status
1 | (110/110) Accurately ripped
2 | (110/110) Accurately ripped
3 | (110/110) Accurately ripped
4 | (110/110) Accurately ripped
5 | (110/110) Accurately ripped
6 | (110/110) Accurately ripped
7 | (110/110) Accurately ripped
8 | (110/110) Accurately ripped
9 | (110/110) Accurately ripped


==== Log checksum 418F7218B682E0E6489B151E8BD4C73808A51E8DA9E48B993A0BD14B171DCFB0 ====

[CUETools log; Date: 14.09.2020 10:15:26; Version: 2.1.6]
[CTDB TOCID: 3ZrFVqKk3AdXlQrRv.HzY076e9o-] found.
Track | CTDB Status
1 | (114/114) Accurately ripped
2 | (114/114) Accurately ripped
3 | (114/114) Accurately ripped
4 | (114/114) Accurately ripped
5 | (114/114) Accurately ripped
6 | (114/114) Accurately ripped
7 | (114/114) Accurately ripped
8 | (114/114) Accurately ripped
9 | (114/114) Accurately ripped
[AccurateRip ID: 000d50ec-00616cd6-7008d309] found.
Track [ CRC | V2 ] Status
01 [0ef9512b|2252b632] (00+26/39) Accurately ripped
02 [c23daca9|ab1b0b8c] (00+26/39) Accurately ripped
03 [073dfb86|7a7a5b78] (00+26/39) Accurately ripped
04 [af689275|7878478e] (00+26/39) Accurately ripped
05 [c200be6d|0df3f4b8] (00+26/39) Accurately ripped
06 [426c0554|31c7c4d9] (00+26/39) Accurately ripped
07 [12d002c1|7b566b9b] (00+26/39) Accurately ripped
08 [3c2d5f98|d53008be] (00+26/39) Accurately ripped
09 [548f5e45|b80f0ecb] (00+26/39) Accurately ripped
Offsetted by 12:
01 [cbc96a39] (00/39) No match (V2 was not tested)
02 [3235d40d] (00/39) No match (V2 was not tested)
03 [64c3b2e4] (00/39) No match (V2 was not tested)
04 [0672423d] (00/39) No match (V2 was not tested)
05 [4e6fd5ed] (00/39) No match (V2 was not tested)
06 [3d3ce0e8] (00/39) No match (V2 was not tested)
07 [52328e15] (00/39) No match (V2 was not tested)
08 [00c1ba50] (00/39) No match (V2 was not tested)
09 [55879a01] (00/39) No match (V2 was not tested)

Track Peak [ CRC32 ] [W/O NULL] [ LOG ]
– 98,2 [59201557] [F5488C06] CRC32
01 96,7 [4AD97C59] [74E38EB6]
02 97,1 [1C5C9B33] [43855D93]
03 96,9 [5738C563] [8D23A192]
04 94,3 [B8A948C6] [0EFAFBD7]
05 96,0 [7BB9C31F] [041D6038]
06 96,4 [1FAB481F] [4F925881]
07 96,2 [2B36320C] [982E4D3D]
08 98,2 [81187AD9] [574BAC77]
09 96,4 [DEF82790] [29374C35]

Track List CD7 - Victims of The Fury (1980):

01. Jack And Jill [0:02:45.48]
02. Roads To Freedom [0:03:54.38]
03. Victims of The Fury [0:03:47.26]
04. The Ring [0:03:14.38]
05. Only Time [0:03:58.64]
06. Into The Flame [0:03:27.40]
07. The Shout [0:02:34.60]
08. Mad House [0:02:48.72]
09. Ready For The Taking [0:03:03.39]
10. Fly Low [0:03:06.17]

Exact Audio Copy V1.3 from 2. September 2016

EAC extraction logfile from 6. September 2020, 13:00

Robin Trower / Victims of The Fury

Used drive : TSSTcorpCDDVDW SE-S084C Adapter: 0 ID: 0

Read mode : Secure
Utilize accurate stream : Yes
Defeat audio cache : Yes
Make use of C2 pointers : No

Read offset correction : 6
Overread into Lead-In and Lead-Out : No
Fill up missing offset samples with silence : Yes
Delete leading and trailing silent blocks : No
Null samples used in CRC calculations : Yes
Used interface : Installed external ASPI interface

Used output format : User Defined Encoder
Selected bitrate : 128 kBit/s
Quality : High
Add ID3 tag : No
Command line compressor : D:\Codec\flac.exe
Additional command line options : -V -8 -T "Date=%year%" -T "Genre=%genre%" %source%


TOC of the extracted CD

Track | Start | Length | Start sector | End sector
––––––––––––––––––––––––––––-
1 | 0:00.00 | 2:45.48 | 0 | 12422
2 | 2:45.48 | 3:54.38 | 12423 | 30010
3 | 6:40.11 | 3:47.26 | 30011 | 47061
4 | 10:27.37 | 3:14.38 | 47062 | 61649
5 | 13:42.00 | 3:58.64 | 61650 | 79563
6 | 17:40.64 | 3:27.40 | 79564 | 95128
7 | 21:08.29 | 2:34.60 | 95129 | 106738
8 | 23:43.14 | 2:48.72 | 106739 | 119410
9 | 26:32.11 | 3:03.39 | 119411 | 133174
10 | 29:35.50 | 3:06.17 | 133175 | 147141


Range status and errors

Selected range

Filename D:\EAC\Robin Trower - Victims of The Fury.wav

Peak level 100.0 %
Extraction speed 3.7 X
Range quality 100.0 %
Test CRC 3EF60284
Copy CRC 3EF60284
Copy OK

No errors occurred


AccurateRip summary

Track 1 accurately ripped (confidence 25) [578ED689] (AR v2)
Track 2 accurately ripped (confidence 25) [392B9D36] (AR v2)
Track 3 accurately ripped (confidence 25) [63AF10C9] (AR v2)
Track 4 accurately ripped (confidence 25) [9A2FD79E] (AR v2)
Track 5 accurately ripped (confidence 25) [5A72AB4B] (AR v2)
Track 6 accurately ripped (confidence 25) [A9B3DBA7] (AR v2)
Track 7 accurately ripped (confidence 25) [ED77B676] (AR v2)
Track 8 accurately ripped (confidence 25) [3158636D] (AR v2)
Track 9 accurately ripped (confidence 25) [BFB97452] (AR v2)
Track 10 accurately ripped (confidence 25) [87711960] (AR v2)

All tracks accurately ripped

End of status report

–– CUETools DB Plugin V2.1.6

[CTDB TOCID: xzqRMEoxKONKl5bKv24jbthyxXw-] found
Submit result: xzqRMEoxKONKl5bKv24jbthyxXw- has been confirmed
Track | CTDB Status
1 | (109/109) Accurately ripped
2 | (109/109) Accurately ripped
3 | (109/109) Accurately ripped
4 | (109/109) Accurately ripped
5 | (109/109) Accurately ripped
6 | (109/109) Accurately ripped
7 | (109/109) Accurately ripped
8 | (109/109) Accurately ripped
9 | (109/109) Accurately ripped
10 | (109/109) Accurately ripped


==== Log checksum ED9BE9D4D95966A7775F21DD1D994E30F58E7CAA6AADFD93F29FE6ED68347449 ====

[CUETools log; Date: 14.09.2020 10:17:27; Version: 2.1.6]
[CTDB TOCID: xzqRMEoxKONKl5bKv24jbthyxXw-] found.
Track | CTDB Status
1 | (111/111) Accurately ripped
2 | (111/111) Accurately ripped
3 | (111/111) Accurately ripped
4 | (111/111) Accurately ripped
5 | (111/111) Accurately ripped
6 | (111/111) Accurately ripped
7 | (111/111) Accurately ripped
8 | (111/111) Accurately ripped
9 | (111/111) Accurately ripped
10 | (111/111) Accurately ripped
[AccurateRip ID: 000cb332-00653874-7d07a90a] found.
Track [ CRC | V2 ] Status
01 [09010f1c|578ed689] (00+25/38) Accurately ripped
02 [7e97d9ae|392b9d36] (00+25/38) Accurately ripped
03 [20fc0b76|63af10c9] (00+25/38) Accurately ripped
04 [b59b870f|9a2fd79e] (00+25/38) Accurately ripped
05 [3d020251|5a72ab4b] (00+25/38) Accurately ripped
06 [df2e8082|a9b3dba7] (00+25/38) Accurately ripped
07 [8e064ada|ed77b676] (00+25/38) Accurately ripped
08 [bc5fd370|3158636d] (00+25/38) Accurately ripped
09 [7c01e47e|bfb97452] (00+25/38) Accurately ripped
10 [8cb9230d|87711960] (00+25/38) Accurately ripped
Offsetted by 12:
01 [de029b00] (00/38) No match (V2 was not tested)
02 [52f0a696] (00/38) No match (V2 was not tested)
03 [9eb2989e] (00/38) No match (V2 was not tested)
04 [0a542945] (00/38) No match (V2 was not tested)
05 [09a02a47] (00/38) No match (V2 was not tested)
06 [c68c75e0] (00/38) No match (V2 was not tested)
07 [50774d74] (00/38) No match (V2 was not tested)
08 [c998d8f8] (00/38) No match (V2 was not tested)
09 [7830a46e] (00/38) No match (V2 was not tested)
10 [87b536a9] (00/38) No match (V2 was not tested)

Track Peak [ CRC32 ] [W/O NULL] [ LOG ]
– 100,0 [3EF60284] [515EC0F4] CRC32
01 99,5 [921667D3] [FA8BE2F4]
02 99,5 [8125DC95] [CE086E82]
03 100,0 [C58C4C6D] [6B616300]
04 99,6 [AEB05A88] [E046FFEF]
05 99,5 [6115EDCF] [9EDFB16D]
06 99,6 [F01CFBB6] [081E37C1]
07 99,4 [D6344FF3] [74AB1EA3]
08 100,0 [30218D37] [B5AAC995]
09 99,5 [6036CF01] [0CDE9CE4]
10 100,0 [0E37273E] [7D2D6955]

Track List CD8 - Robin Trower, Jack Bruce, Bill Lordan - B.L.T (1981):

01. Into Money [0:02:55.46]
02. What It Is [0:03:24.39]
03. Won't Let You Down [0:04:24.18]
04. No Island Lost [0:03:51.46]
05. It's Too Late [0:03:40.15]
06. Life On Earth [0:03:41.36]
07. Once The Bird Has Flown [0:03:59.40]
08. Carmen [0:03:39.25]
09. Feel The Heat [0:02:50.34]
10. End Game [0:05:10.57]

Exact Audio Copy V1.3 from 2. September 2016

EAC extraction logfile from 6. September 2020, 17:16

Robin Trower / Jack Bruce / Bill Lordan / B.L.T.

Used drive : TSSTcorpCDDVDW SE-S084C Adapter: 0 ID: 0

Read mode : Secure
Utilize accurate stream : Yes
Defeat audio cache : Yes
Make use of C2 pointers : No

Read offset correction : 6
Overread into Lead-In and Lead-Out : No
Fill up missing offset samples with silence : Yes
Delete leading and trailing silent blocks : No
Null samples used in CRC calculations : Yes
Used interface : Installed external ASPI interface

Used output format : User Defined Encoder
Selected bitrate : 128 kBit/s
Quality : High
Add ID3 tag : No
Command line compressor : D:\Codec\flac.exe
Additional command line options : -V -8 -T "Date=%year%" -T "Genre=%genre%" %source%


TOC of the extracted CD

Track | Start | Length | Start sector | End sector
––––––––––––––––––––––––––––-
1 | 0:00.00 | 2:55.46 | 0 | 13170
2 | 2:55.46 | 3:24.39 | 13171 | 28509
3 | 6:20.10 | 4:24.18 | 28510 | 48327
4 | 10:44.28 | 3:51.46 | 48328 | 65698
5 | 14:35.74 | 3:40.15 | 65699 | 82213
6 | 18:16.14 | 3:41.36 | 82214 | 98824
7 | 21:57.50 | 3:59.40 | 98825 | 116789
8 | 25:57.15 | 3:39.25 | 116790 | 133239
9 | 29:36.40 | 2:50.34 | 133240 | 146023
10 | 32:26.74 | 5:10.57 | 146024 | 169330


Range status and errors

Selected range

Filename D:\EAC\Robin Trower , Jack Bruce , Bill Lordan - B.L.T..wav

Peak level 100.0 %
Extraction speed 3.8 X
Range quality 99.9 %
Test CRC 2B16E0B4
Copy CRC 2B16E0B4
Copy OK

No errors occurred


AccurateRip summary

Track 1 accurately ripped (confidence 26) [B3E6D6B4] (AR v2)
Track 2 accurately ripped (confidence 26) [8596A483] (AR v2)
Track 3 accurately ripped (confidence 26) [AF3F622E] (AR v2)
Track 4 accurately ripped (confidence 26) [B50C6B3E] (AR v2)
Track 5 accurately ripped (confidence 26) [36F67E6F] (AR v2)
Track 6 accurately ripped (confidence 26) [3451D4B6] (AR v2)
Track 7 accurately ripped (confidence 26) [6B83C7B9] (AR v2)
Track 8 accurately ripped (confidence 26) [9F65CC62] (AR v2)
Track 9 accurately ripped (confidence 26) [6984E82B] (AR v2)
Track 10 accurately ripped (confidence 26) [EF7DEF0D] (AR v2)

All tracks accurately ripped

End of status report

–– CUETools DB Plugin V2.1.6

[CTDB TOCID: Z74L.HOqFp3VGGUNezQxQfkiW_c-] found
Submit result: Z74L.HOqFp3VGGUNezQxQfkiW_c- has been confirmed
Track | CTDB Status
1 | (85/85) Accurately ripped
2 | (85/85) Accurately ripped
3 | (83/85) Accurately ripped
4 | (85/85) Accurately ripped
5 | (85/85) Accurately ripped
6 | (85/85) Accurately ripped
7 | (85/85) Accurately ripped
8 | (85/85) Accurately ripped
9 | (85/85) Accurately ripped
10 | (85/85) Accurately ripped


==== Log checksum A32AD0EF94300D9385AEFA7CAB1960B22F919530ED66D45A70A631C0C3463DB0 ====

[CUETools log; Date: 14.09.2020 10:19:10; Version: 2.1.6]
[CTDB TOCID: Z74L.HOqFp3VGGUNezQxQfkiW_c-] found.
Track | CTDB Status
1 | (87/87) Accurately ripped
2 | (87/87) Accurately ripped
3 | (85/87) Accurately ripped
4 | (87/87) Accurately ripped
5 | (87/87) Accurately ripped
6 | (87/87) Accurately ripped
7 | (87/87) Accurately ripped
8 | (87/87) Accurately ripped
9 | (87/87) Accurately ripped
10 | (87/87) Accurately ripped
[AccurateRip ID: 000dc3f4-006f025c-a508d10a] found.
Track [ CRC | V2 ] Status
01 [77f14243|b3e6d6b4] (00+26/26) Accurately ripped
02 [65fc14f5|8596a483] (00+26/26) Accurately ripped
03 [dbf71e57|af3f622e] (00+26/26) Accurately ripped
04 [0562f30f|b50c6b3e] (00+26/26) Accurately ripped
05 [94f5734a|36f67e6f] (00+26/26) Accurately ripped
06 [c3e68fe0|3451d4b6] (00+26/26) Accurately ripped
07 [0a7aa656|6b83c7b9] (00+26/26) Accurately ripped
08 [aa47e435|9f65cc62] (00+26/26) Accurately ripped
09 [8ae2308f|6984e82b] (00+26/26) Accurately ripped
10 [bd0f6932|ef7def0d] (00+26/26) Accurately ripped

Track Peak [ CRC32 ] [W/O NULL] [ LOG ]
– 100,0 [2B16E0B4] [7652AA81] CRC32
01 100,0 [CBC6E607] [9A74456F]
02 99,7 [EB3B90D5] [25C39F00]
03 99,5 [16B5F8CD] [193A3BD4]
04 99,6 [1C93CC54] [C26173E8]
05 99,5 [D7571F61] [BEDB7053]
06 100,0 [87EC2E2D] [6793C908]
07 100,0 [30D6FCA1] [2670A218]
08 99,5 [E9B99CFB] [ACD5CE0C]
09 99,4 [78A4A748] [E0BE30E3]
10 99,4 [ECA04687] [34E871FC]

Track List CD9 - Robin Trower and Jack Bruce - Truce (1981):

01. Gonna Shut You Down [0:03:04.36]
02. Gone Too Far [0:03:49.51]
03. Thin Ice [0:03:41.27]
04. Last Train To The Stars [0:03:22.57]
05. Take Good Care of Yourself [0:04:47.66]
06. Fall In Love [0:02:41.21]
07. Fat Gut [0:03:22.70]
08. Shadows Touching [0:04:30.19]
09. Little Boy Lost [0:03:34.52]

Exact Audio Copy V1.3 from 2. September 2016

EAC extraction logfile from 6. September 2020, 21:08

Robin Trower and Jack Bruce / Truce

Used drive : TSSTcorpCDDVDW SE-S084C Adapter: 0 ID: 0

Read mode : Secure
Utilize accurate stream : Yes
Defeat audio cache : Yes
Make use of C2 pointers : No

Read offset correction : 6
Overread into Lead-In and Lead-Out : No
Fill up missing offset samples with silence : Yes
Delete leading and trailing silent blocks : No
Null samples used in CRC calculations : Yes
Used interface : Installed external ASPI interface

Used output format : User Defined Encoder
Selected bitrate : 128 kBit/s
Quality : High
Add ID3 tag : No
Command line compressor : D:\Codec\flac.exe
Additional command line options : -V -8 -T "Date=%year%" -T "Genre=%genre%" %source%


TOC of the extracted CD

Track | Start | Length | Start sector | End sector
––––––––––––––––––––––––––––-
1 | 0:00.00 | 3:04.36 | 0 | 13835
2 | 3:04.36 | 3:49.51 | 13836 | 31061
3 | 6:54.12 | 3:41.27 | 31062 | 47663
4 | 10:35.39 | 3:22.57 | 47664 | 62870
5 | 13:58.21 | 4:47.66 | 62871 | 84461
6 | 18:46.12 | 2:41.21 | 84462 | 96557
7 | 21:27.33 | 3:22.70 | 96558 | 111777
8 | 24:50.28 | 4:30.19 | 111778 | 132046
9 | 29:20.47 | 3:34.52 | 132047 | 148148


Range status and errors

Selected range

Filename D:\EAC\Robin Trower and Jack Bruce - Truce.wav

Peak level 100.0 %
Extraction speed 3.8 X
Range quality 100.0 %
Test CRC 04BC8E5E
Copy CRC 04BC8E5E
Copy OK

No errors occurred


AccurateRip summary

Track 1 accurately ripped (confidence 26) [78DAD502] (AR v2)
Track 2 accurately ripped (confidence 26) [645102E2] (AR v2)
Track 3 accurately ripped (confidence 26) [39393885] (AR v2)
Track 4 accurately ripped (confidence 26) [151149B5] (AR v2)
Track 5 accurately ripped (confidence 26) [74B66200] (AR v2)
Track 6 accurately ripped (confidence 26) [5DA7863C] (AR v2)
Track 7 accurately ripped (confidence 26) [0E56F1FF] (AR v2)
Track 8 accurately ripped (confidence 26) [18DC4305] (AR v2)
Track 9 accurately ripped (confidence 26) [A3DA1B31] (AR v2)

All tracks accurately ripped

End of status report

–– CUETools DB Plugin V2.1.6

[CTDB TOCID: v4Heu1OkhSKq6SFPmatozK7OB9Q-] found
Submit result: v4Heu1OkhSKq6SFPmatozK7OB9Q- has been confirmed
Track | CTDB Status
1 | (84/84) Accurately ripped
2 | (84/84) Accurately ripped
3 | (84/84) Accurately ripped
4 | (84/84) Accurately ripped
5 | (84/84) Accurately ripped
6 | (84/84) Accurately ripped
7 | (84/84) Accurately ripped
8 | (84/84) Accurately ripped
9 | (84/84) Accurately ripped


==== Log checksum 9E710A16A7187D9726D795A64B78AC94BDA8F6E5549032CDEF64A305C338B73F ====

[CUETools log; Date: 14.09.2020 10:20:56; Version: 2.1.6]
[CTDB TOCID: v4Heu1OkhSKq6SFPmatozK7OB9Q-] found.
Track | CTDB Status
1 | (86/86) Accurately ripped
2 | (86/86) Accurately ripped
3 | (86/86) Accurately ripped
4 | (86/86) Accurately ripped
5 | (86/86) Accurately ripped
6 | (86/86) Accurately ripped
7 | (86/86) Accurately ripped
8 | (86/86) Accurately ripped
9 | (86/86) Accurately ripped
[AccurateRip ID: 000b1d6b-0051fb0d-7807b709] found.
Track [ CRC | V2 ] Status
01 [28378a4c|78dad502] (00+26/26) Accurately ripped
02 [4cf9a898|645102e2] (00+26/26) Accurately ripped
03 [3e945ced|39393885] (00+26/26) Accurately ripped
04 [3e5ace96|151149b5] (00+26/26) Accurately ripped
05 [2706e027|74b66200] (00+26/26) Accurately ripped
06 [d836c246|5da7863c] (00+26/26) Accurately ripped
07 [58014a52|0e56f1ff] (00+26/26) Accurately ripped
08 [facc9ab4|18dc4305] (00+26/26) Accurately ripped
09 [e60331fa|a3da1b31] (00+26/26) Accurately ripped

Track Peak [ CRC32 ] [W/O NULL] [ LOG ]
– 100,0 [04BC8E5E] [CEDAA97C] CRC32
01 100,0 [6F644907] [C00654AA]
02 100,0 [0ED57AAD] [D66E37BF]
03 100,0 [D1C8B2D9] [BCA96AF9]
04 100,0 [14B00413] [93FF1D2D]
05 100,0 [1A8976D7] [94CCB01E]
06 100,0 [5A22782A] [3ECD80CF]
07 100,0 [B64C1EEA] [3479D80C]
08 100,0 [AEB8C014] [D34E42A7]
09 100,0 [199D611F] [EC9103CF]

Track List CD10 - Back It Up (1983):

01. Back It Up [0:03:55.07]
02. River [0:03:50.67]
03. Black To Red [0:02:56.63]
04. Benny Dancer [0:08:51.40]
05. Time Is Short [0:03:41.37]
06. Islands [0:04:07.74]
07. None But The Brave [0:02:37.49]
08. Captain Midnight [0:03:09.49]
09. Setting The Score [0:05:18.59]

Exact Audio Copy V1.3 from 2. September 2016

EAC extraction logfile from 6. September 2020, 23:10

Robin Trower / Back It Up

Used drive : TSSTcorpCDDVDW SE-S084C Adapter: 0 ID: 0

Read mode : Secure
Utilize accurate stream : Yes
Defeat audio cache : Yes
Make use of C2 pointers : No

Read offset correction : 6
Overread into Lead-In and Lead-Out : No
Fill up missing offset samples with silence : Yes
Delete leading and trailing silent blocks : No
Null samples used in CRC calculations : Yes
Used interface : Installed external ASPI interface

Used output format : User Defined Encoder
Selected bitrate : 128 kBit/s
Quality : High
Add ID3 tag : No
Command line compressor : D:\Codec\flac.exe
Additional command line options : -V -8 -T "Date=%year%" -T "Genre=%genre%" %source%


TOC of the extracted CD

Track | Start | Length | Start sector | End sector
––––––––––––––––––––––––––––-
1 | 0:00.00 | 3:55.07 | 0 | 17631
2 | 3:55.07 | 3:50.67 | 17632 | 34948
3 | 7:45.74 | 2:56.63 | 34949 | 48211
4 | 10:42.62 | 8:51.40 | 48212 | 88076
5 | 19:34.27 | 3:41.37 | 88077 | 104688
6 | 23:15.64 | 4:07.74 | 104689 | 123287
7 | 27:23.63 | 2:37.49 | 123288 | 135111
8 | 30:01.37 | 3:09.49 | 135112 | 149335
9 | 33:11.11 | 5:18.59 | 149336 | 173244


Range status and errors

Selected range

Filename D:\EAC\Robin Trower - Back It Up.wav

Peak level 100.0 %
Extraction speed 3.9 X
Range quality 100.0 %
Test CRC 4C493BB4
Copy CRC 4C493BB4
Copy OK

No errors occurred


AccurateRip summary

Track 1 accurately ripped (confidence 26) [BA1B1604] (AR v2)
Track 2 accurately ripped (confidence 26) [E473CB04] (AR v2)
Track 3 accurately ripped (confidence 26) [B227E703] (AR v2)
Track 4 accurately ripped (confidence 26) [7A9EB52F] (AR v2)
Track 5 accurately ripped (confidence 26) [88161304] (AR v2)
Track 6 accurately ripped (confidence 26) [569C15EF] (AR v2)
Track 7 accurately ripped (confidence 26) [D17D3A3F] (AR v2)
Track 8 accurately ripped (confidence 26) [4D1706D5] (AR v2)
Track 9 accurately ripped (confidence 26) [8AF89138] (AR v2)

All tracks accurately ripped

End of status report

–– CUETools DB Plugin V2.1.6

[CTDB TOCID: C7JZsw_oFPeC3nsEce8lko0fbdw-] found
Submit result: C7JZsw_oFPeC3nsEce8lko0fbdw- has been confirmed
Track | CTDB Status
1 | (81/81) Accurately ripped
2 | (81/81) Accurately ripped
3 | (81/81) Accurately ripped
4 | (81/81) Accurately ripped
5 | (81/81) Accurately ripped
6 | (81/81) Accurately ripped
7 | (81/81) Accurately ripped
8 | (81/81) Accurately ripped
9 | (81/81) Accurately ripped


==== Log checksum 6CD4880EB1427601DF9BEDEE1C4EBE972DEF5CB148EB25CBCC219D476CEBAB28 ====

[CUETools log; Date: 14.09.2020 10:22:49; Version: 2.1.6]
[CTDB TOCID: C7JZsw_oFPeC3nsEce8lko0fbdw-] found.
Track | CTDB Status
1 | (83/83) Accurately ripped
2 | (83/83) Accurately ripped
3 | (83/83) Accurately ripped
4 | (83/83) Accurately ripped
5 | (83/83) Accurately ripped
6 | (83/83) Accurately ripped
7 | (83/83) Accurately ripped
8 | (83/83) Accurately ripped
9 | (83/83) Accurately ripped
[AccurateRip ID: 000d582c-0061fd69-82090509] found.
Track [ CRC | V2 ] Status
01 [0046dfc8|ba1b1604] (00+26/26) Accurately ripped
02 [b0161a79|e473cb04] (00+26/26) Accurately ripped
03 [494e7ddd|b227e703] (00+26/26) Accurately ripped
04 [6c9bd55e|7a9eb52f] (00+26/26) Accurately ripped
05 [92c55570|88161304] (00+26/26) Accurately ripped
06 [de7d5e8f|569c15ef] (00+26/26) Accurately ripped
07 [6ae7c3c8|d17d3a3f] (00+26/26) Accurately ripped
08 [355ba1fb|4d1706d5] (00+26/26) Accurately ripped
09 [92d17223|8af89138] (00+26/26) Accurately ripped

Track Peak [ CRC32 ] [W/O NULL] [ LOG ]
– 100,0 [4C493BB4] [B54551F8] CRC32
01 100,0 [B28F99BF] [77748559]
02 100,0 [902BD0A9] [BAF28987]
03 100,0 [BEF7A434] [05C0A16A]
04 100,0 [EC6FB371] [32E089D2]
05 100,0 [1F52E3C6] [56907936]
06 100,0 [A42AE416] [226EF6B4]
07 100,0 [71E5638C] [392A564D]
08 100,0 [530D9747] [0AF326C7]
09 100,0 [4D9BA2E5] [05A7E536]

Robin Trower - The Studio Albums 1973-1983 (2019) {10CD Box Set}


All thanks go to salernitana

>>> Robin Trower in my Blog <<<

DOWNLOAD: