Subcategories

V.A. - The Real... Blues [3CD Box Set] (2015)

Posted By: gribovar
V.A. - The Real... Blues [3CD Box Set] (2015)

V.A. - The Real… Blues [3CD Box Set] (2015)
EAC Rip | FLAC (image+.cue+log) - 997 MB | MP3 CBR 320 kbps (LAME 3.93) - 465 MB | Covers - 14 MB
Genre: Blues | RAR 3% Rec. | Label: Sony Music ‎(88875139732)

Bessie Smith, Art Tatum, Louis Armstrong, Memphis Minnie, Billie Holiday, Duke Ellington, Memphis Slim, Johnny Otis, Muddy Waters, Otis Spann, Johnny Winter, Stevie Ray Vaughan & Double Trouble, Bob Dylan, Keb’ Mo and many more.
CD 1 Tracklist:
01. Mississippi Sheiks - Sittin’ On Top of the World
02. Mississippi John Hurt - Staggolee (Stack O'Lee)
03. Big Maceo - Worried Life Blues
04. Bessie Smith - Nobody Knows You When You’re Down & Out
05. Art Tatum - St. Louis Blues
06. Charlie Patton - High Sheriff Blues
07. Leroy Carr & Scrapper Blackwell - How Long, How Long Blues
08. Lonnie Johnson - Got the Blues for murder only
09. Louis Armstrong - St. James Infirmary
10. Tampa Red & Georgia Tom - You Can’t Get That Stuff No More
11. Big Bill Broonzy - Long Tall Mama
12. Blind Boy Fuller - Rag Mama Rag
13. Curtis Jones - Moonlight Lover Blues
14. Jazz Gillum - Early in the Morning
15. Lucille Bogan - Shave ‘Em Dry
16. Blind Willie McTell - Georgia Rag
17. Meade Lux Lewis & Pete Johsnon - Boogie Woogie Prayer (Part 1)
18. Sir Charles Thomson - Mister Boogie
19. Blind Lemon Jefferson - Matchbox Blues
20. Josh White - Black Man
21. Blind Willie Johnson - Dark Was The Night - Cold Was The Ground

Total time: 01:01:52

CD 2 Tracklist:
01. Robert Johnson - 32-20 Blues
02. Son House - Death Letter Blues
03. Memphis Minnie - Me & My Chauffeur Blues
04. Billie Holiday with Mal Waldron & The All Stars - Fine and Mellow
05. Duke Ellington - Mississippi Moan
06. Memphis Slim - Whiskey & Gin Blues
07. Champion Jack Dupree - Dupree Shake Dance
08. Robert Lee McCoy - Take It Easy Baby
09. Joe Williams - Baby Please Don't Go
10. Bukka White - Fixin’ to Die
11. Leadbelly - Easy Rider
12. Sonny Boy Williamson I - Sloppy Drunk Blues
13. Taj Mahal - Texas Woman Blues
14. Willie Dixon - You Shook Me
15. Larry Williams & Johnny Watson - Summertime (instr.)
16. Johnny Otis (feat. Roy Milton) - R.M. Blues
17. Muddy Waters - I Can’t Be Satisfied

Total time: 56:36

CD 3 Tracklist:
01. Muddy Waters - Mannish Boy
02. Otis Spann - Ain’t Nobody’s Business
03. Buddy Guy - Lucy Mae Blues
04. Fleetwood Mac (feat. Peter Green guitar) - Black Magic Woman
05. Johnny Guitar Watson & Larry Williams - Unchain My Heart
06. Michael Bloomfield - Mary Ann
07. The Fabulous Thunderbirds - Down at Antone’s
08. Johnny Winter - Mean Town Blues
09. Chris Whitley - Poison Girl
10. Stevie Ray Vaughan & Double Trouble - Cold Shot
11. Jimmie Vaughan - Motor Head Baby
12. Electric Flag (feat. Buddy Miles on vocals) - Texas
13. Taj Mahal - Chevrolet
14. Bob Dylan - Dirt Road Blues
15. Keb’ Mo - Am I Wrong
16. Alvin Youngblood Hart - Gallows Pole
17. Etta James - I’ll Take Care of You
18. Percy Mayfield - The Country
19. Muddy Waters - Sad Sad Day

Total time: 01:19:29

Exact Audio Copy V0.99 prebeta 5 from 4. May 2009

EAC extraction logfile from 12. July 2016, 17:27

Various / The Real… Blues Collection (Disc One)

Used drive : ATAPI iHAS122 C Adapter: 1 ID: 1

Read mode : Secure
Utilize accurate stream : Yes
Defeat audio cache : Yes
Make use of C2 pointers : No

Read offset correction : 6
Overread into Lead-In and Lead-Out : No
Fill up missing offset samples with silence : Yes
Delete leading and trailing silent blocks : No
Null samples used in CRC calculations : Yes
Used interface : Native Win32 interface for Win NT & 2000

Used output format : Internal WAV Routines
Sample format : 44.100 Hz; 16 Bit; Stereo


TOC of the extracted CD

Track | Start | Length | Start sector | End sector
––––––––––––––––––––––––––––-
1 | 0:00.00 | 3:14.74 | 0 | 14623
2 | 3:14.74 | 2:57.00 | 14624 | 27898
3 | 6:11.74 | 2:55.60 | 27899 | 41083
4 | 9:07.59 | 2:58.09 | 41084 | 54442
5 | 12:05.68 | 2:37.22 | 54443 | 66239
6 | 14:43.15 | 3:08.37 | 66240 | 80376
7 | 17:51.52 | 3:04.33 | 80377 | 94209
8 | 20:56.10 | 3:23.09 | 94210 | 109443
9 | 24:19.19 | 3:13.08 | 109444 | 123926
10 | 27:32.27 | 2:56.70 | 123927 | 137196
11 | 30:29.22 | 2:48.33 | 137197 | 149829
12 | 33:17.55 | 3:05.36 | 149830 | 163740
13 | 36:23.16 | 2:34.03 | 163741 | 175293
14 | 38:57.19 | 2:53.37 | 175294 | 188305
15 | 41:50.56 | 2:51.14 | 188306 | 201144
16 | 44:41.70 | 3:03.29 | 201145 | 214898
17 | 47:45.24 | 2:21.43 | 214899 | 225516
18 | 50:06.67 | 2:17.73 | 225517 | 235864
19 | 52:24.65 | 3:00.14 | 235865 | 249378
20 | 55:25.04 | 3:04.69 | 249379 | 263247
21 | 58:29.73 | 3:21.68 | 263248 | 278390


Range status and errors

Selected range

Filename C:\Users\Arturs\Desktop\Various - The Real… Blues Collection (Disc One).wav

Peak level 100.0 %
Range quality 100.0 %
Test CRC F4FDF5DD
Copy CRC F4FDF5DD
Copy OK

No errors occurred


AccurateRip summary

Track 1 cannot be verified as accurate (confidence 1) [305EA75A], AccurateRip returned [6AEE82A2]
Track 2 cannot be verified as accurate (confidence 1) [9AF004AD], AccurateRip returned [4F8AC196]
Track 3 cannot be verified as accurate (confidence 1) [E6A831FE], AccurateRip returned [381A5863]
Track 4 cannot be verified as accurate (confidence 1) [A67A9A1C], AccurateRip returned [2DC88650]
Track 5 cannot be verified as accurate (confidence 1) [B6BF69D5], AccurateRip returned [14A2E724]
Track 6 cannot be verified as accurate (confidence 1) [6945BED1], AccurateRip returned [ED6F141E]
Track 7 cannot be verified as accurate (confidence 1) [7A2DEEAC], AccurateRip returned [68812D35]
Track 8 cannot be verified as accurate (confidence 1) [9A99E876], AccurateRip returned [7C18ED1D]
Track 9 cannot be verified as accurate (confidence 1) [5B53ADF4], AccurateRip returned [7EA52EFD]
Track 10 cannot be verified as accurate (confidence 1) [C075CEE3], AccurateRip returned [DDE1E008]
Track 11 cannot be verified as accurate (confidence 1) [1C48534D], AccurateRip returned [F464D31A]
Track 12 cannot be verified as accurate (confidence 1) [DDF8BB8E], AccurateRip returned [B92B5FF8]
Track 13 cannot be verified as accurate (confidence 1) [25D698BB], AccurateRip returned [3C37093D]
Track 14 cannot be verified as accurate (confidence 1) [22D51E9F], AccurateRip returned [1E6EC71A]
Track 15 cannot be verified as accurate (confidence 1) [68966E38], AccurateRip returned [1D8E6E70]
Track 16 cannot be verified as accurate (confidence 1) [3A979BD9], AccurateRip returned [8DC01BED]
Track 17 cannot be verified as accurate (confidence 1) [3FB8235C], AccurateRip returned [C09FC347]
Track 18 cannot be verified as accurate (confidence 1) [A2057D7D], AccurateRip returned [3366D74B]
Track 19 cannot be verified as accurate (confidence 1) [72228406], AccurateRip returned [32887833]
Track 20 cannot be verified as accurate (confidence 1) [BC36272D], AccurateRip returned [D8AEB9EA]
Track 21 cannot be verified as accurate (confidence 1) [0620C1E8], AccurateRip returned [E143EADB]

No tracks could be verified as accurate
You may have a different pressing from the one(s) in the database

End of status report

[CUETools log; Date: 27.05.2020 18:56:48; Version: 2.1.4]
[CTDB TOCID: 6BLHndqo_U_vVgcPitGPMUu4cMU-] found.
Track | CTDB Status
1 | (28/28) Accurately ripped
2 | (28/28) Accurately ripped
3 | (28/28) Accurately ripped
4 | (28/28) Accurately ripped
5 | (28/28) Accurately ripped
6 | (28/28) Accurately ripped
7 | (28/28) Accurately ripped
8 | (28/28) Accurately ripped
9 | (28/28) Accurately ripped
10 | (28/28) Accurately ripped
11 | (28/28) Accurately ripped
12 | (28/28) Accurately ripped
13 | (28/28) Accurately ripped
14 | (28/28) Accurately ripped
15 | (28/28) Accurately ripped
16 | (28/28) Accurately ripped
17 | (28/28) Accurately ripped
18 | (28/28) Accurately ripped
19 | (28/28) Accurately ripped
20 | (27/28) Accurately ripped
21 | (28/28) Accurately ripped
[AccurateRip ID: 002f3a14-02d10cc2-3e0e7f15] found.
Track [ CRC | V2 ] Status
01 [305ea75a|6aee82a2] (0+8/8) Accurately ripped
02 [9af004ad|4f8ac196] (0+8/8) Accurately ripped
03 [e6a831fe|381a5863] (0+9/9) Accurately ripped
04 [a67a9a1c|2dc88650] (0+9/9) Accurately ripped
05 [b6bf69d5|14a2e724] (0+9/9) Accurately ripped
06 [6945bed1|ed6f141e] (0+9/9) Accurately ripped
07 [7a2deeac|68812d35] (0+9/9) Accurately ripped
08 [9a99e876|7c18ed1d] (0+9/9) Accurately ripped
09 [5b53adf4|7ea52efd] (0+9/9) Accurately ripped
10 [c075cee3|dde1e008] (0+9/9) Accurately ripped
11 [1c48534d|f464d31a] (0+9/9) Accurately ripped
12 [ddf8bb8e|b92b5ff8] (0+9/9) Accurately ripped
13 [25d698bb|3c37093d] (0+9/9) Accurately ripped
14 [22d51e9f|1e6ec71a] (0+9/9) Accurately ripped
15 [68966e38|1d8e6e70] (0+9/9) Accurately ripped
16 [3a979bd9|8dc01bed] (0+9/9) Accurately ripped
17 [3fb8235c|c09fc347] (0+9/9) Accurately ripped
18 [a2057d7d|3366d74b] (0+9/9) Accurately ripped
19 [72228406|32887833] (0+9/9) Accurately ripped
20 [bc36272d|d8aeb9ea] (0+9/9) Accurately ripped
21 [0620c1e8|e143eadb] (0+9/9) Accurately ripped

Track Peak [ CRC32 ] [W/O NULL] [ LOG ]
– 100,0 [F4FDF5DD] [CD428093] CRC32
01 79,4 [0789EA34] [96E5A512]
02 98,7 [DB8EB7BB] [899F1BA2]
03 98,2 [C534B277] [9DBDF41A]
04 99,0 [558C3284] [211FB99A]
05 100,0 [7C88DD4B] [6C84166D]
06 99,0 [72D7C45B] [855E6354]
07 76,3 [6166D2A6] [882E1516]
08 99,0 [0E5DCD1C] [CFC837DF]
09 97,0 [A33D4499] [DA00D98B]
10 99,0 [691FD4B3] [5BDBB8E0]
11 98,2 [C02F6A40] [6B7B299D]
12 98,5 [21D8C193] [93081E47]
13 93,3 [68C2B100] [ED3ADEBC]
14 79,2 [BEEA9D6A] [F927CF38]
15 91,2 [F73E0D33] [2BE1A970]
16 94,8 [EEA65117] [896DEFE5]
17 99,0 [F355ECA5] [07B45312]
18 85,6 [8CE0B360] [CF305DA1]
19 82,3 [FBD0A840] [2663453E]
20 99,0 [70A40A4D] [FE842E56]
21 70,0 [0A46F250] [E940C5A3]

Exact Audio Copy V0.99 prebeta 5 from 4. May 2009

EAC extraction logfile from 12. July 2016, 17:42

Various Artists / The Real… Blues Collection (Disc Two)

Used drive : ATAPI iHAS122 C Adapter: 1 ID: 1

Read mode : Secure
Utilize accurate stream : Yes
Defeat audio cache : Yes
Make use of C2 pointers : No

Read offset correction : 6
Overread into Lead-In and Lead-Out : No
Fill up missing offset samples with silence : Yes
Delete leading and trailing silent blocks : No
Null samples used in CRC calculations : Yes
Used interface : Native Win32 interface for Win NT & 2000

Used output format : Internal WAV Routines
Sample format : 44.100 Hz; 16 Bit; Stereo


TOC of the extracted CD

Track | Start | Length | Start sector | End sector
––––––––––––––––––––––––––––-
1 | 0:00.00 | 2:50.08 | 0 | 12757
2 | 2:50.08 | 4:20.40 | 12758 | 32297
3 | 7:10.48 | 2:45.52 | 32298 | 44724
4 | 9:56.25 | 6:22.00 | 44725 | 73374
5 | 16:18.25 | 3:25.63 | 73375 | 88812
6 | 19:44.13 | 2:41.44 | 88813 | 100931
7 | 22:25.57 | 2:42.23 | 100932 | 113104
8 | 25:08.05 | 2:29.56 | 113105 | 124335
9 | 27:37.61 | 2:48.38 | 124336 | 136973
10 | 30:26.24 | 2:47.45 | 136974 | 149543
11 | 33:13.69 | 3:13.23 | 149544 | 164041
12 | 36:27.17 | 3:15.16 | 164042 | 178682
13 | 39:42.33 | 2:55.20 | 178683 | 191827
14 | 42:37.53 | 4:15.73 | 191828 | 211025
15 | 46:53.51 | 3:07.06 | 211026 | 225056
16 | 50:00.57 | 3:04.00 | 225057 | 238856
17 | 53:04.57 | 3:31.00 | 238857 | 254681


Range status and errors

Selected range

Filename C:\Users\Arturs\Desktop\Various Artists - The Real… Blues Collection (Disc Two).wav

Peak level 99.0 %
Range quality 100.0 %
Test CRC 9B04E769
Copy CRC 9B04E769
Copy OK

No errors occurred


AccurateRip summary

Track 1 cannot be verified as accurate (confidence 1) [66B1C82F], AccurateRip returned [3459F7D0]
Track 2 cannot be verified as accurate (confidence 1) [2B3424BA], AccurateRip returned [01B2435B]
Track 3 cannot be verified as accurate (confidence 1) [3C2B34ED], AccurateRip returned [5AFBF741]
Track 4 cannot be verified as accurate (confidence 1) [F52BEFBE], AccurateRip returned [2B1397A6]
Track 5 cannot be verified as accurate (confidence 1) [3BEFF567], AccurateRip returned [C12A232E]
Track 6 cannot be verified as accurate (confidence 1) [2456CE7A], AccurateRip returned [876EB996]
Track 7 cannot be verified as accurate (confidence 1) [91A23C7C], AccurateRip returned [31525195]
Track 8 cannot be verified as accurate (confidence 1) [7617B561], AccurateRip returned [E282E770]
Track 9 cannot be verified as accurate (confidence 1) [7B5A0D54], AccurateRip returned [6DE6BF90]
Track 10 cannot be verified as accurate (confidence 1) [0D7AD72C], AccurateRip returned [B6D5AFB3]
Track 11 cannot be verified as accurate (confidence 1) [FA1619D6], AccurateRip returned [38CCF63F]
Track 12 cannot be verified as accurate (confidence 1) [D7FB21B2], AccurateRip returned [6A73FC41]
Track 13 cannot be verified as accurate (confidence 1) [E74B6398], AccurateRip returned [565858C5]
Track 14 cannot be verified as accurate (confidence 1) [C033F39D], AccurateRip returned [67A6703D]
Track 15 cannot be verified as accurate (confidence 1) [3154B80F], AccurateRip returned [5B915BEF]
Track 16 cannot be verified as accurate (confidence 1) [D4BA449D], AccurateRip returned [ED1150B2]
Track 17 cannot be verified as accurate (confidence 1) [B611FAE8], AccurateRip returned [4E7024C0]

No tracks could be verified as accurate
You may have a different pressing from the one(s) in the database

End of status report

[CUETools log; Date: 27.05.2020 18:57:08; Version: 2.1.4]
[CTDB TOCID: t9ili189gLeAWLVfU0lmicUaP74-] found.
Track | CTDB Status
1 | (27/27) Accurately ripped
2 | (27/27) Accurately ripped
3 | (27/27) Accurately ripped
4 | (27/27) Accurately ripped
5 | (27/27) Accurately ripped
6 | (27/27) Accurately ripped
7 | (27/27) Accurately ripped
8 | (27/27) Accurately ripped
9 | (27/27) Accurately ripped
10 | (27/27) Accurately ripped
11 | (27/27) Accurately ripped
12 | (27/27) Accurately ripped
13 | (27/27) Accurately ripped
14 | (27/27) Accurately ripped
15 | (27/27) Accurately ripped
16 | (27/27) Accurately ripped
17 | (27/27) Accurately ripped
[AccurateRip ID: 0023b8ab-01bf9b1a-040d4311] found.
Track [ CRC | V2 ] Status
01 [66b1c82f|3459f7d0] (0+8/8) Accurately ripped
02 [2b3424ba|01b2435b] (0+8/8) Accurately ripped
03 [3c2b34ed|5afbf741] (0+8/8) Accurately ripped
04 [f52befbe|2b1397a6] (0+8/8) Accurately ripped
05 [3beff567|c12a232e] (0+8/8) Accurately ripped
06 [2456ce7a|876eb996] (0+8/8) Accurately ripped
07 [91a23c7c|31525195] (0+8/8) Accurately ripped
08 [7617b561|e282e770] (0+8/8) Accurately ripped
09 [7b5a0d54|6de6bf90] (0+8/8) Accurately ripped
10 [0d7ad72c|b6d5afb3] (0+8/8) Accurately ripped
11 [fa1619d6|38ccf63f] (0+8/8) Accurately ripped
12 [d7fb21b2|6a73fc41] (0+8/8) Accurately ripped
13 [e74b6398|565858c5] (0+8/8) Accurately ripped
14 [c033f39d|67a6703d] (0+8/8) Accurately ripped
15 [3154b80f|5b915bef] (0+8/8) Accurately ripped
16 [d4ba449d|ed1150b2] (0+8/8) Accurately ripped
17 [b611fae8|4e7024c0] (0+8/8) Accurately ripped

Track Peak [ CRC32 ] [W/O NULL] [ LOG ]
– 99,0 [9B04E769] [68D8581A] CRC32
01 99,0 [8C0CEAED] [DFA48A4B]
02 99,0 [779A2066] [22EC20DE]
03 99,0 [BCC89581] [A74449CF]
04 99,0 [4F55863F] [D83362F9]
05 99,0 [27DBF752] [C11043B3]
06 99,0 [25B5FF4B] [3E49EDE2]
07 99,0 [8DA04831] [BF9D8534]
08 99,0 [5752FFEE] [AC14E1C0]
09 99,0 [68178C1E] [915EA1B0]
10 99,0 [5900BCC0] [5452ED04]
11 99,0 [AC0F7815] [44481AA4]
12 99,0 [F6BDE829] [67D11D95]
13 97,5 [4A6085B8] [5C387953]
14 99,0 [F2E4945C] [8CA4384E]
15 99,0 [16E159C2] [1D782C12]
16 90,3 [117DDADD] [B30A1D55]
17 97,7 [C87D367A] [93ECDCFF]

Exact Audio Copy V0.99 prebeta 5 from 4. May 2009

EAC extraction logfile from 12. July 2016, 17:58

Various Artists / The Real… Blues Collection (Disc Three)

Used drive : ATAPI iHAS122 C Adapter: 1 ID: 1

Read mode : Secure
Utilize accurate stream : Yes
Defeat audio cache : Yes
Make use of C2 pointers : No

Read offset correction : 6
Overread into Lead-In and Lead-Out : No
Fill up missing offset samples with silence : Yes
Delete leading and trailing silent blocks : No
Null samples used in CRC calculations : Yes
Used interface : Native Win32 interface for Win NT & 2000

Used output format : Internal WAV Routines
Sample format : 44.100 Hz; 16 Bit; Stereo


TOC of the extracted CD

Track | Start | Length | Start sector | End sector
––––––––––––––––––––––––––––-
1 | 0:00.00 | 5:24.36 | 0 | 24335
2 | 5:24.36 | 5:12.58 | 24336 | 47793
3 | 10:37.19 | 3:32.24 | 47794 | 63717
4 | 14:09.43 | 2:52.36 | 63718 | 76653
5 | 17:02.04 | 3:12.26 | 76654 | 91079
6 | 20:14.30 | 5:20.65 | 91080 | 115144
7 | 25:35.20 | 3:05.48 | 115145 | 129067
8 | 28:40.68 | 8:19.17 | 129068 | 166509
9 | 37:00.10 | 3:27.00 | 166510 | 182034
10 | 40:27.10 | 4:00.42 | 182035 | 200076
11 | 44:27.52 | 4:00.19 | 200077 | 218095
12 | 48:27.71 | 4:47.74 | 218096 | 239694
13 | 53:15.70 | 2:38.56 | 239695 | 251600
14 | 55:54.51 | 3:37.01 | 251601 | 267876
15 | 59:31.52 | 2:19.22 | 267877 | 278323
16 | 61:50.74 | 4:44.18 | 278324 | 299641
17 | 66:35.17 | 4:59.16 | 299642 | 322082
18 | 71:34.33 | 2:28.42 | 322083 | 333224
19 | 74:03.00 | 5:26.17 | 333225 | 357691


Range status and errors

Selected range

Filename C:\Users\Arturs\Desktop\Various Artists - The Real… Blues Collection (Disc Three).wav

Peak level 99.0 %
Range quality 100.0 %
Test CRC B645C0BD
Copy CRC B645C0BD
Copy OK

No errors occurred


AccurateRip summary

Track 1 cannot be verified as accurate (confidence 1) [ED2ED7D4], AccurateRip returned [53B75398]
Track 2 cannot be verified as accurate (confidence 1) [4C65BCDA], AccurateRip returned [2B97FD2E]
Track 3 cannot be verified as accurate (confidence 1) [CFD79730], AccurateRip returned [26FE31BC]
Track 4 cannot be verified as accurate (confidence 1) [DCB11AB6], AccurateRip returned [56810137]
Track 5 cannot be verified as accurate (confidence 1) [790EB728], AccurateRip returned [CEE75FCA]
Track 6 cannot be verified as accurate (confidence 1) [622C6A20], AccurateRip returned [8BD73A08]
Track 7 cannot be verified as accurate (confidence 1) [EE1A138B], AccurateRip returned [E547E58B]
Track 8 cannot be verified as accurate (confidence 1) [DD104DAB], AccurateRip returned [DB028E23]
Track 9 cannot be verified as accurate (confidence 1) [7E361F44], AccurateRip returned [FF186C02]
Track 10 cannot be verified as accurate (confidence 1) [2FC7055E], AccurateRip returned [2465AA29]
Track 11 cannot be verified as accurate (confidence 1) [128B35B7], AccurateRip returned [FC28BF72]
Track 12 cannot be verified as accurate (confidence 1) [CFC96B52], AccurateRip returned [197D8539]
Track 13 cannot be verified as accurate (confidence 1) [E2283351], AccurateRip returned [0E0C6D66]
Track 14 cannot be verified as accurate (confidence 1) [6F94D63E], AccurateRip returned [D3C6933E]
Track 15 cannot be verified as accurate (confidence 1) [F057B67B], AccurateRip returned [356C05CB]
Track 16 cannot be verified as accurate (confidence 1) [B53D7159], AccurateRip returned [0DAD8F6E]
Track 17 cannot be verified as accurate (confidence 1) [7C3B6217], AccurateRip returned [4DDA7430]
Track 18 cannot be verified as accurate (confidence 1) [B8BEF741], AccurateRip returned [3EABF7CF]
Track 19 cannot be verified as accurate (confidence 1) [E663333C], AccurateRip returned [017B97CB]

No tracks could be verified as accurate
You may have a different pressing from the one(s) in the database

End of status report

[CUETools log; Date: 27.05.2020 18:57:37; Version: 2.1.4]
[CTDB TOCID: 9MJjLhVChblZNVy0kE3yOIHKTH8-] found.
Track | CTDB Status
1 | (29/29) Accurately ripped
2 | (29/29) Accurately ripped
3 | (29/29) Accurately ripped
4 | (29/29) Accurately ripped
5 | (29/29) Accurately ripped
6 | (29/29) Accurately ripped
7 | (29/29) Accurately ripped
8 | (29/29) Accurately ripped
9 | (29/29) Accurately ripped
10 | (29/29) Accurately ripped
11 | (29/29) Accurately ripped
12 | (28/29) Accurately ripped
13 | (29/29) Accurately ripped
14 | (29/29) Accurately ripped
15 | (29/29) Accurately ripped
16 | (28/29) Accurately ripped
17 | (27/29) Accurately ripped
18 | (28/29) Accurately ripped
19 | (28/29) Accurately ripped
[AccurateRip ID: 0037eb0c-0307bbd6-2512a113] found.
Track [ CRC | V2 ] Status
01 [ed2ed7d4|53b75398] (0+8/8) Accurately ripped
02 [4c65bcda|2b97fd2e] (0+8/8) Accurately ripped
03 [cfd79730|26fe31bc] (0+8/8) Accurately ripped
04 [dcb11ab6|56810137] (0+8/8) Accurately ripped
05 [790eb728|cee75fca] (0+8/8) Accurately ripped
06 [622c6a20|8bd73a08] (0+8/8) Accurately ripped
07 [ee1a138b|e547e58b] (0+8/8) Accurately ripped
08 [dd104dab|db028e23] (0+8/8) Accurately ripped
09 [7e361f44|ff186c02] (0+8/8) Accurately ripped
10 [2fc7055e|2465aa29] (0+8/8) Accurately ripped
11 [128b35b7|fc28bf72] (0+8/8) Accurately ripped
12 [cfc96b52|197d8539] (0+8/8) Accurately ripped
13 [e2283351|0e0c6d66] (0+8/8) Accurately ripped
14 [6f94d63e|d3c6933e] (0+8/8) Accurately ripped
15 [f057b67b|356c05cb] (0+8/8) Accurately ripped
16 [b53d7159|0dad8f6e] (0+8/8) Accurately ripped
17 [7c3b6217|4dda7430] (0+8/8) Accurately ripped
18 [b8bef741|3eabf7cf] (0+8/8) Accurately ripped
19 [e663333c|017b97cb] (0+8/8) Accurately ripped

Track Peak [ CRC32 ] [W/O NULL] [ LOG ]
– 99,0 [B645C0BD] [DB31D64D] CRC32
01 99,0 [DAA88EEB] [12C16FA0]
02 99,0 [58A073DE] [248958C1]
03 99,0 [14C7DEFC] [E2B00B59]
04 99,0 [EEAEDEE8] [BEECA44D]
05 99,0 [BBF73C65] [C059F383]
06 99,0 [959B2340] [569E703E]
07 99,0 [32149F54] [0D349F5E]
08 86,2 [6971229F] [D59AD9EF]
09 99,0 [18F69404] [B03F150B]
10 99,0 [8159F279] [FC26820D]
11 88,4 [8B197ABD] [B60C9C21]
12 99,0 [EDE96271] [41134F4F]
13 99,0 [0A0182D3] [13A0CD5C]
14 99,0 [DEA296E4] [7841A740]
15 97,7 [EBB8DB3C] [19C087B2]
16 96,1 [47DF8B7D] [F8FACD8A]
17 89,1 [D59238FE] [79EFB2D2]
18 91,7 [01F2FC0B] [11D09180]
19 99,0 [BCB5D100] [570EE371]

Thanks to London