Tags
Language
Tags

Chocolate (2008)

Posted By: Tavaz
1080p (FullHD) / BDRip IMDb
Chocolate (2008)

Chocolate (2008)
BDRip | MKV | 1920x1080 | ภาษาไทย / English | H264 @ 10774 kbps | DTS @ 1509 kbps | 1 h 32 min | 8.35 GiB
Subtitles: English
Genre: Action, Comedy, Crime

Zen, an autistic teenage girl with powerful martial skills, gets money to pay Zin's treatment, her sick mother, seeking out all the people who owe Zin money.

Chocolate.2008.1080p.BluRay.DTS.x264-RUXi.part1.rar (4.4 GB)
Chocolate.2008.1080p.BluRay.DTS.x264-RUXi.part2.rar (4.1 GB)



General
Unique ID : 217161435913601696990805454915460928952 (0xA35FC56E9F541D6496FD57AC1F5C15B8)
Complete name : ./898264227da4ed3325ce9187c61c4f28.mkv
Format : Matroska
Format version : Version 2
File size : 8.35 GiB
Duration : 1 h 32 min
Overall bit rate : 12.9 Mb/s
Movie name : Chocolate 2008 1080p BluRay DTS x264-RUXi
Encoded date : UTC 2014-05-20 04:31:26
Writing application : mkvmerge v6.5.0 ('Isn't she lovely') built on Oct 20 2013 12:50:05
Writing library : libebml v1.3.0 + libmatroska v1.4.1

Video
ID : 1
Format : AVC
Format/Info : Advanced Video Codec
Format profile : High@L4.1
Format settings : CABAC / 3 Ref Frames
Format settings, CABAC : Yes
Format settings, RefFrames : 3 frames
Codec ID : V_MPEG4/ISO/AVC
Duration : 1 h 32 min
Bit rate : 10.8 Mb/s
Width : 1 920 pixels
Height : 1 080 pixels
Display aspect ratio : 16:9
Frame rate mode : Constant
Frame rate : 23.976 (24000/1001) FPS
Color space : YUV
Chroma subsampling : 4:2:0
Bit depth : 8 bits
Scan type : Progressive
Bits/(Pixel*Frame) : 0.217
Stream size : 6.80 GiB (81%)
Writing library : x264 core 135 r2345 f0c1c53
Encoding settings : cabac=1 / ref=4 / deblock=1:-2:-2 / analyse=0x3:0x113 / me=umh / subme=11 / psy=1 / psy_rd=1.00:0.00 / mixed_ref=1 / me_range=48 / chroma_me=1 / trellis=2 / 8x8dct=1 / cqm=0 / deadzone=21,11 / fast_pskip=1 / chroma_qp_offset=-2 / threads=8 / lookahead_threads=1 / sliced_threads=0 / nr=0 / decimate=1 / interlaced=0 / bluray_compat=0 / constrained_intra=0 / bframes=8 / b_pyramid=1 / b_adapt=2 / b_bias=0 / direct=1 / weightb=1 / open_gop=0 / weightp=2 / keyint=240 / keyint_min=24 / scenecut=40 / intra_refresh=0 / rc_lookahead=60 / rc=2pass / mbtree=1 / bitrate=10774 / ratetol=1.0 / qcomp=0.60 / qpmin=0 / qpmax=69 / qpstep=4 / cplxblur=20.0 / qblur=0.5 / vbv_maxrate=25000 / vbv_bufsize=25000 / nal_hrd=none / ip_ratio=1.40 / aq=1:0.90
Default : Yes
Forced : No

Audio #1
ID : 2
Format : DTS
Format/Info : Digital Theater Systems
Mode : 16
Format settings, Endianness : Big
Codec ID : A_DTS
Duration : 1 h 32 min
Bit rate mode : Constant
Bit rate : 1 509 kb/s
Channel(s) : 6 channels
Channel positions : Front: L C R, Side: L R, LFE
Sampling rate : 48.0 kHz
Frame rate : 93.750 FPS (512 SPF)
Bit depth : 24 bits
Compression mode : Lossy
Stream size : 999 MiB (12%)
Language : Thai
Default : Yes
Forced : No

Audio #2
ID : 3
Format : AC-3
Format/Info : Audio Coding 3
Format settings, Endianness : Big
Codec ID : A_AC3
Duration : 1 h 32 min
Bit rate mode : Constant
Bit rate : 640 kb/s
Channel(s) : 6 channels
Channel positions : Front: L C R, Side: L R, LFE
Sampling rate : 48.0 kHz
Frame rate : 31.250 FPS (1536 SPF)
Bit depth : 16 bits
Compression mode : Lossy
Stream size : 424 MiB (5%)
Language : English
Service kind : Complete Main
Default : No
Forced : No

Text
ID : 4
Format : PGS
Muxing mode : zlib
Codec ID : S_HDMV/PGS
Codec ID/Info : Picture based subtitle format used on BDs/HD-DVDs
Language : English
Default : Yes
Forced : No

Menu
00:00:00.000 : en:00:00:00.000
00:15:20.002 : en:00:15:20.002
00:30:36.334 : en:00:30:36.334
00:46:02.885 : en:00:46:02.885
01:01:19.426 : en:01:01:19.426
01:16:45.017 : en:01:16:45.017





Chocolate (2008)


Chocolate (2008)


Chocolate (2008)


Chocolate (2008)


Chocolate (2008)