Tags
Language
Tags

Demolition Man (1993)

Posted By: Tavaz
1080p (FullHD) / BDRip IMDb
Demolition Man (1993)

Demolition Man (1993)
BDRip | MKV | 1920x802 | English | H265 @ 3892 kbps | AC-3 @ 448 kbps | 1 h 55 min | 3.61 GiB
Subtitles: English
Genre: Crime, Action, Science Fiction

Simon Phoenix, a violent criminal cryogenically frozen in 1996, escapes during a parole hearing in 2032 in the utopia of San Angeles. Police are incapable of dealing with his violent ways and turn to his captor, who had also been cryogenically frozen after being wrongfully accused of killing 30 innocent people while apprehending Phoenix.

9ce48b980fb60091d3adc71559eae8f9.mkv (3.6 GB)



General
Complete name : ./9ce48b980fb60091d3adc71559eae8f9.mkv
Format : Matroska
Format version : Version 4 / Version 2
File size : 3.61 GiB
Duration : 1 h 55 min
Overall bit rate : 4 496 kb/s
Encoded date : UTC 2020-09-11 23:47:33
Writing application : mkvmerge v49.0.0 ('Sick Of Losing Soulmates') 64-bit
Writing library : libebml v1.4.0 + libmatroska v1.6.1 / Lavf58.29.100

Video
ID : 1
Format : HEVC
Format/Info : High Efficiency Video Coding
Format profile : Main 10@L4@Main
Codec ID : V_MPEGH/ISO/HEVC
Duration : 1 h 55 min
Bit rate : 3 893 kb/s
Width : 1 920 pixels
Height : 802 pixels
Display aspect ratio : 2.40:1
Frame rate mode : Constant
Frame rate : 23.976 (24000/1001) FPS
Color space : YUV
Chroma subsampling : 4:2:0
Bit depth : 10 bits
Bits/(Pixel*Frame) : 0.105
Stream size : 3.13 GiB (87%)
Writing library : x265 3.2.1+1-b5c86a64bbbe:[Windows][GCC 9.2.0][64 bit] 10bit
Encoding settings : cpuid=1111039 / frame-threads=4 / numa-pools=24 / wpp / no-pmode / no-pme / no-psnr / no-ssim / log-level=2 / input-csp=1 / input-res=1920x802 / interlace=0 / total-frames=0 / level-idc=0 / high-tier=1 / uhd-bd=0 / ref=3 / no-allow-non-conformance / no-repeat-headers / annexb / no-aud / no-hrd / info / hash=0 / no-temporal-layers / open-gop / min-keyint=24 / keyint=240 / gop-lookahead=0 / bframes=4 / b-adapt=2 / b-pyramid / bframe-bias=0 / rc-lookahead=20 / lookahead-slices=5 / scenecut=40 / radl=0 / no-splice / no-intra-refresh / ctu=64 / min-cu-size=8 / no-rect / no-amp / max-tu-size=32 / tu-inter-depth=1 / tu-intra-depth=1 / limit-tu=0 / rdoq-level=0 / dynamic-rd=0.00 / no-ssim-rd / signhide / no-tskip / nr-intra=0 / nr-inter=0 / no-constrained-intra / no-strong-intra-smoothing / max-merge=3 / limit-refs=1 / no-limit-modes / me=1 / subme=2 / merange=57 / temporal-mvp / no-hme / weightp / no-weightb / no-analyze-src-pics / deblock=-1:-1 / sao / no-sao-non-deblock / rd=3 / selective-sao=4 / early-skip / rskip / no-fast-intra / no-tskip-fast / no-cu-lossless / b-intra / no-splitrd-skip / rdpenalty=0 / psy-rd=2.00 / psy-rdoq=0.00 / no-rd-refine / no-lossless / cbqpoffs=0 / crqpoffs=0 / rc=abr / bitrate=3900 / qcomp=0.60 / qpstep=4 / stats-write=0 / stats-read=0 / ipratio=1.40 / pbratio=1.30 / aq-mode=3 / aq-strength=1.00 / cutree / zone-count=0 / no-strict-cbr / qg-size=32 / no-rc-grain / qpmax=69 / qpmin=0 / no-const-vbv / sar=1 / overscan=0 / videoformat=5 / range=0 / colorprim=1 / transfer=1 / colormatrix=1 / chromaloc=0 / display-window=0 / cll=0,0 / min-luma=0 / max-luma=1023 / log2-max-poc-lsb=8 / vui-timing-info / vui-hrd-info / slices=1 / no-opt-qp-pps / no-opt-ref-list-length-pps / no-multi-pass-opt-rps / scenecut-bias=0.05 / no-opt-cu-delta-qp / no-aq-motion / no-hdr / no-hdr-opt / no-dhdr10-opt / no-idr-recovery-sei / analysis-reuse-level=5 / scale-factor=0 / refine-intra=0 / refine-inter=0 / refine-mv=1 / refine-ctu-distortion=0 / no-limit-sao / ctu-info=0 / no-lowpass-dct / refine-analysis-type=0 / copy-pic=1 / max-ausize-factor=1.0 / no-dynamic-refine / no-single-sei / no-hevc-aq / no-svt / no-field / qp-adaptation-range=1.00
Default : Yes
Forced : No
Color range : Limited
Color primaries : BT.709
Transfer characteristics : BT.709
Matrix coefficients : BT.709

Audio #1
ID : 2
Format : AC-3
Format/Info : Audio Coding 3
Format settings, Endianness : Big
Codec ID : A_AC3
Duration : 1 h 55 min
Bit rate mode : Constant
Bit rate : 448 kb/s
Channel(s) : 6 channels
Channel positions : Front: L C R, Side: L R, LFE
Sampling rate : 48.0 kHz
Frame rate : 31.250 FPS (1536 SPF)
Bit depth : 16 bits
Compression mode : Lossy
Delay relative to video : -5 ms
Stream size : 369 MiB (10%)
Title : Surround
Language : English
Service kind : Complete Main
Default : Yes
Forced : No

Audio #2
ID : 3
Format : AAC
Format/Info : Advanced Audio Codec
Format profile : LC
Codec ID : A_AAC-2
Duration : 1 h 55 min
Bit rate : 153 kb/s
Channel(s) : 2 channels
Channel positions : Front: L R
Sampling rate : 48.0 kHz
Frame rate : 46.875 FPS (1024 SPF)
Compression mode : Lossy
Delay relative to video : 9 ms
Stream size : 126 MiB (3%)
Title : Stereo
Language : English
Default : No
Forced : No

Text
ID : 4
Format : ASS
Codec ID : S_TEXT/ASS
Codec ID/Info : Advanced Sub Station Alpha
Duration : 1 h 49 min
Bit rate : 101 b/s
Count of elements : 1447
Compression mode : Lossless
Stream size : 81.4 KiB (0%)
Language : English
Default : No
Forced : No

Menu
00:00:00.000 : :Send in the Maniac
00:02:50.212 : :A Hot Time
00:07:11.056 : :A Cold Sentence
00:11:30.523 : :Lacking Stimulus
00:16:46.214 : :Equals 4MDKs
00:23:00.087 : :No Respect for Law
00:28:39.760 : :Governor's Problem
00:31:03.987 : :Demo Man Legend
00:32:43.879 : :Wake-Up Call
00:37:45.555 : :So Much For Shells
00:41:26.901 : :Violence in Hall
00:47:32.141 : :Blast From Past
00:51:13.445 : :Someone to Kill?
00:54:35.355 : :All Restaurants…
00:57:18.060 : :Dining With Governor
01:00:17.322 : :Attack of Scraps
01:03:16.668 : :After-Dinner Chats
01:07:42.225 : :21st-Century Sex
01:14:57.410 : :A Gift For Lenina
01:17:39.530 : :Comfront Cocteau
01:19:54.581 : :Wasteland
01:24:09.378 : :Friendly Manifesto
01:27:04.010 : :Good Old Days
01:28:04.946 : :Unwelcome Guests
01:30:26.254 : :Pedal to the Medal
01:34:50.560 : :Unexpected Allies
01:37:10.992 : :End Cocteau Plan
01:41:17.113 : :CryoPrison Chaos
01:45:52.221 : :Best Day of My Life
01:48:42.850 : :Gonna Like Future





Demolition Man (1993)


Demolition Man (1993)


Demolition Man (1993)


Demolition Man (1993)


Demolition Man (1993)