Tags
Language
Tags

SBS - Inside the Mind of Leonardo (2014)

Posted By: Tutorial
720p (HD) / HDTV
SBS - Inside the Mind of Leonardo (2014)

SBS - Inside the Mind of Leonardo (2014)
HDTV | 1280 x 720 | .MP4/AVC @ 2800 Kbps | 1h 22mn | English AAC 160 Kbps, 2 channels | 1.71 GB
Genre: Documentary, Arts

The inspiring world of Leonardo da Vinci is brought to life by acclaimed BAFTA award-winning actor Peter Capaldi in a unique dramatised documentary Inside The Mind Of Leonardo is based on the artist's private journals dating from the Italian Renaissance. With more than 6,000 pages of handwritten notes and drawings, da Vinci's private journals are the most comprehensive documents that chronicle the work of the world's most renowned inventor, philosopher, painter, and genius Using this precious collection of writings and drawings to recount da Vinci's story in his own words, we re-create the mindscape and ideas of mankind's greatest polymath In a powerful haunting performance, award-winning actor Peter Capaldi portrays Leonardo and dramatically narrates passages and monologues from these journals. Capaldi captures the passion of Leonardo's ambition, his opinion of the world and his views on art and life. From the epic to the ordinary, Inside The Mind Of Leonardo explores how Leonardo experienced the world around him Following a biographical narrative, the feature captures the artist's thwarted ambitions, hurt, anger, and sexual desire as documented within his diaries, but also the mundanity of normal life: his shopping lists, health tips, and bawdy jokes.

General
Complete name : Inside.The.Mind.Of.Leonardo.mp4
Format : MPEG-4
Format profile : Base Media / Version 2
Codec ID : mp42
File size : 1.71 GiB
Duration : 1h 22mn
Overall bit rate mode : Variable
Overall bit rate : 2 955 Kbps
Encoded date : UTC 2014-07-28 21:47:35
Tagged date : UTC 2014-07-29 01:15:07
Writing application : HandBrake 0.9.9 2013052900

Video
ID : 1
Format : AVC
Format/Info : Advanced Video Codec
Format profile : High@L4.1
Format settings, CABAC : Yes
Format settings, ReFrames : 4 frames
Codec ID : avc1
Codec ID/Info : Advanced Video Coding
Duration : 1h 22mn
Bit rate mode : Variable
Bit rate : 2 800 Kbps
Width : 1 280 pixels
Height : 720 pixels
Display aspect ratio : 16:9
Frame rate mode : Constant
Frame rate : 25.000 fps
Color space : YUV
Chroma subsampling : 4:2:0
Bit depth : 8 bits
Scan type : Progressive
Bits/(Pixel*Frame) : 0.122
Stream size : 1.62 GiB (94%)
Writing library : x264 core 130 r2273 b3065e6
Encoding settings : cabac=1 / ref=3 / deblock=1:0:0 / analyse=0x3:0x113 / me=hex / subme=7 / psy=1 / psy_rd=1.00:0.00 / mixed_ref=1 / me_range=16 / chroma_me=1 / trellis=1 / 8x8dct=1 / cqm=0 / deadzone=21,11 / fast_pskip=1 / chroma_qp_offset=-2 / threads=3 / lookahead_threads=1 / sliced_threads=0 / nr=0 / decimate=1 / interlaced=0 / bluray_compat=0 / constrained_intra=0 / bframes=3 / b_pyramid=2 / b_adapt=1 / b_bias=0 / direct=1 / weightb=1 / open_gop=0 / weightp=2 / keyint=250 / keyint_min=25 / scenecut=40 / intra_refresh=0 / rc_lookahead=40 / rc=abr / mbtree=1 / bitrate=2800 / ratetol=1.0 / qcomp=0.60 / qpmin=0 / qpmax=69 / qpstep=4 / vbv_maxrate=62500 / vbv_bufsize=78125 / nal_hrd=none / ip_ratio=1.40 / aq=1:1.00
Encoded date : UTC 2014-07-28 21:47:35
Tagged date : UTC 2014-07-29 01:15:07
Color primaries : BT.709-5, BT.1361, IEC 61966-2-4, SMPTE RP177
Transfer characteristics : BT.709-5, BT.1361
Matrix coefficients : BT.709-5, BT.1361, IEC 61966-2-4 709, SMPTE RP177

Audio
ID : 2
Format : AAC
Format/Info : Advanced Audio Codec
Format profile : LC
Codec ID : 40
Duration : 1h 22mn
Bit rate mode : Variable
Bit rate : 160 Kbps
Maximum bit rate : 225 Kbps
Channel(s) : 2 channels
Channel positions : Front: L R
Sampling rate : 48.0 KHz
Compression mode : Lossy
Stream size : 94.9 MiB (5%)
Encoded date : UTC 2014-07-28 21:47:35
Tagged date : UTC 2014-07-29 01:15:07
Screenshots

SBS - Inside the Mind of Leonardo (2014)

SBS - Inside the Mind of Leonardo (2014)

SBS - Inside the Mind of Leonardo (2014)

Welcome to my blog - daily update!

SBS - Inside the Mind of Leonardo (2014)