Tags
Language
Tags

Laura (1944)

Posted By: Tavaz
1080p (FullHD) / BDRip IMDb
Laura (1944)

Laura (1944)
BDRip | MKV | 1436x1080 | English | H264 @ 13178 kbps | FLAC @ 247 kbps | 1 h 28 min | 8.37 GiB
Subtitles: Español, Nederlands, Français, English
Genre: Drama, Mystery

A police detective falls in love with the woman whose murder he's investigating.

Laura.1944.1080p.BluRay.FLAC.x264-HANDJOB.part1.rar (4.4 GB)
Laura.1944.1080p.BluRay.FLAC.x264-HANDJOB.part2.rar (4.1 GB)



General
Complete name : ./feaebc1ba2b4a8abf36a394d5d158c22.mkv
Format : Matroska
Format version : Version 4 / Version 2
File size : 8.37 GiB
Duration : 1 h 28 min
Overall bit rate mode : Variable
Overall bit rate : 13.6 Mb/s
Encoded date : UTC 2020-09-13 12:03:29
Writing application : mkvmerge v48.0.0 ('Fortress Around Your Heart') 64-bit
Writing library : libebml v1.4.0 + libmatroska v1.6.0

Video
ID : 1
Format : AVC
Format/Info : Advanced Video Codec
Format profile : High@L4.1
Format settings : CABAC / 5 Ref Frames
Format settings, CABAC : Yes
Format settings, RefFrames : 5 frames
Codec ID : V_MPEG4/ISO/AVC
Duration : 1 h 28 min
Bit rate : 13.2 Mb/s
Width : 1 436 pixels
Height : 1 080 pixels
Display aspect ratio : 4:3
Frame rate mode : Constant
Frame rate : 23.976 (24000/1001) FPS
Color space : YUV
Chroma subsampling : 4:2:0
Bit depth : 8 bits
Scan type : Progressive
Bits/(Pixel*Frame) : 0.354
Stream size : 8.11 GiB (97%)
Writing library : x264 core 157 r2935 545de2f
Encoding settings : cabac=1 / ref=5 / deblock=1:-3:-3 / analyse=0x3:0x133 / me=umh / subme=10 / psy=1 / psy_rd=1.00:0.00 / mixed_ref=1 / me_range=32 / chroma_me=1 / trellis=2 / 8x8dct=1 / cqm=0 / deadzone=21,11 / fast_pskip=0 / chroma_qp_offset=-2 / threads=18 / lookahead_threads=4 / sliced_threads=0 / nr=0 / decimate=0 / interlaced=0 / bluray_compat=0 / constrained_intra=0 / bframes=16 / b_pyramid=2 / b_adapt=2 / b_bias=0 / direct=3 / weightb=1 / open_gop=0 / weightp=1 / keyint=240 / keyint_min=24 / scenecut=40 / intra_refresh=0 / rc_lookahead=60 / rc=crf / mbtree=0 / crf=21.5 / qcomp=0.60 / qpmin=0 / qpmax=69 / qpstep=4 / vbv_maxrate=62500 / vbv_bufsize=78125 / crf_max=0.0 / nal_hrd=none / filler=0 / ip_ratio=1.40 / pb_ratio=1.30 / aq=2:1.00
Default : Yes
Forced : No
Color range : Limited
Color primaries : BT.709
Transfer characteristics : BT.709
Matrix coefficients : BT.709

Audio #1
ID : 2
Format : FLAC
Format/Info : Free Lossless Audio Codec
Codec ID : A_FLAC
Duration : 1 h 28 min
Bit rate mode : Variable
Bit rate : 248 kb/s
Channel(s) : 1 channel
Sampling rate : 48.0 kHz
Frame rate : 11.719 FPS (4096 SPF)
Bit depth : 16 bits
Stream size : 156 MiB (2%)
Writing library : libFLAC 1.2.1 (UTC 2007-09-17)
Language : English
Default : Yes
Forced : No

Audio #2
ID : 3
Format : AAC
Format/Info : Advanced Audio Codec
Format profile : LC
Codec ID : A_AAC-2
Duration : 1 h 28 min
Bit rate : 80.0 kb/s
Channel(s) : 1 channel
Channel positions : Front: C
Sampling rate : 48.0 kHz
Frame rate : 46.875 FPS (1024 SPF)
Compression mode : Lossy
Delay relative to video : 9 ms
Stream size : 50.4 MiB (1%)
Title : Commentary by David Raksin and Jeanine Basinger
Language : English
Default : No
Forced : No

Audio #3
ID : 4
Format : AAC
Format/Info : Advanced Audio Codec
Format profile : LC
Codec ID : A_AAC-2
Duration : 1 h 28 min
Bit rate : 80.0 kb/s
Channel(s) : 1 channel
Channel positions : Front: C
Sampling rate : 48.0 kHz
Frame rate : 46.875 FPS (1024 SPF)
Compression mode : Lossy
Delay relative to video : 9 ms
Stream size : 50.4 MiB (1%)
Title : Commentary by Rudy Behlmer
Language : English
Default : No
Forced : No

Text #1
ID : 5
Format : UTF-8
Codec ID : S_TEXT/UTF8
Codec ID/Info : UTF-8 Plain Text
Duration : 1 h 26 min
Bit rate : 87 b/s
Count of elements : 1359
Stream size : 55.9 KiB (0%)
Title : English for main audio
Language : English
Default : No
Forced : No

Text #2
ID : 6
Format : UTF-8
Codec ID : S_TEXT/UTF8
Codec ID/Info : UTF-8 Plain Text
Duration : 1 h 28 min
Bit rate : 114 b/s
Count of elements : 1354
Stream size : 73.8 KiB (0%)
Title : English for commentary #1
Language : English
Default : No
Forced : No

Text #3
ID : 7
Format : UTF-8
Codec ID : S_TEXT/UTF8
Codec ID/Info : UTF-8 Plain Text
Duration : 1 h 28 min
Bit rate : 123 b/s
Count of elements : 1434
Stream size : 79.7 KiB (0%)
Title : English for commentary #2
Language : English
Default : No
Forced : No

Text #4
ID : 8
Format : UTF-8
Codec ID : S_TEXT/UTF8
Codec ID/Info : UTF-8 Plain Text
Duration : 1 h 26 min
Bit rate : 61 b/s
Count of elements : 1149
Stream size : 39.3 KiB (0%)
Title : French for main audio
Language : French
Default : No
Forced : No

Text #5
ID : 9
Format : UTF-8
Codec ID : S_TEXT/UTF8
Codec ID/Info : UTF-8 Plain Text
Duration : 1 h 28 min
Bit rate : 96 b/s
Count of elements : 1313
Stream size : 62.0 KiB (0%)
Title : French for commentary #1
Language : French
Default : No
Forced : No

Text #6
ID : 10
Format : UTF-8
Codec ID : S_TEXT/UTF8
Codec ID/Info : UTF-8 Plain Text
Duration : 1 h 28 min
Bit rate : 104 b/s
Count of elements : 1400
Stream size : 67.1 KiB (0%)
Title : French for commentary #2
Language : French
Default : No
Forced : No

Text #7
ID : 11
Format : UTF-8
Codec ID : S_TEXT/UTF8
Codec ID/Info : UTF-8 Plain Text
Duration : 1 h 26 min
Bit rate : 63 b/s
Count of elements : 996
Stream size : 40.5 KiB (0%)
Title : Dutch for main audio
Language : Dutch
Default : No
Forced : No

Text #8
ID : 12
Format : UTF-8
Codec ID : S_TEXT/UTF8
Codec ID/Info : UTF-8 Plain Text
Duration : 1 h 28 min
Bit rate : 93 b/s
Count of elements : 1297
Stream size : 60.4 KiB (0%)
Title : Dutch for commentary #1
Language : Dutch
Default : No
Forced : No

Text #9
ID : 13
Format : UTF-8
Codec ID : S_TEXT/UTF8
Codec ID/Info : UTF-8 Plain Text
Duration : 1 h 28 min
Bit rate : 99 b/s
Count of elements : 1349
Stream size : 64.1 KiB (0%)
Title : Dutch for commentary #2
Language : Dutch
Default : No
Forced : No

Text #10
ID : 14
Format : UTF-8
Codec ID : S_TEXT/UTF8
Codec ID/Info : UTF-8 Plain Text
Duration : 1 h 26 min
Bit rate : 79 b/s
Count of elements : 1313
Stream size : 50.5 KiB (0%)
Title : Spanish for main audio
Language : Spanish
Default : No
Forced : No

Menu
00:00:00.000 : en:Main Titles
00:01:06.900 : en:Interrogation
00:06:43.236 : en:A Question of Motive
00:11:08.084 : en:The Apartment
00:15:17.541 : en:Initial Encounter
00:21:33.917 : en:Character Assassination
00:25:01.333 : en:A Job Interview
00:28:00.303 : en:Background Check
00:30:33.831 : en:Confrontation
00:33:40.017 : en:Decision Time
00:35:34.549 : en:Cheap Scotch
00:41:23.898 : en:Falling in Love
00:47:39.856 : en:Surprise Entrance
00:53:48.808 : en:Shelby's Tale
01:01:02.283 : en:Too Much
01:06:26.065 : en:Celebration
01:09:41.510 : en:Prime Suspect
01:11:59.982 : en:Grilled
01:15:47.376 : en:Like Clockwork
01:23:52.569 : en:A Second Chance





Laura (1944)


Laura (1944)


Laura (1944)


Laura (1944)


Laura (1944)