Tags
Language
Tags

Oklahoma! (1955)

Posted By: Tavaz
1080p (FullHD) / BDRip IMDb
Oklahoma! (1955)

Oklahoma! (1955)
BDRip | MKV | 1920x872 | English | H265 @ 6334 kbps | AAC @ 479 kbps | 2 h 28 min | 7.28 GiB
Subtitles: Español, Français, English
Genre: Music, Western, Romance

This joyous celebration of frontier life combines tender romance and violent passion in the Oklahoma Territory of the 1900s with a timeless score filled with unforgettable songs. Rodgers and Hammerstein's hit Broadway musical.

e42c1a9bfc8a142daa5c8f63d50e1b94.mkv (7.3 GB)



General
Complete name : ./e42c1a9bfc8a142daa5c8f63d50e1b94.mkv
Format : Matroska
Format version : Version 4 / Version 2
File size : 7.28 GiB
Duration : 2 h 28 min
Overall bit rate : 7 042 kb/s
Encoded date : UTC 2020-09-13 17:49:29
Writing application : mkvmerge v41.0.0 ('Smarra') 64-bit
Writing library : libebml v1.3.9 + libmatroska v1.5.2

Video
ID : 1
Format : HEVC
Format/Info : High Efficiency Video Coding
Format profile : Main 10@L4@High
Codec ID : V_MPEGH/ISO/HEVC
Duration : 2 h 28 min
Bit rate : 6 334 kb/s
Width : 1 920 pixels
Height : 872 pixels
Display aspect ratio : 2.2:1
Frame rate mode : Constant
Frame rate : 29.970 (30000/1001) FPS
Color space : YUV
Chroma subsampling : 4:2:0
Bit depth : 10 bits
Bits/(Pixel*Frame) : 0.126
Stream size : 6.55 GiB (90%)
Writing library : x265 3.4+1-7b120308dc64:[Windows][MSVC 1926][64 bit] 10bit
Encoding settings : cpuid=1111039 / frame-threads=3 / numa-pools=12 / wpp / no-pmode / no-pme / no-psnr / no-ssim / log-level=2 / input-csp=1 / input-res=1920x872 / interlace=0 / total-frames=266148 / level-idc=0 / high-tier=1 / uhd-bd=0 / ref=5 / no-allow-non-conformance / no-repeat-headers / annexb / no-aud / no-hrd / info / hash=0 / no-temporal-layers / open-gop / min-keyint=30 / keyint=300 / gop-lookahead=0 / bframes=8 / b-adapt=2 / b-pyramid / bframe-bias=0 / rc-lookahead=40 / lookahead-slices=0 / scenecut=40 / hist-scenecut=0 / radl=0 / no-splice / no-intra-refresh / ctu=64 / min-cu-size=8 / rect / amp / max-tu-size=32 / tu-inter-depth=3 / tu-intra-depth=3 / limit-tu=4 / rdoq-level=2 / dynamic-rd=0.00 / no-ssim-rd / signhide / no-tskip / nr-intra=0 / nr-inter=0 / no-constrained-intra / strong-intra-smoothing / max-merge=4 / limit-refs=1 / limit-modes / me=3 / subme=4 / merange=57 / temporal-mvp / no-frame-dup / no-hme / weightp / weightb / no-analyze-src-pics / deblock=-3:-3 / no-sao / no-sao-non-deblock / rd=6 / selective-sao=0 / no-early-skip / rskip / no-fast-intra / no-tskip-fast / no-cu-lossless / b-intra / no-splitrd-skip / rdpenalty=0 / psy-rd=1.00 / psy-rdoq=0.00 / no-rd-refine / no-lossless / cbqpoffs=0 / crqpoffs=0 / rc=crf / crf=21.0 / qcomp=0.60 / qpstep=4 / stats-write=0 / stats-read=0 / vbv-maxrate=30000 / vbv-bufsize=30000 / vbv-init=0.9 / crf-max=0.0 / crf-min=0.0 / ipratio=1.40 / pbratio=1.30 / aq-mode=3 / aq-strength=1.00 / cutree / zone-count=0 / no-strict-cbr / qg-size=32 / no-rc-grain / qpmax=69 / qpmin=0 / no-const-vbv / sar=1 / overscan=0 / videoformat=5 / range=0 / colorprim=1 / transfer=1 / colormatrix=1 / chromaloc=0 / display-window=0 / cll=0,0 / min-luma=0 / max-luma=1023 / log2-max-poc-lsb=8 / vui-timing-info / vui-hrd-info / slices=1 / no-opt-qp-pps / no-opt-ref-list-length-pps / no-multi-pass-opt-rps / scenecut-bias=0.05 / hist-threshold=0.01 / no-opt-cu-delta-qp / no-aq-motion / no-hdr10 / no-hdr10-opt / no-dhdr10-opt / no-idr-recovery-sei / analysis-reuse-level=0 / analysis-save-reuse-level=0 / analysis-load-reuse-level=0 / scale-factor=0 / refine-intra=0 / refine-inter=0 / refine-mv=1 / refine-ctu-distortion=0 / no-limit-sao / ctu-info=0 / no-lowpass-dct / refine-analysis-type=0 / copy-pic=1 / max-ausize-factor=1.0 / no-dynamic-refine / no-single-sei / no-hevc-aq / no-svt / no-field / qp-adaptation-range=1.00 / no-scenecut-aware-qpconformance-window-offsets / right=0 / bottom=0 / decoder-max-rate=0
Default : Yes
Forced : No
Color range : Limited
Color primaries : BT.709
Transfer characteristics : BT.709
Matrix coefficients : BT.709

Audio #1
ID : 2
Format : AAC
Format/Info : Advanced Audio Codec
Format profile : LC
Codec ID : A_AAC-2
Duration : 2 h 28 min
Bit rate : 479 kb/s
Channel(s) : 8 channels
Channel positions : Front: L C R, Side: L R, Back: L R, LFE
Sampling rate : 48.0 kHz
Frame rate : 46.875 FPS (1024 SPF)
Compression mode : Lossy
Delay relative to video : 20 ms
Stream size : 508 MiB (7%)
Title : English 7.1
Language : English
Default : Yes
Forced : No

Audio #2
ID : 3
Format : AC-3
Format/Info : Audio Coding 3
Format settings, Endianness : Big
Codec ID : A_AC3
Duration : 2 h 28 min
Bit rate mode : Constant
Bit rate : 192 kb/s
Channel(s) : 1 channel
Channel positions : Front: C
Sampling rate : 48.0 kHz
Frame rate : 31.250 FPS (1536 SPF)
Bit depth : 16 bits
Compression mode : Lossy
Stream size : 203 MiB (3%)
Title : Commentary with Shirley Jones and Nick Redman
Language : English
Service kind : Complete Main
Default : No
Forced : No

Text #1
ID : 4
Format : PGS
Muxing mode : zlib
Codec ID : S_HDMV/PGS
Codec ID/Info : Picture based subtitle format used on BDs/HD-DVDs
Duration : 2 h 27 min
Bit rate : 39.5 kb/s
Count of elements : 3686
Stream size : 41.6 MiB (1%)
Title : English
Language : English
Default : No
Forced : No

Text #2
ID : 5
Format : PGS
Muxing mode : zlib
Codec ID : S_HDMV/PGS
Codec ID/Info : Picture based subtitle format used on BDs/HD-DVDs
Duration : 2 h 26 min
Bit rate : 34.8 kb/s
Count of elements : 3212
Stream size : 36.5 MiB (0%)
Title : Spanish
Language : Spanish
Default : No
Forced : No

Text #3
ID : 6
Format : PGS
Muxing mode : zlib
Codec ID : S_HDMV/PGS
Codec ID/Info : Picture based subtitle format used on BDs/HD-DVDs
Duration : 2 h 22 min
Bit rate : 37.5 kb/s
Count of elements : 3440
Stream size : 38.1 MiB (1%)
Title : French
Language : French
Default : No
Forced : No

Menu
00:00:00.000 : en:Chapter 1
00:03:05.819 : en:Chapter 2
00:05:12.245 : en:Chapter 3
00:07:33.086 : en:Chapter 4
00:10:09.275 : en:Chapter 5
00:15:52.919 : en:Chapter 6
00:18:31.177 : en:Chapter 7
00:20:25.091 : en:Chapter 8
00:22:27.513 : en:Chapter 9
00:28:28.040 : en:Chapter 10
00:31:28.053 : en:Chapter 11
00:34:57.629 : en:Chapter 12
00:37:30.615 : en:Chapter 13
00:40:33.264 : en:Chapter 14
00:41:04.028 : en:Chapter 15
00:43:09.287 : en:Chapter 16
00:50:08.138 : en:Chapter 17
00:54:59.062 : en:Chapter 18
01:02:07.557 : en:Chapter 19
01:06:24.080 : en:Chapter 20
01:10:05.334 : en:Chapter 21
01:13:16.192 : en:Chapter 22
01:14:51.354 : en:Chapter 23
01:29:15.517 : en:Chapter 24
01:29:25.660 : en:Chapter 25
01:30:49.611 : en:Chapter 26
01:34:58.893 : en:Chapter 27
01:41:23.978 : en:Chapter 28
01:42:44.859 : en:Chapter 29
01:45:54.882 : en:Chapter 30
01:48:13.821 : en:Chapter 31
01:54:46.913 : en:Chapter 32
01:59:27.260 : en:Chapter 33
02:00:56.316 : en:Chapter 34
02:05:23.216 : en:Chapter 35
02:06:44.063 : en:Chapter 36
02:09:22.121 : en:Chapter 37
02:11:06.792 : en:Chapter 38
02:11:46.732 : en:Chapter 39
02:15:00.793 : en:Chapter 40
02:17:39.118 : en:Chapter 41
02:21:34.219 : en:Chapter 42
02:25:14.105 : en:Chapter 43
02:26:28.680 : en:Chapter 44





Oklahoma! (1955)


Oklahoma! (1955)


Oklahoma! (1955)


Oklahoma! (1955)


Oklahoma! (1955)