Tags
Language
Tags

Looking for Jackie (2009)

Posted By: Tavaz
1080p (FullHD) / BDRip IMDb
Looking for Jackie (2009)

Looking for Jackie (2009)
BDRip | MKV | 1920x1080 | 中文 | H264 @ 12299 kbps | DTS @ 1509 kbps | 1 h 27 min | 8.49 GiB
Subtitles: Français, English
Genre: Action, Comedy, Family

Jackie Chan is the undefeated Kung Fu Master who dishes out the action in traditional Jackie Chan style. When a young boy sets out to learn how to fight from the Master himself, he not only witnesses some spectacular fights, but learns some important life lessons along the way.

Xun.Zhao.Cheng.Long.2009.BluRay.1080p.x264.DTS5.1-loli.part1.rar (4.5 GB)
Xun.Zhao.Cheng.Long.2009.BluRay.1080p.x264.DTS5.1-loli.part2.rar (4.1 GB)



General
Complete name : ./5d64701c110e33acc42c0cb4fa29aa8c.mkv
Format : Matroska
Format version : Version 4 / Version 2
File size : 8.49 GiB
Duration : 1 h 27 min
Overall bit rate : 13.8 Mb/s
Encoded date : UTC 2020-03-24 01:32:27
Writing application : mkvmerge v43.0.0 ('The Quartermaster') 64-bit
Writing library : libebml v1.3.10 + libmatroska v1.5.2

Video
ID : 1
Format : AVC
Format/Info : Advanced Video Codec
Format profile : High@L4.1
Format settings : CABAC / 4 Ref Frames
Format settings, CABAC : Yes
Format settings, RefFrames : 4 frames
Codec ID : V_MPEG4/ISO/AVC
Duration : 1 h 27 min
Bit rate : 12.3 Mb/s
Width : 1 920 pixels
Height : 1 080 pixels
Display aspect ratio : 16:9
Frame rate mode : Constant
Frame rate : 23.976 (24000/1001) FPS
Color space : YUV
Chroma subsampling : 4:2:0
Bit depth : 8 bits
Scan type : Progressive
Bits/(Pixel*Frame) : 0.247
Stream size : 7.55 GiB (89%)
Writing library : x264 core 157 r2935 545de2f
Encoding settings : cabac=1 / ref=4 / deblock=1:-3:-3 / analyse=0x3:0x133 / me=umh / subme=10 / psy=1 / psy_rd=1.00:0.00 / mixed_ref=1 / me_range=32 / chroma_me=1 / trellis=2 / 8x8dct=1 / cqm=0 / deadzone=21,11 / fast_pskip=0 / chroma_qp_offset=-2 / threads=6 / lookahead_threads=1 / sliced_threads=0 / nr=0 / decimate=0 / interlaced=0 / bluray_compat=0 / constrained_intra=0 / bframes=16 / b_pyramid=2 / b_adapt=2 / b_bias=0 / direct=3 / weightb=1 / open_gop=0 / weightp=2 / keyint=240 / keyint_min=24 / scenecut=40 / intra_refresh=0 / rc_lookahead=60 / rc=crf / mbtree=0 / crf=22.0 / qcomp=0.60 / qpmin=0 / qpmax=69 / qpstep=4 / vbv_maxrate=62500 / vbv_bufsize=78125 / crf_max=0.0 / nal_hrd=none / filler=0 / ip_ratio=1.40 / pb_ratio=1.30 / aq=2:1.00
Language : Chinese
Default : Yes
Forced : No
Color range : Limited
Color primaries : BT.709
Transfer characteristics : BT.709
Matrix coefficients : BT.709

Audio
ID : 2
Format : DTS
Format/Info : Digital Theater Systems
Mode : 16
Format settings, Endianness : Big
Codec ID : A_DTS
Duration : 1 h 27 min
Bit rate mode : Constant
Bit rate : 1 509 kb/s
Channel(s) : 6 channels
Channel positions : Front: L C R, Side: L R, LFE
Sampling rate : 48.0 kHz
Frame rate : 93.750 FPS (512 SPF)
Bit depth : 24 bits
Compression mode : Lossy
Stream size : 948 MiB (11%)
Language : Chinese
Default : Yes
Forced : No

Text #1
ID : 3
Format : UTF-8
Codec ID : S_TEXT/UTF8
Codec ID/Info : UTF-8 Plain Text
Duration : 1 h 23 min
Bit rate : 48 b/s
Count of elements : 982
Stream size : 29.4 KiB (0%)
Language : English
Default : Yes
Forced : No

Text #2
ID : 4
Format : PGS
Codec ID : S_HDMV/PGS
Codec ID/Info : Picture based subtitle format used on BDs/HD-DVDs
Duration : 1 h 27 min
Bit rate : 21.2 kb/s
Count of elements : 1458
Stream size : 13.3 MiB (0%)
Language : French
Default : No
Forced : No

Menu
00:00:00.000 : :Chapter 1
00:07:25.487 : :Chapter 2
00:13:35.148 : :Chapter 3
00:24:13.202 : :Chapter 4
00:31:07.491 : :Chapter 5
00:48:37.164 : :Chapter 6
01:04:22.192 : :Chapter 7
01:12:13.871 : :Chapter 8
01:15:20.099 : :Chapter 9
01:18:23.199 : :Chapter 10





Looking for Jackie (2009)


Looking for Jackie (2009)


Looking for Jackie (2009)


Looking for Jackie (2009)


Looking for Jackie (2009)