Tags
Language
Tags

Bishoujo Senshi Sailor Moon S BD (1994-1995 (2018-2019 release))

Posted By: Lebedev30
Bishoujo Senshi Sailor Moon S BD (1994-1995 (2018-2019 release))

Bishoujo Senshi Sailor Moon S BD (1994-1995 (2018-2019 release))
BDRip | MKV | 1440x1080 | H264@5000 Kbps | 38x ~ 25mn | 38x ~0.9 Gb
日本語 FLAC@522 Kbps | 2 channels | Subtitles: None
Genre: action, demon, humanoid alien, magic, magical girl, middle school, romance, shoujo, super power


Description:
Sailor Moon and the senshi are up against a new set of villains: the Death Busters (Professor Tomoe, Kaorinite, the Witches 5, Mistress 9, Pharaoh 90). The Death Busters plan to rule the world by using the energy from the pure heart crystals of innocent victims, but Sailor Moon and the senshi must stop them. The outer senshi (Neptune, Uranus, Pluto, Saturn), also make an appearance, although Pluto appeared briefly in Sailor Moon R.






01. Premonition of the Apocalypse: The Mysterious New Guardians Appear
02. The Rod of Love Is Born: Usagi`s New Transformation
03. A Handsome Boy? Haruka Tenoh`s Secret
04. Usagi`s Idol: The Graceful Genius Michiru
05. Protect the Pure Heart: The Three-Way Battle
06. Let Moon Help with Your Love Problems
07. Coldhearted Uranus: Makoto in Danger
08. The Labyrinth of Water: Ami Targeted
09. To Save Our Friends: Moon and Uranus Join Forces
10. A Man`s Kindness: Yuichiro Heartbroken by Rei
11. I Want to Quit Being a Sailor Guardian: Minako`s Dilemma
12. Usagi in Tears: A Glass Slipper for My Birthday
13. The Stolen Pure Heart: Usagi`s Crisis
14. The Arrival of a Small Pretty Guardian
15. Making New Friends: Chibi Moon`s Adventure
16. I Want Power: Mako Lost in Doubt
17. The Bond of Destiny: Uranus`s Distant Past
18. Art Is an Explosion of Love: Chibi-Usa`s First Love
19. Usagi Dancing to the Waltz
20. The Shocking Moment: Everyone`s Identities Revealed
21. The Death of Uranus and Neptune: The Talisman Appears
22. The Holy Grail`s Mystical Power: Moon`s Double Transformation
23. Who Is the True Messiah? Chaos of Light and Darkness
24. A House Filled with Evil Presence: The Beautiful Hotaru`s Secret
25. I Love Idols: Mimete`s Dilemma
26. Shadow of Silence: The Pale Glimmer of a Firefly
27. Sunny Skies After a Storm: A Friendship Dedicated to Hotaru
28. Higher and Stronger: A Cheer from Usagi
29. Battle Inside the Demonic Space: The Sailor Guardians` Gamble
30. The Messiah of Silence Awakens? Stars of Destiny
31. An Invasion from Another Dimension: Mystery of Mugen Academy
32. A Bewitching Flower That Steals Hearts: Tellu, the Third Witch
33. Believe in Love: Ami, the Kindhearted Guardian
34. Shadow of Destruction: The Messiah of Silence Awakens
35. The Coming Terror of Darkness: Struggle of the Eight Guardians
36. The Shining Shooting Star: Saturn and the Messiah
37. A New Life: Parting of the Stars of Destiny
38. A Guardian`s Realization: Strength Lies Within a Pure Heart


General
Format : Matroska
Format version : Version 4 / Version 2
File size : 954 MiB
Duration : 24 min 9 s
Overall bit rate mode : Variable
Overall bit rate : 5 524 kb/s
Encoded date : UTC 2020-02-16 07:22:31
Writing application : mkvmerge v32.0.0 ('Astral Progressions') 64-bit
Writing library : libebml v1.3.7 + libmatroska v1.5.0

Video
ID : 2
Format : AVC
Format/Info : Advanced Video Codec
Format profile : High@L5
Format settings : CABAC / 16 Ref Frames
Format settings, CABAC : Yes
Format settings, RefFrames : 16 frames
Codec ID : V_MPEG4/ISO/AVC
Duration : 24 min 9 s
Bit rate : 5 000 kb/s
Width : 1 440 pixels
Height : 1 080 pixels
Display aspect ratio : 4:3
Frame rate mode : Constant
Frame rate : 23.976 (24000/1001) FPS
Color space : YUV
Chroma subsampling : 4:2:0
Bit depth : 8 bits
Scan type : Progressive
Bits/(Pixel*Frame) : 0.134
Stream size : 864 MiB (91%)
Writing library : x264 core 157 r2935 545de2f
Encoding settings : cabac=1 / ref=16 / deblock=1:0:0 / analyse=0x3:0x133 / me=tesa / subme=11 / psy=1 / psy_rd=1.00:0.00 / mixed_ref=1 / me_range=24 / chroma_me=1 / trellis=2 / 8x8dct=1 / cqm=0 / deadzone=21,11 / fast_pskip=0 / chroma_qp_offset=-2 / threads=12 / lookahead_threads=3 / sliced_threads=0 / nr=0 / decimate=1 / interlaced=0 / bluray_compat=0 / constrained_intra=0 / bframes=16 / b_pyramid=2 / b_adapt=2 / b_bias=0 / direct=3 / weightb=1 / open_gop=0 / weightp=2 / keyint=240 / keyint_min=23 / scenecut=40 / intra_refresh=0 / rc_lookahead=60 / rc=2pass / mbtree=1 / bitrate=5000 / ratetol=1.0 / qcomp=0.60 / qpmin=0 / qpmax=69 / qpstep=4 / cplxblur=20.0 / qblur=0.5 / ip_ratio=1.40 / aq=1:1.00
Default : Yes
Forced : No

Audio
ID : 1
Format : FLAC
Format/Info : Free Lossless Audio Codec
Codec ID : A_FLAC
Duration : 24 min 9 s
Bit rate mode : Variable
Bit rate : 522 kb/s
Channel(s) : 2 channels
Channel positions : Front: L R
Sampling rate : 48.0 kHz
Frame rate : 11.719 FPS (4096 SPF)
Bit depth : 16 bits
Stream size : 90.3 MiB (9%)
Writing library : libFLAC 1.3.2 (UTC 2017-01-01)
Default : Yes
Forced : No

Menu
00:00:00.000 : en:Avant
00:00:20.020 : en:Opening
00:01:52.112 : en:A Part
00:12:09.729 : en:B Part
00:22:06.325 : en:Ending
00:23:36.415 : en:Yokoku


Screenshots

Bishoujo Senshi Sailor Moon S BD (1994-1995 (2018-2019 release))

Bishoujo Senshi Sailor Moon S BD (1994-1995 (2018-2019 release))

Bishoujo Senshi Sailor Moon S BD (1994-1995 (2018-2019 release))


My publications | Rss Channel