Subcategories

Zuzka Light - 15 Minute Fat Burn Workout Series

Posted By: ParRus
Zuzka Light - 15 Minute Fat Burn Workout Series

Zuzka Light - 15 Minute Fat Burn Workout Series
WEBRip | English | MP4 | 1280 x 720 | AVC ~1000 kbps | 29.970 fps
AAC | 160 Kbps | 48.0 KHz | 2 channels | 03:50:00 | 1.88 GB
Genre: eLearning Video / Fitness, Cardio Workout, Health

I decided to create a series that would be challenging, fun, yet accessible to everyone, focusing a lot on cardio using functional and dynamic bodyweight exercises.
This series is for most fitness level for 3 reasons:

1. It's all going to be bodyweight so no equipment needed
2. You can modify and bodyweight exercise for your own fitness level
3. You can do each exercise at your own pace as long as you're pushing yourself at your max effort

Besides the obvious benefits such as weight loss, metabolic boost, cardio and strength, we'll improving our agility by going through different bodyweight exercises in each of the workouts.

and You can find my other last: Fitness-posts

General
Complete name : 15 Minute Fat Burn #9.mp4
Format : MPEG-4
Format profile : Base Media / Version 2
Codec ID : mp42 (isom/iso2/avc1/mp41)
File size : 135 MiB
Duration : 16 min 14 s
Overall bit rate mode : Variable
Overall bit rate : 1 166 kb/s
Encoded date : UTC 2017-08-01 10:50:29
Tagged date : UTC 2017-08-01 10:50:29
Writing application : HandBrake 1.0.7 2017040900

Video
ID : 1
Format : AVC
Format/Info : Advanced Video Codec
Format profile : Main@L4
Format settings, CABAC : Yes
Format settings, ReFrames : 4 frames
Codec ID : avc1
Codec ID/Info : Advanced Video Coding
Duration : 16 min 13 s
Bit rate : 1 000 kb/s
Width : 1 280 pixels
Height : 720 pixels
Display aspect ratio : 16:9
Frame rate mode : Constant
Frame rate : 29.970 (30000/1001) FPS
Color space : YUV
Chroma subsampling : 4:2:0
Bit depth : 8 bits
Scan type : Progressive
Bits/(Pixel*Frame) : 0.036
Stream size : 116 MiB (86%)
Writing library : x264 core 148 r2708 86b7198
Encoding settings : cabac=1 / ref=1 / deblock=1:0:0 / analyse=0x1:0x111 / me=hex / subme=2 / psy=1 / psy_rd=1.00:0.00 / mixed_ref=0 / me_range=16 / chroma_me=1 / trellis=0 / 8x8dct=0 / cqm=0 / deadzone=21,11 / fast_pskip=1 / chroma_qp_offset=0 / threads=12 / lookahead_threads=4 / sliced_threads=0 / nr=0 / decimate=1 / interlaced=0 / bluray_compat=0 / constrained_intra=0 / bframes=3 / b_pyramid=2 / b_adapt=1 / b_bias=0 / direct=1 / weightb=1 / open_gop=0 / weightp=1 / keyint=300 / keyint_min=30 / scenecut=40 / intra_refresh=0 / rc_lookahead=10 / rc=2pass / mbtree=1 / bitrate=1000 / ratetol=1.0 / qcomp=0.60 / qpmin=0 / qpmax=69 / qpstep=4 / cplxblur=20.0 / qblur=0.5 / vbv_maxrate=20000 / vbv_bufsize=25000 / nal_hrd=none / filler=0 / ip_ratio=1.40 / aq=1:1.00
Encoded date : UTC 2017-08-01 10:50:29
Tagged date : UTC 2017-08-01 10:50:29
Color range : Limited
Color primaries : BT.709
Transfer characteristics : BT.709
Matrix coefficients : BT.709

Audio
ID : 2
Format : AAC
Format/Info : Advanced Audio Codec
Format profile : LC
Codec ID : 40
Duration : 16 min 14 s
Bit rate mode : Variable
Bit rate : 160 kb/s
Channel(s) : 2 channels
Channel positions : Front: L R
Sampling rate : 48.0 kHz
Frame rate : 46.875 FPS (1024 spf)
Compression mode : Lossy
Stream size : 18.5 MiB (14%)
Title : Stereo / Stereo
Default : Yes
Alternate group : 1
Encoded date : UTC 2017-08-01 10:50:29
Tagged date : UTC 2017-08-01 10:50:29

Screenshots

Zuzka Light - 15 Minute Fat Burn Workout Series

Zuzka Light - 15 Minute Fat Burn Workout Series

Zuzka Light - 15 Minute Fat Burn Workout Series

Zuzka Light - 15 Minute Fat Burn Workout Series

Zuzka Light - 15 Minute Fat Burn Workout Series

Exclusive eLearning Videos ParRus-blogadd to bookmarks

Feel free to contact me PM
when links are dead or want any repost

Zuzka Light - 15 Minute Fat Burn Workout Series