Subcategories

Kevin Secours - 20 Steps to Verbal Mastery

Posted By: ParRus
Kevin Secours - 20 Steps to Verbal Mastery

Kevin Secours - 20 Steps to Verbal Mastery
WEBRip | English | MP4 | 1920 x 1080 | MPEG-4 ~1155 Kbps | 15 fps
AAC | 76 Kbps | 22.05 KHz | 2 channels | 02:44:39 | 1.42 GB
Genre: eLearning Video / Self Improvement, Martial Arts

Combat psychology, early detection and the diffusion of violence, have been a lifetime goal in my training. I started training in the martial arts when I was 10, after being attacked by four older boys. I was small for my age, learning early on that brute strength or even quality of technique was not always enough to ensure survival. Later, I would be the smallest bouncer at the bar, then the smallest body guard on the detail. The power of speech became fundamental to my survival. I earned my B.Ed. and taught in the public sector, then shifted to corporate training for 15 years, studying in Neuro Linguistic Programming, hypnosis and various approaches to influence.
Of the numerous approaches to verbal training in martial arts, very few give you the concrete steps to achieving proven verbal skills. To this end, I designed this program based both on my real world experience with violence and my proven track record as a trainer of verbal skills. I set out simple verbal tasks that massively boost your awareness and competency in speaking influentially, then lead you through an integration of personal space, body language, eye contact, and assertiveness training, giving you a clear blue print for incrementally and successfully building a verbal arsenal that can be applied in every day encounters, discussions, conflicts, and ultimately survival contexts.

This is essential training for people of all walks of life, that transcends physicality and requires no previous experience.

also You can find my other last: Self Improvement-posts

General
Complete name : Kevin Secours - 20 Steps to Verbal Mastery.mp4
Format : MPEG-4
Format profile : Base Media
Codec ID : isom (isom/iso2/mp41)
File size : 1.42 GiB
Duration : 2 h 44 min
Overall bit rate mode : Variable
Overall bit rate : 1 234 kb/s
Encoded date : UTC 1970-01-01 00:00:00
Tagged date : UTC 1970-01-01 00:00:00
Writing application : Lavf52.32.0

Video
ID : 1
Format : MPEG-4 Visual
Format profile : Simple@L1
Format settings, BVOP : No
Format settings, QPel : No
Format settings, GMC : No warppoints
Format settings, Matrix : Default (H.263)
Codec ID : 20
Duration : 2 h 44 min
Bit rate : 1 155 kb/s
Width : 1 920 pixels
Height : 1 080 pixels
Display aspect ratio : 16:9
Frame rate mode : Constant
Frame rate : 14.985 (14985/1000) FPS
Color space : YUV
Chroma subsampling : 4:2:0
Bit depth : 8 bits
Scan type : Progressive
Compression mode : Lossy
Bits/(Pixel*Frame) : 0.037
Stream size : 1.33 GiB (94%)
Writing library : Lavc52.22.3
Encoded date : UTC 1970-01-01 00:00:00
Tagged date : UTC 1970-01-01 00:00:00

Audio
ID : 2
Format : AAC
Format/Info : Advanced Audio Codec
Format profile : LC
Codec ID : 40
Duration : 2 h 44 min
Bit rate mode : Variable
Bit rate : 76.0 kb/s
Channel(s) : 2 channels
Channel positions : Front: L R
Sampling rate : 22.05 kHz
Frame rate : 21.533 FPS (1024 spf)
Compression mode : Lossy
Stream size : 89.5 MiB (6%)
Encoded date : UTC 1970-01-01 00:00:00
Tagged date : UTC 1970-01-01 00:00:00

Screenshots

Kevin Secours - 20 Steps to Verbal Mastery

Kevin Secours - 20 Steps to Verbal Mastery

Kevin Secours - 20 Steps to Verbal Mastery

Kevin Secours - 20 Steps to Verbal Mastery

Kevin Secours - 20 Steps to Verbal Mastery

Kevin Secours - 20 Steps to Verbal Mastery

Kevin Secours - 20 Steps to Verbal Mastery

Kevin Secours - 20 Steps to Verbal Mastery

Exclusive eLearning Videos ParRus-blogadd to bookmarks

Feel free to contact me PM
when links are dead or want any repost

Kevin Secours - 20 Steps to Verbal Mastery