3D World Magazine: Issue 143 (Tutorial Video + PDF)

Posted By: ParRus
3D World Magazine: Issue 143 (Tutorial Video + PDF)

3D World Magazine: Issue 143 (Tutorial Video + PDF)
English | MP4 + PDF | 1280 x 720 | AVC ~1032 kbps | 15 fps
AAC 127 kbps | 44.1 KHz | 2 channels | 4.21 GB
Genre: elearning / 3D-modeling

The newest issue of 3D World helps you master topology,reveals how you can create the perfect job-winning showreel and offers a complete 55-minute Maya training video on the disc. Also in this issue: paint a demonic creature bust in ZBrush, simulate an ocean scene in RealFlow and comp a creep horror movie sequence in Nuke.

Work files + pdf files are included

C:\Users\Administrator\Desktop\3D World Magazine Issue 143\Model a head with good topology (3 of 14).mp4
General
Complete name : C:\Users\Administrator\Desktop\3D World Magazine Issue 143\Model a head with good topology (3 of 14).mp4
Format : MPEG-4
Format profile : Base Media / Version 2
Codec ID : mp42
File size : 120 MiB
Duration : 14mn 27s
Overall bit rate : 1 164 Kbps
Encoded date : UTC 2011-04-29 10:00:24
Tagged date : UTC 2011-04-29 10:00:24
gsst : 0
gstd : 867533
gssd : BADC20504HH1304604878766728
gshh : v24.lscache2.c.youtube.com
Video #1
ID : 1
Format : AVC
Format/Info : Advanced Video Codec
Format profile : High@L3.1
Format settings, CABAC : Yes
Format settings, ReFrames : 1 frame
Codec ID : avc1
Codec ID/Info : Advanced Video Coding
Duration : 14mn 27s
Bit rate mode : Variable
Bit rate : 1 032 Kbps
Maximum bit rate : 2 663 Kbps
Width : 1 280 pixels
Height : 720 pixels
Display aspect ratio : 16:9
Frame rate mode : Variable
Frame rate : 15.000 fps
Minimum frame rate : 14.925 fps
Maximum frame rate : 15.152 fps
Resolution : 24 bits
Colorimetry : 4:2:0
Scan type : Progressive
Bits/(Pixel*Frame) : 0.075
Stream size : 107 MiB (89%)
Encoded date : UTC 1970-01-01 00:00:00
Tagged date : UTC 2011-04-29 10:00:36
Audio #2
ID : 2
Format : AAC
Format/Info : Advanced Audio Codec
Format version : Version 4
Format profile : LC
Format settings, SBR : No
Codec ID : 40
Duration : 14mn 27s
Bit rate mode : Variable
Bit rate : 127 Kbps
Maximum bit rate : 200 Kbps
Channel(s) : 2 channels
Channel positions : L R
Sampling rate : 44.1 KHz
Resolution : 16 bits
Stream size : 13.2 MiB (11%)
Title : (C) 2007 Google Inc. v08.13.2007.
Encoded date : UTC 2011-04-29 10:00:29
Tagged date : UTC 2011-04-29 10:00:36


Screenshots

3D World Magazine: Issue 143 (Tutorial Video + PDF)

3D World Magazine: Issue 143 (Tutorial Video + PDF)

3D World Magazine: Issue 143 (Tutorial Video + PDF)

Sample pages of the PDF-Magazine

3D World Magazine: Issue 143 (Tutorial Video + PDF)

3D World Magazine: Issue 143 (Tutorial Video + PDF)

3D World Magazine: Issue 143 (Tutorial Video + PDF)


no mirrors please, Follow The Rules

For more, Visit my blog