Subcategories

STM - 6 Weeks Affiliate Mastery Challenge (2017)

Posted By: ParRus
STM - 6 Weeks Affiliate Mastery Challenge (2017)

STM - 6 Weeks Affiliate Mastery Challenge (2017)
WEBRip | English | MP4 + PDF Guides | 1904 x 1052 | AVC ~368 Kbps | 29.970 fps
AAC | 192 Kbps | 48.0 KHz | 2 channels | 39:50:49 | 20.59 GB
Genre: Video Tutorial / Business, Sales, Marketing

The Ultimate Walkthrough to Affiliate Marketing The 6 Week Affiliate Mastery Challenge Foundation In a world crowded with pumped up gurus selling low-value info products, The 6 Week AMC stands alone as the ultimate walkthrough to affiliate marketing. Students of the 6WAMC can expect 6 weeks of hyper relevant, step-by-step video instruction, delivering all the foundational elements of affiliate media buying, including competitive research, offer evaluation, tech setup, and advanced optimization techniques. Each unit comes with up-to-the-minute case studies showing how our tactics drive results.
6WAMC's Biggest Differentiator?

Seriously Next-level Support

We know that when learning a new skill, an unanswered question at the wrong time can derail your momentum and affect your motivation. That's why our AMC experts are there to answer your questions in real-time. 6WAMC's support connects students with our team of affiliate marketing experts in a live chatting environment.

Our teachers have been part of our community for years and each is dedicated to the notion that anyone with a work ethic and a passion for marketing can master the skills necessary to make a very good living with Affiliate Marketing.

What you get

6 Weeks of Rich Video Content

We teach you through video. We meet you face to face and talk you through the ins and outs of affiliate marketing.

Constant Support

Multiple course coordinators help guide you to success, and representatives from select partners also provide exclusive support.

Weekly Q&A Sessions

We even do live Q&A sessions on the weekend where you can ask ask coordinators your burning questions, live, and have them answer on camera.

Ad Credit Bonuses From Partners

To help you get started we have carefully selected partner traffic sources to launch campaigns with and these provide $2000+ in bonus ad credit. Awesome!

Cameos From Affiliate Superstars

Mr Green? Charles Ngo? Tim Tetra? We have interviews, Q&A and even video case studies from some of the best marketers you know.

also You can find my other last: Business-posts

General
Complete name : 01- Shopify Walk ThroughG_P@FB.mp4
Format : MPEG-4
Format profile : Base Media
Codec ID : isom (isom/iso2/avc1/mp41)
File size : 14.4 MiB
Duration : 5 min 27 s
Overall bit rate : 371 kb/s
Tagged date : UTC 2017-04-21 08:45:33

Video
ID : 1
Format : AVC
Format/Info : Advanced Video Codec
Format profile : High@L3.1
Format settings, CABAC : Yes
Format settings, ReFrames : 4 frames
Codec ID : avc1
Codec ID/Info : Advanced Video Coding
Duration : 5 min 27 s
Bit rate : 216 kb/s
Width : 1 280 pixels
Height : 720 pixels
Display aspect ratio : 16:9
Frame rate mode : Constant
Frame rate : 23.976 (23976/1000) FPS
Color space : YUV
Chroma subsampling : 4:2:0
Bit depth : 8 bits
Scan type : Progressive
Bits/(Pixel*Frame) : 0.010
Stream size : 8.50 MiB (59%)
Writing library : x264 core 129
Encoding settings : cabac=1 / ref=3 / deblock=1:0:0 / analyse=0x3:0x113 / me=hex / subme=7 / psy=1 / psy_rd=1.00:0.00 / mixed_ref=1 / me_range=16 / chroma_me=1 / trellis=1 / 8x8dct=1 / cqm=0 / deadzone=21,11 / fast_pskip=1 / chroma_qp_offset=-2 / threads=9 / lookahead_threads=1 / sliced_threads=0 / nr=0 / decimate=1 / interlaced=0 / bluray_compat=0 / constrained_intra=0 / bframes=3 / b_pyramid=2 / b_adapt=1 / b_bias=0 / direct=1 / weightb=1 / open_gop=0 / weightp=2 / keyint=250 / keyint_min=23 / scenecut=40 / intra_refresh=0 / rc_lookahead=40 / rc=abr / mbtree=1 / bitrate=216 / ratetol=1.0 / qcomp=0.60 / qpmin=0 / qpmax=69 / qpstep=4 / ip_ratio=1.40 / aq=1:1.00
Menus : 3

Audio
ID : 2
Format : AAC
Format/Info : Advanced Audio Codec
Format profile : LC
Codec ID : 40
Duration : 5 min 26 s
Bit rate mode : Constant
Bit rate : 147 kb/s
Channel(s) : 2 channels
Channel positions : Front: L R
Sampling rate : 48.0 kHz
Frame rate : 46.875 FPS (1024 spf)
Compression mode : Lossy
Stream size : 5.73 MiB (40%)
Default : Yes
Alternate group : 1

Menu
ID : 3
Codec ID : text
Duration : 5 min 27 s
Encoded date : UTC 2017-04-21 08:45:33
Tagged date : UTC 2017-04-21 08:45:33
Menu For : 1
00:00:00.000 : Chapter 1

Screenshots

STM - 6 Weeks Affiliate Mastery Challenge (2017)

STM - 6 Weeks Affiliate Mastery Challenge (2017)

STM - 6 Weeks Affiliate Mastery Challenge (2017)

STM - 6 Weeks Affiliate Mastery Challenge (2017)

STM - 6 Weeks Affiliate Mastery Challenge (2017)

STM - 6 Weeks Affiliate Mastery Challenge (2017)

Exclusive eLearning Videos ParRus-blogadd to bookmarks

Feel free to contact me PM
when links are dead or want any repost

STM - 6 Weeks Affiliate Mastery Challenge (2017)