Subcategories

John Demartini - 7 Powers Package

Posted By: ParRus
John Demartini - 7 Powers Package

John Demartini - 7 Powers Package
WEBRip | English | MP4 + MP3 + PDF Guides | 1280 x 720 | AVC ~1382 kbps | 30 fps
AAC | 126 Kbps | 44.1 KHz | 2 channels | ~2 hours | 2.8 GB
Genre: eLearning Video / Self-Improvement

An opportunity to take your life to a whole new level of empowerment in all 7 areas of life!
There are seven primary human powers: Spiritual, Financial, Vocational, Physical, Social, Family and Mental. You have these powers at your disposal on some level all the time. Ask yourself, where you are now and consider where you would love to be. Is there an area you have neglected or one you could develop? Don’t just focus on a single power, or work on some to the exclusion of others, because each of them has a tremendous impact on the quality of your life. Remember: Any area of your life that you don’t empower opens the possibility that someone else will overpower you in that area. Use the tools shared in the attached video to empower all areas of your life.

This 7 Power Package Online Learning Program includes:

Application of Values for Achievement Online Learning Module
Building Wealth Streaming Audio
Activating your Entrepreneurial Spirit Streaming Audio
Activating Genius and Potential Streaming Audio
Accessing Your 7 Greatest Powers Streaming Audio

Value: $540
More Info: Salepage

also You can look my other last: Self-Improvement-posts

General
Complete name : 03 Online Masterclass with Dr John Demartini - Accessing your 7 Greatest Powers.mp4
Format : MPEG-4
Format profile : Base Media
Codec ID : isom (isom/iso2/avc1/mp41)
File size : 991 MiB
Duration : 1 h 31 min
Overall bit rate : 1 515 kb/s

Video
ID : 1
Format : AVC
Format/Info : Advanced Video Codec
Format profile : Main@L3.1
Format settings : CABAC / 3 Ref Frames
Format settings, CABAC : Yes
Format settings, RefFrames : 3 frames
Codec ID : avc1
Codec ID/Info : Advanced Video Coding
Duration : 1 h 31 min
Bit rate : 1 382 kb/s
Width : 1 280 pixels
Height : 720 pixels
Display aspect ratio : 16:9
Frame rate mode : Constant
Frame rate : 30.000 FPS
Color space : YUV
Chroma subsampling : 4:2:0
Bit depth : 8 bits
Scan type : Progressive
Bits/(Pixel*Frame) : 0.050
Stream size : 904 MiB (91%)

Audio
ID : 2
Format : AAC
Format/Info : Advanced Audio Codec
Format profile : LC
Codec ID : mp4a-40-2
Duration : 1 h 31 min
Bit rate mode : Constant
Bit rate : 126 kb/s
Channel(s) : 2 channels
Channel positions : Front: L R
Sampling rate : 44.1 kHz
Frame rate : 43.066 FPS (1024 SPF)
Compression mode : Lossy
Stream size : 82.1 MiB (8%)
Default : Yes
Alternate group : 1
Screenshots

John Demartini - 7 Powers Package

John Demartini - 7 Powers Package

John Demartini - 7 Powers Package

John Demartini - 7 Powers Package

✅ Exclusive eLearning Videos ParRus-blogadd to bookmarks

Feel free to contact me PM
when links are dead or want any repost

John Demartini - 7 Powers Package