Subcategories

70 Laws - Jason Capital

Posted By: ParRus
70 Laws - Jason Capital

70 Laws - Jason Capital
WEBRip | English | MP4 + MP3 + PDF Guide | 1920 x 1080 | AVC ~3750 kbps | 23.976 fps
AAC 128 Kbps 44.1 KHz | 2 channels | ~3 hours | 2.6 GB
Genre: eLearning Video / Dating, Relationships, Sex, Psychology

Jason Capital has been an influential part of the seduction industry and coaching guys for almost 5 years. Since developing his "honest" style of picking up women from his own personal experiences, Jason continues to build upon his expertise and focusing on a great social and business life. His well-established Jason Capital Dating business and popular daily newsletter are a result of his drive to keep delivering value in order to be successful. Jason is on a mission: Help more than 100,000 guys change their lives for the better – romantically, socially, and other otherwise.
Content:

70 Laws - JC's Personal Notes.pdf 160.65 KB
70 Laws.png 836.14 KB
Vol 2 - Laws 11-20.mp3 16.92 MB
Vol 3 - Laws 21-30.mp3 18.04 MB
Vol 6 - Laws 51-60.mp3 19.34 MB
Vol 7 - Laws 61-70.mp3 19.51 MB
Vol 4 - Laws 31-40.mp3 20.89 MB
Vol 5 - Laws 41-50.mp3 24.8 MB
Vol 1 - Laws 01-10.mp3 25.84 MB
Hot Girls X-Files.mp4 1.47 GB
Bonus - First Date Pvssy


also:
Jason Capital - Status
Jason Capital – Mental Dominance
Jason Capital - The Storytelling God System
Jason Capital - Power Influence System
Ice Cold System - Jason Capital
Jason Capital - Status Unleashed (2017)


and You can find my other last: Relationship-posts

General
Complete name : Hot Girls X-Files.mp4
Format : MPEG-4
Format profile : Base Media
Codec ID : isom (isom/iso2/avc1/mp41)
File size : 1.47 GiB
Duration : 54mn 15s
Overall bit rate : 3 883 Kbps
Writing application : Lavf56.25.101

Video
ID : 1
Format : AVC
Format/Info : Advanced Video Codec
Format profile : High@L4
Format settings, CABAC : Yes
Format settings, ReFrames : 4 frames
Codec ID : avc1
Codec ID/Info : Advanced Video Coding
Duration : 54mn 15s
Bit rate : 3 750 Kbps
Width : 1 920 pixels
Height : 1 080 pixels
Display aspect ratio : 16:9
Frame rate mode : Constant
Frame rate : 23.976 (23976/1000) fps
Color space : YUV
Chroma subsampling : 4:2:0
Bit depth : 8 bits
Scan type : Progressive
Bits/(Pixel*Frame) : 0.075
Stream size : 1.42 GiB (97%)
Writing library : x264 core 142 r2491 24e4fed
Encoding settings : cabac=1 / ref=2 / deblock=1:0:0 / analyse=0x3:0x113 / me=hex / subme=6 / psy=1 / psy_rd=1.00:0.00 / mixed_ref=1 / me_range=16 / chroma_me=1 / trellis=0 / 8x8dct=1 / cqm=0 / deadzone=21,11 / fast_pskip=1 / chroma_qp_offset=-2 / threads=12 / lookahead_threads=2 / sliced_threads=0 / nr=0 / decimate=1 / interlaced=0 / bluray_compat=0 / constrained_intra=0 / bframes=3 / b_pyramid=2 / b_adapt=1 / b_bias=0 / direct=3 / weightb=1 / open_gop=0 / weightp=2 / keyint=250 / keyint_min=25 / scenecut=40 / intra_refresh=0 / rc_lookahead=40 / rc=2pass / mbtree=1 / bitrate=3750 / ratetol=1.0 / qcomp=0.60 / qpmin=10 / qpmax=51 / qpstep=4 / cplxblur=20.0 / qblur=0.5 / ip_ratio=1.41 / aq=1:1.00
Language : English

Audio
ID : 2
Format : AAC
Format/Info : Advanced Audio Codec
Format profile : LC
Codec ID : 40
Duration : 54mn 15s
Duration_LastFrame : -7ms
Bit rate mode : Constant
Bit rate : 128 Kbps
Channel(s) : 2 channels
Channel positions : Front: L R
Sampling rate : 44.1 KHz
Frame rate : 43.066 fps (1024 spf)
Compression mode : Lossy
Stream size : 49.7 MiB (3%)
Language : English
Default : Yes
Alternate group : 1
Screenshots

70 Laws - Jason Capital

70 Laws - Jason Capital

70 Laws - Jason Capital

70 Laws - Jason Capital

Exclusive eLearning Videos ParRus-blogadd to bookmarks

Feel free to contact me PM
when links are dead or want any repost

70 Laws - Jason Capital