Subcategories

Attack Hot Lessons - Andre Agassi and Nick Bollettieri (1991)

Posted By: Polik88
Attack Hot Lessons - Andre Agassi and Nick Bollettieri (1991)

Attack Hot Lessons - Andre Agassi and Nick Bollettieri (1991)
DVDRip | English | AVI/DIVX 25.000 fps 778 Kbps | 560x416 | MP3 192 Kbps 48.0 khz | 51mn 27s | 2x699 MB
Genre: Video Training

This video offers exciting tournament footage combined with excellent instruction on taking one's tennis game to the next level. Andre Agassi and Nick Bollettieri describe and demonstrate some of the basic skills needed to play aggressive and competitive tennis – both mental and physical. Conditioning drills are presented, along with advice on improving forehand, backhand, overhead, and serve strokes. Attack: Hot Lessons - Andre Agassi & Nick Bollettieri is not too technical, but serves as good general advice for intermediate tennis players who want to improve their games.
General
Complete name : Attack Hot Lessons - Andre Agassi and Nick Bollettieri (1991).avi
Format : AVI
Format/Info : Audio Video Interleave
File size : 337 MiB
Duration : 51mn 27s
Overall bit rate : 916 Kbps
Writing library : VirtualDub build 24463/release

Video
ID : 0
Format : MPEG-4 Visual
Format settings, BVOP : Yes
Format settings, QPel : No
Format settings, GMC : No warppoints
Format settings, Matrix : Default (H.263)
Codec ID : DX50
Codec ID/Hint : DivX 5
Duration : 51mn 27s
Bit rate : 778 Kbps
Width : 560 pixels
Height : 416 pixels
Display aspect ratio : 4:3
Frame rate : 25.000 fps
Color space : YUV
Chroma subsampling : 4:2:0
Bit depth : 8 bits
Scan type : Progressive
Compression mode : Lossy
Bits/(Pixel*Frame) : 0.134
Stream size : 286 MiB (85%)
Writing library : DivX 5.0.5 (UTC 2003-04-24)

Audio
ID : 1
Format : MPEG Audio
Format version : Version 1
Format profile : Layer 3
Mode : Joint stereo
Codec ID : 55
Codec ID/Hint : MP3
Duration : 51mn 27s
Bit rate mode : Constant
Bit rate : 128 Kbps
Channel(s) : 2 channels
Sampling rate : 48.0 KHz
Compression mode : Lossy
Delay relative to video : 16ms
Stream size : 47.1 MiB (14%)
Alignment : Split accross interleaves
Interleave, duration : 40 ms (1.00 video frame)
Interleave, preload duration : 500 ms

Screenshots

Attack Hot Lessons - Andre Agassi and Nick Bollettieri (1991)

Attack Hot Lessons - Andre Agassi and Nick Bollettieri (1991)

Attack Hot Lessons - Andre Agassi and Nick Bollettieri (1991)

no mirrors please, Follow The Rules
Visit Polik88 Blog Here
no password