Subcategories

BBQ Secrets - The Master Guide To Extraordinary Barbecue Cookin (2004)

Posted By: Polik88
BBQ Secrets - The Master Guide To Extraordinary Barbecue Cookin (2004)

BBQ Secrets - The Master Guide To Extraordinary Barbecue Cookin (2004)
DVDRip | English | AVI/DIVX 29.970 fps 1027 Kbps | 600x450 | MP3 256 Kbps 48.0 khz | 1h 11mn | 661 MB
Genre: Video Training / Cooking

3 world champion BBQ cooks, and restaurateur's team up to share their decades of successful cooking experience that will help new and veteran bbq cooks improve their barbecue results. The three cooks presented in BBQ SECRETS: The Master Guide to Extraordinary Barbecue Cookin have decades of championship experience that can help competition and backyard cooks improve your barbecue cooking. This is a detailed and comprehensive video resource devoted to sharing expert barbecue cooking tips, techniques, and outstanding recipes. Some of the things you will learn in this DVD: solid techniques for cooking a wide variety of meats: chicken, pork, brisket, and shrimp how to prepare spice rubs and marinades how to monitor internal and external temperatures for cooking various foods the proper use and types of woods for fuel and for adding smoke flavors an unique approach to preparing a whole hog for cooking from the enclosed recipe booklet, proven recipes from the barbecue champions own private collections.
General
Complete name : BBQ Secrets - The Master Guide To Extraordinary Barbecue Cookin.avi
Format : AVI
Format/Info : Audio Video Interleave
File size : 661 MiB
Duration : 1h 11mn
Overall bit rate : 1 297 Kbps
Writing application : Lavf51.12.1
Writing library : VirtualDub build 30586/release

Video
ID : 0
Format : MPEG-4 Visual
Format settings, BVOP : 1
Format settings, QPel : No
Format settings, GMC : No warppoints
Format settings, Matrix : Default (H.263)
Muxing mode : Packed bitstream
Codec ID : DX50
Codec ID/Hint : DivX 5
Duration : 1h 11mn
Bit rate : 1 027 Kbps
Width : 600 pixels
Height : 450 pixels
Display aspect ratio : 4:3
Frame rate : 29.970 fps
Color space : YUV
Chroma subsampling : 4:2:0
Bit depth : 8 bits
Scan type : Progressive
Compression mode : Lossy
Bits/(Pixel*Frame) : 0.127
Stream size : 524 MiB (79%)
Writing library : DivX 6.8.5 (UTC 2009-08-20)

Audio
ID : 1
Format : MPEG Audio
Format version : Version 1
Format profile : Layer 3
Mode : Joint stereo
Mode extension : MS Stereo
Codec ID : 55
Codec ID/Hint : MP3
Duration : 1h 11mn
Bit rate mode : Constant
Bit rate : 256 Kbps
Channel(s) : 2 channels
Sampling rate : 48.0 KHz
Compression mode : Lossy
Stream size : 130 MiB (20%)
Alignment : Aligned on interleaves
Interleave, duration : 24 ms (0.72 video frame)
Interleave, preload duration : 504 ms
Writing library : LAME3.97

Screenshots

BBQ Secrets - The Master Guide To Extraordinary Barbecue Cookin (2004)

BBQ Secrets - The Master Guide To Extraordinary Barbecue Cookin (2004)

BBQ Secrets - The Master Guide To Extraordinary Barbecue Cookin (2004)

no mirrors please, Follow The Rules
Visit Polik88 Blog Here
no password