Subcategories

Blast The Ball (Repost)

Posted By: Polik88
Blast The Ball (Repost)

Blast The Ball (Repost)
English | M4V | 720x480 | AVC 545 Kbps 29.970 fps | AAC 144 Kbps 48.0 khz | 2h 17mn | 686 MB
Genre: Video Training

Have you ever wondered how David Beckham curves the ball wherever he wants? You can learn how to control the ball better and improve your game with this new video, Blast the Ball! Kicking is the key aspect in the game of soccer, and there are certain ways to use your foot to kick the ball in different directions. Learning how to control your feet will help you enjoy playing the game much more. All skill levels will benefit from Blast the Ball as it teaches what changes can be made to your kick. Watch Blast the Ball and learn how to improve your kick, then go out and try the different techniques you will learn. It will amaze you how simple changes in your form will help you Blast the Ball!
General
Complete name : Blast the Ball.m4v
Format : MPEG-4
Format profile : Base Media / Version 2
Codec ID : mp42
File size : 686 MiB
Duration : 2h 17mn
Overall bit rate mode : Variable
Overall bit rate : 696 Kbps
Encoded date : UTC 2009-02-14 15:41:01
Tagged date : UTC 2009-02-14 17:21:48
Writing application : HandBrake 0.9.3 2008112300

Video
ID : 1
Format : AVC
Format/Info : Advanced Video Codec
Format profile : Main@L3.0
Format settings, CABAC : Yes
Format settings, ReFrames : 2 frames
Codec ID : avc1
Codec ID/Info : Advanced Video Coding
Duration : 2h 17mn
Bit rate mode : Variable
Bit rate : 545 Kbps
Width : 720 pixels
Height : 480 pixels
Display aspect ratio : 16:9
Original display aspect ratio : 16:9
Frame rate mode : Variable
Frame rate : 30.000 fps
Original frame rate : 29.970 fps
Minimum frame rate : 29.944 fps
Maximum frame rate : 59.925 fps
Standard : NTSC
Color space : YUV
Chroma subsampling : 4:2:0
Bit depth : 8 bits
Scan type : Progressive
Bits/(Pixel*Frame) : 0.053
Stream size : 538 MiB (78%)
Writing library : x264 core 65
Encoding settings : cabac=1 / ref=2 / deblock=1:0:0 / analyse=0x1:0x111 / me=umh / subme=6 / psy_rd=1.0:0.0 / mixed_ref=0 / me_range=16 / chroma_me=1 / trellis=0 / 8x8dct=0 / cqm=0 / deadzone=21,11 / chroma_qp_offset=-2 / threads=3 / nr=0 / decimate=1 / mbaff=0 / bframes=2 / b_pyramid=0 / b_adapt=1 / b_bias=0 / direct=1 / wpredb=0 / keyint=300 / keyint_min=30 / scenecut=40(pre) / rc=2pass / bitrate=545 / ratetol=1.0 / qcomp=0.60 / qpmin=10 / qpmax=51 / qpstep=4 / cplxblur=20.0 / qblur=0.5 / ip_ratio=1.40 / pb_ratio=1.30 / aq=1:1.00
Language : English
Encoded date : UTC 2009-02-14 15:41:01
Tagged date : UTC 2009-02-14 17:21:48
Color primaries : BT.601-6 525, BT.1358 525, BT.1700 NTSC, SMPTE 170M
Transfer characteristics : BT.709-5, BT.1361
Matrix coefficients : BT.601-6 525, BT.1358 525, BT.1700 NTSC, SMPTE 170M

Audio
ID : 2
Format : AAC
Format/Info : Advanced Audio Codec
Format profile : LC
Codec ID : 40
Duration : 2h 17mn
Bit rate mode : Variable
Bit rate : 144 Kbps
Maximum bit rate : 248 Kbps
Channel(s) : 2 channels
Channel positions : Front: L R
Sampling rate : 48.0 KHz
Compression mode : Lossy
Delay relative to video : -33ms
Stream size : 143 MiB (21%)
Encoded date : UTC 2009-02-14 15:41:01
Tagged date : UTC 2009-02-14 17:21:46

Text
ID : 3
Format : Apple text
Codec ID : text
Duration : 2h 17mn
Bit rate : 0 bps
Stream size : 24.0 Bytes (0%)
Language : English
Encoded date : UTC 2009-02-14 15:41:01
Tagged date : UTC 2009-02-14 17:21:48

Screenshots

Blast The Ball (Repost)

Blast The Ball (Repost)

Blast The Ball (Repost)

no mirrors please, Follow The Rules
Visit Polik88 Blog Here
no password