Subcategories

Les Mills: BodyJam 63 - Kicking and Screaming (2012)

Posted By: ParRus
Les Mills: BodyJam 63 - Kicking and Screaming (2012)

BodyJam 63 - Kicking and Screaming (2012)
DVDRip | English | AVI | 512 x 288 | XviD ~1023 Kbps | 23.976 fps
MP3 | 128 kbps | 48.0 KHz | 2 channels | 01:07:21 | 558 MB
Genre: Video Training

BODYJAM™ is the cardio workout where you are free to enjoy the sensation of dance. An addictive fusion of the latest dance styles and hottest new sounds puts the emphasis as much on having fun as on breaking a sweat. Amazing instructors teach you to move with attitude through this 55-minute class. Les Mills BodyJam 63 - Kicking and Screaming.
Tracklist:
1. Numb – Usher
2. Whip It – Neptune Imposter
3. She Doesn’t Mind (Pitbull Remix) – Sean Paul
4. What Can Me Do (A Deeper Love)(Extende Mix) – Tiesto
5. Greyhound – Swedish House Mafia
6. What Can Me Do (A Deeper Love)(Third Party Remix) – Tiesto
7. Boyfriend – Jedi Under Age
8. Trumpet Lights – Chris Brown feat. Sabrina Antionette
9. Euphoria – Usher
10. Move (If You Wanna) – MIMS
11. How We Do (Party)(Sandro silva Extended Club Mix) – Rita Ora
12. Beautiful World (Laidback Lucke Remix) – Tiesto & Mark Knight feat. Dino
13. Feel So Close (Nero Remix) – Calvin Harris
Bonus 14. Drink (Balvero Remix) – Lil Jon feat. LMFAO
Bonus 15. 1234(Original) – Laidback Luke feat. Chuckie & Martin Solveig
Share on linkedinShare on facebookShare on twitterShare on emailMore Sharing Services

General
Complete name : Les Mills BodyJam 63 (2012).avi
Format : AVI
Format/Info : Audio Video Interleave
File size : 473 MiB
Duration : 56mn 58s
Overall bit rate : 1 161 Kbps
Movie name : bj63
Writing application : FairUse Wizard - http://fairusewizard.com
Writing library : The best and REALLY easy backup tool
Copyright : Olu6ka
Video #0
ID : 0
Format : MPEG-4 Visual
Format profile : Advanced Simple@L5
Format settings, BVOP : 2
Format settings, QPel : No
Format settings, GMC : No warppoints
Format settings, Matrix : Default (H.263)
Codec ID : XVID
Codec ID/Hint : XviD
Duration : 56mn 58s
Bit rate : 1 023 Kbps
Width : 512 pixels
Height : 288 pixels
Display aspect ratio : 16:9
Frame rate : 23.976 fps
Color space : YUV
Chroma subsampling : 4:2:0
Bit depth : 8 bits
Scan type : Progressive
Compression mode : Lossy
Bits/(Pixel*Frame) : 0.289
Stream size : 417 MiB (88%)
Writing library : XviD 1.2.1 (UTC 2008-12-04)
Audio #1
ID : 1
Format : MPEG Audio
Format version : Version 1
Format profile : Layer 3
Mode : Joint stereo
Mode extension : MS Stereo
Codec ID : 55
Codec ID/Hint : MP3
Duration : 56mn 58s
Bit rate mode : Constant
Bit rate : 128 Kbps
Channel(s) : 2 channels
Sampling rate : 48.0 KHz
Compression mode : Lossy
Delay relative to video : 8ms
Stream size : 52.2 MiB (11%)
Alignment : Split accross interleaves
Interleave, duration : 42 ms (1.00 video frame)
Interleave, preload duration : 500 ms
Screenshots

Les Mills: BodyJam 63 - Kicking and Screaming (2012)

Les Mills: BodyJam 63 - Kicking and Screaming (2012)

Les Mills: BodyJam 63 - Kicking and Screaming (2012)

For more, Visit my AH-blog

no mirrors please, Follow The Rules