Subcategories

Bowling - Faults and Fixes (2006)

Posted By: Polik88
Bowling - Faults and Fixes (2006)

Bowling - Faults and Fixes (2006)
DVDRip | English | AVI/XVID 29.970 fps 1100 Kbps | 720x480 | MP3 192 Kbps 48.0 khz | 1h 10mn | 653 MB
Genre: Video Training

This DVD featuring Walter Ray Williams, Jr. will show how to immediately correct the most common errors made by players of all levels and abilities. Walter Ray is assisted by former PBA bowler Mark Baker. Together they work with several different bowlers, analyzing their techniques and correcting the various weaknesses in their games. Some of the tips covered in this program include: how to practice and convert more spares, proper technique on the delivery, how to get more power and ball rotation, proper timing and much more. These tips will allow you to dissect your own game, identify mistakes and make the necessary corrections to become a better bowler.
General
Complete name : Bowling_Faults_And_Fixes.avi
Format : AVI
Format/Info : Audio Video Interleave
File size : 653 MiB
Duration : 1h 10mn
Overall bit rate : 1 304 Kbps
Writing library : VirtualDub-MPEG2 build 24458/release

Video
ID : 0
Format : MPEG-4 Visual
Format profile : Advanced Simple@L5
Format settings, BVOP : 1
Format settings, QPel : No
Format settings, GMC : No warppoints
Format settings, Matrix : Default (H.263)
Muxing mode : Packed bitstream
Codec ID : XVID
Codec ID/Hint : XviD
Duration : 1h 10mn
Bit rate : 1 100 Kbps
Width : 720 pixels
Height : 480 pixels
Display aspect ratio : 3:2
Frame rate : 29.970 fps
Standard : NTSC
Color space : YUV
Chroma subsampling : 4:2:0
Bit depth : 8 bits
Scan type : Progressive
Compression mode : Lossy
Bits/(Pixel*Frame) : 0.106
Stream size : 551 MiB (84%)
Writing library : XviD 1.2.0.dev47 (UTC 2006-11-01)

Audio
ID : 1
Format : MPEG Audio
Format version : Version 1
Format profile : Layer 3
Codec ID : 55
Codec ID/Hint : MP3
Duration : 1h 10mn
Bit rate mode : Constant
Bit rate : 192 Kbps
Channel(s) : 1 channel
Sampling rate : 48.0 KHz
Compression mode : Lossy
Stream size : 96.2 MiB (15%)
Alignment : Split accross interleaves
Interleave, duration : 33 ms (1.00 video frame)
Interleave, preload duration : 500 ms

Screenshots

Bowling - Faults and Fixes (2006)

Bowling - Faults and Fixes (2006)

Bowling - Faults and Fixes (2006)

no mirrors please, Follow The Rules
Visit Polik88 Blog Here
no password