Subcategories

Building Log Homes - Building Log Walls 3 Discs

Posted By: house23
Building Log Homes - Building Log Walls 3 Discs

Building Log Homes - Building Log Walls 3 Discs
AVI | MPEG-4 1527kbps | English | 720x480 | 29.97fps | 5 hours | MP3 stereo 156kbps | 3.47 GB
Genre: Video Training

3 DVD discs in a Box Set with 5 hours of video instruction. How to build handcrafted, scribe-fit log home walls with Robert W. Chambers and the Staff of Natural Log Homes. These videos will show you chainsaw and hand-tool techniques you'll need for building your handcrafted log home shell. Animations are used to teach log building fundamentals. Saddle notches and long-grooves (laterals) are scribed and cut. State of the art techniques for doing it yourself – Building your own log home. Robert teaches handcrafted methods using naturally-shaped logs that are fitted tightly to each other without gaps and without chinking. These DVDs are not about milled, factory-made, manufactured log kits. Instead, Chambers shows how to use a scriber to trace the contours of one log onto the other.

Robert W. Chambers has been building log homes since 1983, teaching log home construction since 1985, and is author of the best-selling book – the Log Construction Manual.

Disc 1: Getting Good Trees, Debarking & Peeling, How to Make a Log List, Tools, Safety, Techniques like Chainsaw Brushing, Cut-Carve, Saddles. Fundamentals like Corner Order (butts & tips), Avoiding Notching Problems, Finding Your Selection "Rules," How to Select Which Log to Use Next, and Techniques like Scribing Grooves. (2 hours)

Disc 2: Scribing Corner Notches, Scribing Flyways, Cutting Notches & Grooves, Kerfs to Control Checking, Gaskets to Keep your Home Warm, Finding & Fixing HangUps, Ripping Flats with a Chainsaw, Snapping Chalklines, Sill Logs (the First Logs), Average Wall Gain, Keeping Walls the Correct Height as you Build, Making a Selection Map. (2 hours)

Disc 3: The 25 Steps for putting logs on the wall. (1 hour)


Format : AVI
Format/Info : Audio Video Interleave
File size : 714 MiB
Duration : 58mn 48s
Overall bit rate mode : Variable
Overall bit rate : 1 697 Kbps
Writing application : MEncoder 1.0rc4-4.5.2
Writing library : MPlayer
Video #0
ID : 0
Format : MPEG-4 Visual
Format profile : Simple@L1
Format settings, BVOP : No
Format settings, QPel : No
Format settings, GMC : No warppoints
Format settings, Matrix : Default (H.263)
Codec ID : FMP4
Duration : 58mn 48s
Bit rate : 1 527 Kbps
Width : 720 pixels
Height : 480 pixels
Display aspect ratio : 3:2
Frame rate : 29.970 fps
Standard : NTSC
Color space : YUV
Chroma subsampling : 4:2:0
Bit depth : 8 bits
Scan type : Progressive
Compression mode : Lossy
Bits/(Pixel*Frame) : 0.147
Stream size : 642 MiB (90%)
Writing library : Lavc52.72.2
Audio #1
ID : 1
Format : MPEG Audio
Format version : Version 1
Format profile : Layer 3
Mode : Joint stereo
Codec ID : 55
Codec ID/Hint : MP3
Duration : 58mn 48s
Bit rate mode : Variable
Bit rate : 156 Kbps
Channel(s) : 2 channels
Sampling rate : 48.0 KHz
Compression mode : Lossy
Stream size : 65.6 MiB (9%)
Alignment : Aligned on interleaves
Interleave, duration : 24 ms (0.72 video frame)
Interleave, preload duration : 103 ms
Writing library : LAME3.98.4


Building Log Homes - Building Log Walls 3 Discs

Building Log Homes - Building Log Walls 3 Discs

Building Log Homes - Building Log Walls 3 Discs

Building Log Homes - Building Log Walls 3 Discs


No mirrors please