Subcategories

Coerver Soccer Coaching - The World's Best Soccer Skills Training (Repost)

Posted By: Polik88
Coerver Soccer Coaching - The World's Best Soccer Skills Training (Repost)

Coerver Soccer Coaching - The World's Best Soccer Skills Training (Repost)
DVDRip | English | AVI/DIVX 29.970 fps 774 Kbps | 352x264 | MP3 128 Kbps 44.1 khz | 2 channels | 997 MB
Genre: Video Training

Learn the skills and gain the confidence to succeed in the game with Coerver Coaching’s Make Your Move DVD system! Built around our unique and highly effective Pyramid of Player Development, the exercises on these discs build an all-around soccer competitor with advanced skills for handling the ball alone and against the competition during attack and defense.
General
Complete name : 01.Coerver Coaching - Make Your Move - DVD 1.avi
Format : AVI
Format/Info : Audio Video Interleave
File size : 216 MiB
Duration : 33mn 5s
Overall bit rate : 914 Kbps

Video
ID : 0
Format : MPEG-4 Visual
Format settings, BVOP : 1
Format settings, QPel : No
Format settings, GMC : No warppoints
Format settings, Matrix : Default (H.263)
Muxing mode : Packed bitstream
Codec ID : DX50
Codec ID/Hint : DivX 5
Duration : 33mn 5s
Bit rate : 774 Kbps
Width : 352 pixels
Height : 264 pixels
Display aspect ratio : 4:3
Frame rate : 29.970 fps
Color space : YUV
Chroma subsampling : 4:2:0
Bit depth : 8 bits
Scan type : Progressive
Compression mode : Lossy
Bits/(Pixel*Frame) : 0.278
Stream size : 183 MiB (85%)
Writing library : DivX 6.0.0 (UTC 2005-06-15)

Audio
ID : 1
Format : MPEG Audio
Format version : Version 1
Format profile : Layer 3
Codec ID : 55
Codec ID/Hint : MP3
Duration : 33mn 5s
Bit rate mode : Constant
Bit rate : 128 Kbps
Channel(s) : 2 channels
Sampling rate : 44.1 KHz
Compression mode : Lossy
Delay relative to video : 26ms
Stream size : 30.3 MiB (14%)
Alignment : Split accross interleaves
Interleave, duration : 33 ms (1.00 video frame)
Title : Audio Stream
Writing library : LAME3.92

Screenshots

Coerver Soccer Coaching - The World's Best Soccer Skills Training (Repost)

Coerver Soccer Coaching - The World's Best Soccer Skills Training (Repost)

Coerver Soccer Coaching - The World's Best Soccer Skills Training (Repost)

no mirrors please, Follow The Rules
Visit Polik88 Blog Here
no password