Subcategories

Cubase Guru - Bass Creation & Manipulation

Posted By: house23
Cubase Guru - Bass Creation & Manipulation

Cubase Guru - Bass Creation & Manipulation
MOV | AVC 1581kbps | English | 1920x1080 | 15fps | 2h 20mins | AAC stereo 64kbps | 1.35 GB
Genre: Video Training

In this course you will learn to create an array of bass sounds and patterns to drive your music production to the next level. Including full tuition on how to create bass using modulation sources, modulation routing and oscillators, along with filters and sound effects. Plus, you will also learn to use macro controls and MIDI automation set-ups. We also delve in to layered bass sounds and creating bass patterns. Suitable for beginner and intermediate levels of production skills.

1. Massive Hollow Bass
2. Massive Dominator Bass
3. Bass Genre part 1
4. Bassline Patterns
5. Layering Bass EQ Comp
6. Choosing a Key For Bass


Format : MPEG-4
Format profile : QuickTime
Codec ID : qt
File size : 402 MiB
Duration : 34mn 4s
Overall bit rate : 1 650 Kbps
Encoded date : UTC 2010-09-24 13:30:30
Tagged date : UTC 2010-09-24 13:30:58
Writing library : Apple QuickTime
Video #2
ID : 2
Format : AVC
Format/Info : Advanced Video Codec
Format profile : Main@L5.1
Format settings, CABAC : No
Format settings, ReFrames : 2 frames
Codec ID : avc1
Codec ID/Info : Advanced Video Coding
Duration : 34mn 4s
Bit rate mode : Variable
Bit rate : 1 581 Kbps
Width : 1 920 pixels
Height : 1 080 pixels
Display aspect ratio : 16:9
Frame rate mode : Constant
Frame rate : 15.000 fps
Resolution : 24 bits
Colorimetry : 4:2:0
Scan type : Progressive
Bits/(Pixel*Frame) : 0.051
Stream size : 385 MiB (96%)
Encoded date : UTC 2010-09-24 11:28:56
Tagged date : UTC 2010-09-24 13:30:58
colour_primaries : BT.709-5, BT.1361, IEC 61966-2-4, SMPTE RP177
transfer_characteristics : BT.709-5, BT.1361
matrix_coefficients : BT.709-5, BT.1361, IEC 61966-2-4 709, SMPTE RP177
Audio #1
ID : 1
Format : AAC
Format/Info : Advanced Audio Codec
Format version : Version 4
Format profile : LC
Format settings, SBR : No
Format settings, PS : Yes
Codec ID : 40
Duration : 34mn 4s
Bit rate mode : Constant
Bit rate : 64.7 Kbps
Nominal bit rate : 64.0 Kbps
Channel(s) : 2 channels
Channel positions : Front: L R
Sampling rate : 44.1 KHz
Resolution : 16 bits
Stream size : 15.8 MiB (4%)
Encoded date : UTC 2010-09-24 11:28:55
Tagged date : UTC 2010-09-24 13:30:58


Cubase Guru - Bass Creation & Manipulation

Cubase Guru - Bass Creation & Manipulation

Cubase Guru - Bass Creation & Manipulation


No mirrors please