Subcategories

Dan Kennedy - Marketing to the Affluent

Posted By: ParRus
Dan Kennedy - Marketing to the Affluent

Dan Kennedy - Marketing to the Affluent
English | MP4 + MP3 + PDF | 352 x 240 | AVC ~461 Kbps | 25 fps
AAC | 128 Kbps | 44.1 KHz | 2 channels | 06:19:43 | 2.96 GB
Genre: Video Training / Small Business, Entrepreneurs, Marketing

Experience explosive profits by learning to sell your products and services to the NEW and Fast-Growing “Spending Class” of Consumers. Find out where the affluent consumers are, how to find them and how to re-position your business, products, services and yourself to attract customers who are least and last affected by economic turbulence and eager to pay premium prices. Discover the combination to the vault as Dan shares the most effective strategies he’s perfected over the years for attracting and retaining affluent customers, clients and patients.
After years of testing, tweaking and experimentation in his “marketing lab”, Dan S. Kennedy discovered the keys that unlock the vault to virtually unlimited riches. In a special session Dan revealed the secret formula he uncovered to finding and selling to the least and last group of people affected by price—the Affluent.

Dan’s MOST Effective Tactics For Attracting Affluent Clients
Transform your business and life utilizing the tactics Dan uncovered from in-depth analyzed research, experience in the real-world trenches, and his $50,000 per year budget for research on how to market to the Affluent. Learn the magic language, trick to more precise target marketing & the appropriate messages to use.

The Buyer Behaviors and Emotional Triggers of the Expanding Mass-Affluent & Ultra-Affluent Market

Understand the unique psychology, buying motives, decision-making factors, and reasons the affluent prefer one seller over another whether for groceries and dry-cleaning or investing counsel or luxury goods and experiences. Shows you how to get out of your own way and get in sync with the Affluent Buyer.

Real Life Practical Strategies and Examples
Use strategies from diverse real-life examples to apply to your business and watch your profits soar. Includes real examples from Disney, Bo-Flex, Land Rover, American Express, Playboy, Cadillac, Google, Warren Buffet, Flex Jets and more. Reveals their strategies for how they attract the Affluent, how they present price, and how they extract maximum profits from their business.

The course includes: 4 MP4 files, 15 MP3 files, 3 PDF files
More Info: http://store.dankennedy.com/marketing-to-the-affluent.html

General
Complete name :Affluent 2.mp4
Format : MPEG-4
Format profile : Base Media
Codec ID : isom
File size : 527 MiB
Duration : 2h 4mn
Overall bit rate mode : Variable
Overall bit rate : 593 Kbps
Writing application : Lavf52.64.2
Video #1
ID : 1
Format : MPEG-4 Visual
Format profile : Simple@L3
Format settings, BVOP : No
Format settings, QPel : No
Format settings, GMC : No warppoints
Format settings, Matrix : Default (H.263)
Codec ID : 20
Duration : 2h 4mn
Bit rate : 461 Kbps
Width : 352 pixels
Height : 240 pixels
Display aspect ratio : 4:3
Frame rate mode : Constant
Frame rate : 25.000 fps
Standard : NTSC
Color space : YUV
Chroma subsampling : 4:2:0
Bit depth : 8 bits
Scan type : Progressive
Compression mode : Lossy
Bits/(Pixel*Frame) : 0.218
Stream size : 410 MiB (78%)
Writing library : XviD 1.2.1 (UTC 2008-12-04)
Language : English
Audio #2
ID : 2
Format : AAC
Format/Info : Advanced Audio Codec
Format profile : LC
Codec ID : 40
Duration : 2h 4mn
Bit rate mode : Variable
Bit rate : 128 Kbps
Channel(s) : 2 channels
Channel positions : Front: L R
Sampling rate : 44.1 KHz
Compression mode : Lossy
Stream size : 114 MiB (22%)
Language : English
Screenshots

Dan Kennedy - Marketing to the Affluent

Dan Kennedy - Marketing to the Affluent

Dan Kennedy - Marketing to the Affluent

Dan Kennedy - Marketing to the Affluent

Dan Kennedy - Marketing to the Affluent

Dan Kennedy - Marketing to the Affluent