Subcategories

Dance Music Production - Remixing (2011)

Posted By: ParRus
Dance Music Production - Remixing (2011)

Dance Music Production - Remixing (2011)
Flash Video in an Interactive Shell | English | MOV | 1280 x 720 | AVC ~326 Kbps | 4.712 fps
PCM | 1411 kbps | 44.1 KHz | 2 channels | 06:54:59 | 7.7 GB
Genre: Video Tutorial / Sound Processing

This course focuses on the methods and production techniques behind writing, engineering and producing a professional remix for club and radio airplay. DMP introduce yet another first for music production tutorials everywhere, this time by remixing a top-selling commercial music track. Here, we remix a top 40 commercial hit from start to finish - a track our production company was previously requested to remix for promotional purposes and have kindly been given permission to once again access the original multi-track files for the purpose of this tutorial.
Recorded over a period of a week, the DVD runs through the creation of a professional remix from a blank sequencer to the final arrangement and has been edited and split into sessions divulging the vital topics you should consider when remixing. These include aspects such as considering the original direction, what record companies want, the market, what to listen out for, key signatures, transcribing structures, tuning, time-stretching, pitching, the manipulation and re-interpretation of motifs, maintaining feel, drum timbres, bass conception and execution, leads, audio manipulation, vocal editing, processing, effects and remixing arrangement techniques.
In addition, we also discuss how to start remixing and the tricky subject of copyright and remixing fees. And all in the detail and real-world application you've come to expect from us at Dance Music Production. This tutorial also includes project files and MIDI (but does not include the original commercial multi-tracks).

Content:
DVD 1
Introduction
Remixing 101
Remix Formats
Tempo & Transcribing
The Kick
Generating Ideas
Programming Drums
Bass Groove
Leads & Programming
DVD 2
Arrangement Pt1
Arrangement Pt2
Vocal Processing
Arrangement Pt3
Final Arrangement
Remixing Notes
Final Words

More Info: www.dancemusicproduction.com/?news=remixing

General
Complete name : session02.mov
Format : MPEG-4
Format profile : QuickTime
Codec ID : qt
File size : 126 MiB
Duration : 10mn 6s
Overall bit rate : 1 738 Kbps
Encoded date : UTC 2011-01-22 20:51:37
Tagged date : UTC 2011-01-22 20:51:39
Writing library : Apple QuickTime
Video #2
ID : 2
Format : AVC
Format/Info : Advanced Video Codec
Format profile : Main@L3.1
Format settings, CABAC : No
Format settings, ReFrames : 2 frames
Format settings, GOP : M=2, N=24
Codec ID : avc1
Codec ID/Info : Advanced Video Coding
Duration : 10mn 6s
Bit rate : 326 Kbps
Width : 1 280 pixels
Height : 720 pixels
Display aspect ratio : 16:9
Frame rate mode : Variable
Frame rate : 4.712 fps
Minimum frame rate : 1.000 fps
Maximum frame rate : 31.579 fps
Color space : YUV
Chroma subsampling : 4:2:0
Bit depth : 8 bits
Scan type : Progressive
Bits/(Pixel*Frame) : 0.075
Stream size : 23.6 MiB (19%)
Language : English
Encoded date : UTC 2011-01-22 20:51:26
Tagged date : UTC 2011-01-22 20:51:39
Color primaries : BT.709-5, BT.1361, IEC 61966-2-4, SMPTE RP177
Transfer characteristics : BT.709-5, BT.1361
Matrix coefficients : BT.709-5, BT.1361, IEC 61966-2-4 709, SMPTE RP177
Audio #1
ID : 1
Format : PCM
Format settings, Endianness : Big
Format settings, Sign : Signed
Codec ID : twos
Duration : 10mn 6s
Bit rate mode : Constant
Bit rate : 1 411.2 Kbps
Channel(s) : 2 channels
Sampling rate : 44.1 KHz
Bit depth : 16 bits
Stream size : 102 MiB (81%)
Language : English
Encoded date : UTC 2011-01-22 20:51:26
Tagged date : UTC 2011-01-22 20:51:39
Screenshots

Dance Music Production - Remixing (2011)

Dance Music Production - Remixing (2011)

Dance Music Production - Remixing (2011)

For more, Visit my AH-blog

no mirrors please, Follow The Rules