Subcategories

Dance Music Production - Fundamental 6 Arranging (2012)

Posted By: house23
Dance Music Production - Fundamental 6 Arranging (2012)

Dance Music Production - Fundamental 6 Arranging (2012)
MOV | AVC 1489kbps | English | 1280x720 | 15.8fps | 7h 03mins | AAC stereo 119kbps | 3.43 GB
Genre: Video Training

Continuing our best selling series on the Fundamental production techniques for dance producers comes volume 6: Dance Music - Song Structure and Arranging.
We've all been there. You have a killer 8 or 16 bars but building an entire track from them isn't as easy as it first appears. For Fundamental 6 we examine the theory and practice behind arranging dance music. Beginning with an examination of the theory behind phrasing and response, we move on to discuss sonata form, energy, development, recapitulation, motion, contour and anticipation. Using an example track constructed from 16 bars, we use the previously discussed theory and over numerous sessions walk through how to create a complete club arrangement using these techniques whilst also discussing techniques such as syncopation, meter, poly-meter, hyperbeats, hypermeter and hemiola to create interesting patterns and loops from limited instruments.

Finally, we examine builds and drops, discussing the theory and practice of synthesis programming for the creation of risers, sweeps and falls before finally taking a look at how to create an arrangement for the radio.

Session 01: Phrasing & Response
Session 02: Structure & Acts.
Session 03: Development/Anticipation.
Session 04: Rhythmic Meter and Syncopation.
Session 05: Development Part 1.
Session 06: Recapitulation 1.
Session 07: Recapitulation 2.
Session 08: Recapitulation (Alt)
Session 09: Development 2
Session 10: Transition Effects
Session 11: Radio Edits


Format : MPEG-4
Format profile : QuickTime
Codec ID : qt
File size : 582 MiB
Duration : 50mn 28s
Overall bit rate : 1 612 Kbps
Encoded date : UTC 2012-10-10 21:19:16
Tagged date : UTC 2012-10-10 21:19:22
Writing library : Apple QuickTime
Video #2
ID : 2
Format : AVC
Format/Info : Advanced Video Codec
Format profile : Main@L3.1
Format settings, CABAC : No
Format settings, ReFrames : 2 frames
Codec ID : avc1
Codec ID/Info : Advanced Video Coding
Duration : 50mn 28s
Bit rate mode : Variable
Bit rate : 1 489 Kbps
Width : 1 280 pixels
Height : 720 pixels
Display aspect ratio : 16:9
Frame rate mode : Variable
Frame rate : 15.795 fps
Minimum frame rate : 1.000 fps
Maximum frame rate : 30.000 fps
Resolution : 24 bits
Colorimetry : 4:2:0
Scan type : Progressive
Bits/(Pixel*Frame) : 0.102
Stream size : 537 MiB (92%)
Encoded date : UTC 2012-10-10 21:18:05
Tagged date : UTC 2012-10-10 21:19:22
colour_primaries : BT.709-5, BT.1361, IEC 61966-2-4, SMPTE RP177
transfer_characteristics : BT.709-5, BT.1361
matrix_coefficients : BT.709-5, BT.1361, IEC 61966-2-4 709, SMPTE RP177
Audio #1
ID : 1
Format : AAC
Format/Info : Advanced Audio Codec
Format version : Version 4
Format profile : LC
Format settings, SBR : No
Codec ID : 40
Duration : 50mn 28s
Bit rate mode : Constant
Bit rate : 119 Kbps
Nominal bit rate : 128 Kbps
Channel(s) : 2 channels
Channel positions : L R
Sampling rate : 44.1 KHz
Resolution : 16 bits
Stream size : 42.9 MiB (7%)
Encoded date : UTC 2012-10-10 21:18:05
Tagged date : UTC 2012-10-10 21:19:22


Dance Music Production - Fundamental 6 Arranging (2012)

Dance Music Production - Fundamental 6 Arranging (2012)

Dance Music Production - Fundamental 6 Arranging (2012)


No mirrors please