Subcategories

Demon Girl Vol. 1-4 with Dylan Brady (2013)

Posted By: ParRus
Demon Girl Vol. 1-4 with Dylan Brady (2013)

Demon Girl Vol. 1-4 with Dylan Brady
Flash Video | English | FLV + Project files | 1280 x 720 | VP6 ~4029 Kbps | 15 fps
MP3 | 128 kbps | 44.1 KHz | 2 channels | 05:50:00 | 6.54 GB
Genre: eLearning Video / Autodesk 3ds Max (2013)

In this Complete Character Modeling course, instructor Dylan Brady takes us through the entire character creation process of his Demon Girl from start to finish. We cover everything from gathering reference and concept, building a base mesh in 3ds Max, sculpting in ZBrush, all the way to baking the maps and texturing the character. In this course, we'll cover almost every step of the workflow with multiple softwares and workflows, and it's sure to propel your character modeling skills to the next level!
Project files are includes
More Info: https://www.3dmotive.com/f107301

General
Complete name : 05.Building.Hands.and.Head.flv
Format : Flash Video
File size : 88.4 MiB
Duration : 11mn 43s
Overall bit rate : 1 054 Kbps
Encoded date : Sat Feb 16 22:23:10 2013
Tagging application : On2 Flix SDK for Dshow_2.5.2.0
canseektoend : No
Video
Format : VP6
Codec ID : 4
Duration : 11mn 43s
Bit rate : 4 029 Kbps
Width : 1 280 pixels
Height : 720 pixels
Display aspect ratio : 16:9
Frame rate mode : Constant
Frame rate : 15.000 fps
Bit depth : 8 bits
Bits/(Pixel*Frame) : 0.291
Stream size : 338 MiB
Audio
Format : MPEG Audio
Format version : Version 1
Format profile : Layer 3
Codec ID : 2
Codec ID/Hint : MP3
Duration : 11mn 43s
Bit rate mode : Constant
Bit rate : 128 Kbps
Channel(s) : 2 channels
Sampling rate : 44.1 KHz
Compression mode : Lossy
Stream size : 10.7 MiB (12%)
Screenshots

Demon Girl Vol. 1-4 with Dylan Brady (2013)

Demon Girl Vol. 1-4 with Dylan Brady (2013)

Demon Girl Vol. 1-4 with Dylan Brady (2013)

Demon Girl Vol. 1-4 with Dylan Brady (2013)

Demon Girl Vol. 1-4 with Dylan Brady (2013)

For more, Visit my AH-blog

no mirrors please, Follow The Rules