Subcategories

Designing and Rendering Fantasy Characters in Pencil with Wayne Barlowe

Posted By: ParRus
Designing and Rendering Fantasy Characters in Pencil with Wayne Barlowe

Designing and Rendering Fantasy Characters in Pencil with Wayne Barlowe
DVDRip | English | MOV | 853 x 480 | AVC ~5765 kbps | 23.976 fps
AAC | 96 Kbps | 44.1 KHz | 1 channel | 129 minutes | 2.31 GB
Genre: eLearning Video / Drawing, Painting and Design

Wayne Barlowe is an author and illustrator who has created images for books, films and galleries. After attending Cooper Union, he executed hundreds of paperback book covers for all of the major publishers as well as illustrations for Life, Time and Newsweek. He is the author and illustrator of Expedition, Barlowe’s Guide to Extraterrestrials, Barlowe’s Guide to Fantasy, Barlowe’s Inferno, Brushfire: Illuminations from the Inferno, The Alien Life of Wayne Barlowe and An Alphabet of Dinosaurs. His character designs can be seen in Blade 2, Galaxy Quest, Hellboy and Hellboy 2, Harry Potter and the Prisoner of Azkhaban, Harry Potter and the Goblet of Fire, Avatar, The Hobbit and Alien Planet, a Discovery Channel special based on Expedition. He contributed many designs for EA’s Dante’s Inferno. Currently, he is writing the sequel to his first novel, God’s Demon, entitled The Heart of Hell.
Topics Covered:
• Materials
• Pencil Techniques
• Thumbnails
• Character Considerations
• Working in the Film Industry
• Blocking-In
• Executing the Drawing
• Final Balancing

1. Introduction
2. Gallery
3. Thumbnails
4. Blocking-In
5. Refining the Drawing
6. Balancing the Drawing
7. Final Drawing

More Info: http://www.thegnomonworkshop.com/store/product/754/#.USJEcKXIZas

General
Complete name : wba01_ch02.mov
Format : MPEG-4
Format profile : QuickTime
Codec ID : qt
File size : 865 MiB
Duration : 20mn 36s
Overall bit rate mode : Variable
Overall bit rate : 5 868 Kbps
Encoded date : UTC 2010-02-01 19:07:20
Tagged date : UTC 2010-02-01 19:08:26
Writing library : Apple QuickTime 7.5.5
com.apple.quicktime.player.movie.audio.mute : (Binary)
Video #1
ID : 1
Format : AVC
Format/Info : Advanced Video Codec
Format profile : Main@L5.0
Format settings, CABAC : No
Format settings, ReFrames : 2 frames
Codec ID : avc1
Codec ID/Info : Advanced Video Coding
Duration : 20mn 36s
Bit rate mode : Variable
Bit rate : 5 765 Kbps
Maximum bit rate : 21.0 Mbps
Width : 853 pixels
Original width : 854 pixels
Height : 480 pixels
Display aspect ratio : 16:9
Original display aspect ratio : 16:9
Frame rate mode : Variable
Frame rate : 23.976 fps
Minimum frame rate : 23.077 fps
Maximum frame rate : 24.000 fps
Color space : YUV
Chroma subsampling : 4:2:0
Bit depth : 8 bits
Scan type : Progressive
Bits/(Pixel*Frame) : 0.587
Stream size : 850 MiB (98%)
Language : English
Encoded date : UTC 2010-02-01 19:06:54
Tagged date : UTC 2010-02-01 19:08:26
Material_Duration : 1237863
Material_StreamSize : 891604555
Material_FrameCount : 29679
Color primaries : BT.709-5, BT.1361, IEC 61966-2-4, SMPTE RP177
Transfer characteristics : BT.709-5, BT.1361
Matrix coefficients : BT.709-5, BT.1361, IEC 61966-2-4 709, SMPTE RP177
Audio #2
ID : 2
Format : AAC
Format/Info : Advanced Audio Codec
Format profile : LC
Codec ID : 40
Duration : 20mn 36s
Bit rate mode : Constant
Bit rate : 96.0 Kbps
Channel(s) : 1 channel
Channel positions : Front: C
Sampling rate : 44.1 KHz
Compression mode : Lossy
Stream size : 14.1 MiB (2%)
Language : English
Encoded date : UTC 2010-02-01 19:06:54
Tagged date : UTC 2010-02-01 19:08:26
Material_Duration : 1236764
Material_StreamSize : 14771571
Screenshots

Designing and Rendering Fantasy Characters in Pencil with Wayne Barlowe

Designing and Rendering Fantasy Characters in Pencil with Wayne Barlowe

Designing and Rendering Fantasy Characters in Pencil with Wayne Barlowe

For more, Visit my AH-blog

no mirrors please, Follow The Rules