Subcategories

Dynamic Figure Drawing Head and Body by David Finch [repost]

Posted By: ParRus
Dynamic Figure Drawing Head and Body by David Finch [repost]

Dynamic Figure Drawing Head and Body by David Finch
DVDRip | English | FLV | 856 x 480 | VP6 ~2003 kbps | 24 fps
MP3 | 96.0 Kbps | 22.05 KHz | 1 channel | ~8 hours | 4.03 GB
Genre: Video Tutorial / Drawing

David Finch began his comic book career at the age of 22 at Top Cow Productions, part of Image Comics. There he created Ascension and Aphrodite IX, both of which were top sellers in the business, with Aphrodite IX debuting as the number one comic book in the industry. In 2001 he made the move to Marvel comics where his catalog of work included Call of Duty, Ultimate X-Men, Avengers Disassembled and The New Avengers. His run on Moon Knight skyrocketed this title into the main Marvel universe and landed him a top-five book which sold more than five times the title's previous release. David then turned his attention to working with Lost, Heroes and Smallville executive producer, Jeph Loeb, on Marvel’s smash hit Ultimatum. 2010 saw another major change in David’s career as his made the transition from Marvel Comics to DC Comics and the Warner Brothers banner. His artwork will be featured on the covers for the upcoming follow up to Darkest Night, entitled Brightest Day. In addition to his comic career, David has also worked in video games, music and film.
The Body:
In this DVD, David Finch reveals his step-by-step process for drawing the human body. He starts with simple tube form shapes, and then covers the placement of muscle throughout both the male and female bodies. David demonstrates how to pose a simple tube form effectively, allowing you to block-in and draw a figure in perspective and in a variety of poses. He discusses balance, posture and presentation, emphasizing line weight and lighting. Finally, David puts everything together and draws fully realized bodies with a variety of intricate poses, and a variety of proportions and details. This constructive drawing process teaches you to draw convincing human bodies without the need for tracing or using reference.

The Head:
In this DVD, David Finch reveals his step-by-step process for drawing the human head. He starts with a basic head shape and demonstrates the structural breakdown from multiple angles. He then focuses on the various features including eyes, noses, lips, ears, necks and hair. He discusses important landmarks, features and proportions. David brings it all together to draw a series of completed heads, from basic male and female heads to heroic examples. Lastly, he covers lighting on a simplified head shape to help you understand the rules governing placement of dark and light shapes. He includes a wide range of tips and tricks for making your faces, heads and hair more life-like and convincing without the need to rely upon reference material.

General
Complete name : DFI02_ch05.flv
Format : Flash Video
File size : 168 MiB
Duration : 12mn 38s
Overall bit rate : 1 861 Kbps
Encoded date : 2010-02-23 15:15:28
Tagged date : UTC 2010-02-23 18:49:35
Tagging application : Manitu Group FLV MetaData Injector 2
canseektoend : No
Video
Format : VP6
Codec ID : 4
Duration : 12mn 38s
Bit rate : 2 003 Kbps
Width : 856 pixels
Height : 480 pixels
Display aspect ratio : 16:9
Frame rate mode : Constant
Frame rate : 24.000 fps
Bit depth : 8 bits
Bits/(Pixel*Frame) : 0.203
Stream size : 159 MiB (95%)
Audio
Format : MPEG Audio
Format version : Version 2
Format profile : Layer 3
Codec ID : 2
Codec ID/Hint : MP3
Duration : 12mn 38s
Bit rate mode : Constant
Bit rate : 96.0 Kbps
Channel(s) : 1 channel
Sampling rate : 22.05 KHz
Compression mode : Lossy
Stream size : 9.12 MiB (5%)
Writing library : LAME3.97
Screenshots

Dynamic Figure Drawing Head and Body by David Finch [repost]

Dynamic Figure Drawing Head and Body by David Finch [repost]

Dynamic Figure Drawing Head and Body by David Finch [repost]

Dynamic Figure Drawing Head and Body by David Finch [repost]

For more, Visit my AH-blog

no mirrors please, Follow The Rules