Subcategories

Essential Keys to Better Bowling (2004)

Posted By: Polik88
Essential Keys to Better Bowling (2004)

Essential Keys to Better Bowling (2004)
DVDRip | English | AVI/XVID 29.970 fps 1495 Kbps | 720x480 | MP3 192 Kbps 48.0 khz | 38mn 52s | 472 GB
Genre: Video Training

Learn how to bowl your best game from two of the world's top bowling coaches. Fred Borden and Ken Yokobosky cover important bowling principles of benefit to all bowlers, regardless of experience. Topics covered include: equipment, delivery , the strike ball, making spares, adjusting to changing lane conditions, mastering the mental game, plus much more. This comprehensive program will help bowlers to rapidly progress and improve their consistency and scoring average.
General
Complete name : Essential_Keys_To_Better_Bowling.avi
Format : AVI
Format/Info : Audio Video Interleave
File size : 472 MiB
Duration : 38mn 52s
Overall bit rate : 1 698 Kbps
Writing library : VirtualDub-MPEG2 build 24458/release

Video
ID : 0
Format : MPEG-4 Visual
Format profile : Advanced Simple@L5
Format settings, BVOP : 1
Format settings, QPel : No
Format settings, GMC : No warppoints
Format settings, Matrix : Default (H.263)
Muxing mode : Packed bitstream
Codec ID : XVID
Codec ID/Hint : XviD
Duration : 38mn 52s
Bit rate : 1 495 Kbps
Width : 720 pixels
Height : 480 pixels
Display aspect ratio : 3:2
Frame rate : 29.970 fps
Standard : NTSC
Color space : YUV
Chroma subsampling : 4:2:0
Bit depth : 8 bits
Scan type : Progressive
Compression mode : Lossy
Bits/(Pixel*Frame) : 0.144
Stream size : 416 MiB (88%)
Writing library : XviD 1.2.0.dev47 (UTC 2006-11-01)

Audio
ID : 1
Format : MPEG Audio
Format version : Version 1
Format profile : Layer 3
Codec ID : 55
Codec ID/Hint : MP3
Duration : 38mn 52s
Bit rate mode : Constant
Bit rate : 192 Kbps
Channel(s) : 1 channel
Sampling rate : 48.0 KHz
Compression mode : Lossy
Stream size : 53.4 MiB (11%)
Alignment : Split accross interleaves
Interleave, duration : 33 ms (1.00 video frame)
Interleave, preload duration : 500 ms
Writing library : LAME3.97

Screenshots

Essential Keys to Better Bowling (2004)

Essential Keys to Better Bowling (2004)

Essential Keys to Better Bowling (2004)

no mirrors please, Follow The Rules
Visit Polik88 Blog Here
no password