Subcategories

Fake Smile Revolution - Metal since 1985 (2012)

Posted By: ParRus
Fake Smile Revolution - Metal since 1985 (2012)

Fake Smile Revolution - Metal since 1985
English | MP4 | 1920 x 1080 | AVC ~1454 Kbps | 30 fps
AAC | 132 kbps | 44.1 KHz | 2 channels | 01:07:38 | 781 MB
Genre: Video Tutorial / Sound Processing (2012)

In this video I show you one of my bass mixing techniques which I use on a lot of my projects. It does not primarily focus on the overall sound but mainly on the routing mechanics and some basic plugin usage.
How To - Bass mixing in a flexible way
In this video I show you one of my bass mixing techniques which I use on a lot of my projects.
It does not primarily focus on the overall sound but mainly on the routing mechanics and some basic plugin usage.

How To - Guitar Metal Tone
In this video I show to you how you can easily get a really nice aggressive guitar metal tone out of freeware VST plugins.
I use this plugin composition on many of my productions (To Punish And Enslave, Devil's Kitchen etc.), sometimes with ReCabinet 3 instead of the GuitarHack impulses.

How To - EQ DAT Metal Guitar
This video shows what you can actually achieve with correct equalizing on your guitar tracks. The basic tone is provided by the guitar amp simulation plugin or your real amp in combination with your distortion in front of it but you'll be surprised in what ways you can shape your tone afterwards! This video shows that equalizing is a little bit more than adding 3db at 3000Hz…

How To - Mastering Metal
In this how-to I explain how I approach mastering of my metal songs. I have quite a few mastering effect chains but most of them are a little bit tricky and/or include external effects. The one in the video is the "easiest chain to follow".
I explain what rules a mix must follow before it comes to mastering and finally I step through every plugin in the effect chain of the mastering channel.

Content:
How To - Bass mixing in a flexible way (part 1)
How To - Bass mixing in a flexible way (part 2)
How To - EQ DAT Metal Guitar
How To - Guitar Metal Tone (only with freeware vst plugins)
How To - Mastering Metal

General
Complete name : How To - Bass mixing in a flexible way (part 1).mp4
Format : MPEG-4
Format profile : Base Media / Version 2
Codec ID : mp42
File size : 154 MiB
Duration : 13mn 31s
Overall bit rate mode : Variable
Overall bit rate : 1 594 Kbps
Encoded date : UTC 2011-07-30 20:33:22
Tagged date : UTC 2011-07-30 20:33:22
gsst : 0
gstd : 811865
gssd : B4A7DD104HH1362854353972387
gshh : r10–-sn-3c27en7e.c.youtube.com
Video #1
ID : 1
Format : AVC
Format/Info : Advanced Video Codec
Format profile : High@L4.0
Format settings, CABAC : Yes
Format settings, ReFrames : 1 frame
Format settings, GOP : M=1, N=30
Codec ID : avc1
Codec ID/Info : Advanced Video Coding
Duration : 13mn 31s
Bit rate : 1 454 Kbps
Maximum bit rate : 6 171 Kbps
Width : 1 920 pixels
Height : 1 080 pixels
Display aspect ratio : 16:9
Frame rate mode : Variable
Frame rate : 30.000 fps
Minimum frame rate : 29.412 fps
Maximum frame rate : 30.303 fps
Color space : YUV
Chroma subsampling : 4:2:0
Bit depth : 8 bits
Scan type : Progressive
Bits/(Pixel*Frame) : 0.023
Stream size : 141 MiB (91%)
Tagged date : UTC 2011-07-30 20:33:31
Audio #2
ID : 2
Format : AAC
Format/Info : Advanced Audio Codec
Format profile : LC
Codec ID : 40
Duration : 13mn 31s
Bit rate mode : Variable
Bit rate : 132 Kbps
Maximum bit rate : 213 Kbps
Channel(s) : 2 channels
Channel positions : Front: L R
Sampling rate : 44.1 KHz
Compression mode : Lossy
Stream size : 12.9 MiB (8%)
Title : IsoMedia File Produced by Google, 5-11-2011
Encoded date : UTC 2011-07-30 20:33:26
Tagged date : UTC 2011-07-30 20:33:31
Screenshots

Fake Smile Revolution - Metal since 1985 (2012)

Fake Smile Revolution - Metal since 1985 (2012)

Fake Smile Revolution - Metal since 1985 (2012)

For more, Visit my AH-blog

no mirrors please, Follow The Rules