Subcategories

Fluid Precision - Contemporary Tribal Bellydance

Posted By: FenixN
Fluid Precision - Contemporary Tribal Bellydance

Fluid Precision - Contemporary Tribal Bellydance
DVDRip | AVI / XviD, 903 kb/s | 720x416 | 01:34:46 | English: MP3, 128 kb/s (2 ch) | 700 mb

“Fluid Precision - Contemporary Tribal Bellydance” is an instructional program teaching original medium-tempo combinations by the Kassar duo (Karin Hein-Parks and Melanie Wood). Kassar is known for their fluid and intricate dance style: Beautiful pacing and blending of flowing and accented moves interwoven with level changes, turns, and half-turns, create a mesmerizing visual texture. “Fluid Precision” offers materials to polish your technique and explore a new vocabulary of dynamic combinations with modern sophisticated flair.

Format : AVI
Format/Info : Audio Video Interleave
File size : 700 MiB
Duration : 1h 34mn
Overall bit rate : 1 033 Kbps
Writing application : VirtualDubMod 1.5.4.1 (build 2178/release)
Writing library : VirtualDubMod build 2178/release

Video
ID : 0
Format : MPEG-4 Visual
Format profile : Advanced Simple@L5
Format settings, BVOP : 1
Format settings, QPel : No
Format settings, GMC : No warppoints
Format settings, Matrix : Custom
Codec ID : XVID
Codec ID/Hint : XviD
Duration : 1h 34mn
Bit rate : 903 Kbps
Width : 720 pixels
Height : 416 pixels
Display aspect ratio : 16:9
Frame rate : 23.976 fps
Color space : YUV
Chroma subsampling : 4:2:0
Bit depth : 8 bits
Scan type : Progressive
Compression mode : Lossy
Bits/(Pixel*Frame) : 0.126
Stream size : 612 MiB (87%)
Writing library : XviD 1.3.0.dev55

Audio
ID : 1
Format : MPEG Audio
Format version : Version 1
Format profile : Layer 3
Mode : Joint stereo
Mode extension : MS Stereo
Codec ID : 55
Codec ID/Hint : MP3
Duration : 1h 34mn
Bit rate mode : Variable
Bit rate : 118 Kbps
Nominal bit rate : 128 Kbps
Channel(s) : 2 channels
Sampling rate : 48.0 KHz
Compression mode : Lossy
Stream size : 79.7 MiB (11%)
Alignment : Aligned on interleaves
Interleave, duration : 24 ms (0.58 video frame)
Interleave, preload duration : 450 ms
Writing library : LAME3.98r
Encoding settings : -m j -V 4 -q 2 -lowpass 17 –abr 128


screenshot
Fluid Precision - Contemporary Tribal Bellydance

Fluid Precision - Contemporary Tribal Bellydance

Fluid Precision - Contemporary Tribal Bellydance

Fluid Precision - Contemporary Tribal Bellydance


Welcome to the best movies collection (English, German, French language), best software, best eLearning video and many-many more: LINK
Do not forget to check my blog! Updated regularly!