Subcategories

Gene Hoglan - The Atomic Clock (2010)

Posted By: Polik88
Gene Hoglan - The Atomic Clock (2010)

Gene Hoglan - The Atomic Clock (2010)
DVD5 | English | VOB | 720x480 | MPEG2 3852 Kbps 29.970 fps | PCM 1536 Kbps 48.0 khz | 1h 25mn | 4.25 GB
Genre: Video Training

Legendary extreme-metal drummer Gene Hoglan (FEAR FACTORY, DETHKLOK, STRAPPING YOUNG LAD, TESTAMENT, DEATH, DARK ANGEL) brings forth his long-awaited instructional DVD, "The Atomic Clock". Available on Hoglan Industries in the U.S. and on Reversed Records in Canada, the disc showcases Hoglan's three decades of experience of performing and recording with the world's most well-known metal bands such as DEVIN TOWNSEND, DARK ANGEL, DEATH, DETHKLOK, STRAPPING YOUNG LAD, TESTAMENT, ZIMMER'S HOLE, and most recently FEAR FACTORY, along with many others on his resume. Offering two hours of pure metal drumming fury, Gene shells out his pounding arsenal to drummers and music fans intrigued to understand what makes "The Clock" tick. Featuring nine full songs from various projects (five from the mighty MECHANISM), plus different improvised solos, in addition to tons of tips and tricks from his personal cache. Watch the Gene fill the screen, sharing his knowledge and putting it to the test.
General
Complete name : D:\Down\Gene Hoglan - The Atomic Clock\VIDEO_TS\VTS_06_1.VOB
Format : MPEG-PS
File size : 1 024 MiB
Duration : 26mn 2s
Overall bit rate mode : Variable
Overall bit rate : 5 497 Kbps

Video
ID : 224 (0xE0)
Format : MPEG Video
Format version : Version 2
Format profile : Main@Main
Format settings, BVOP : Yes
Format settings, Matrix : Custom
Format settings, GOP : M=3, N=15
Format settings, picture structure : Frame
Duration : 26mn 2s
Bit rate mode : Variable
Bit rate : 3 852 Kbps
Maximum bit rate : 6 200 Kbps
Width : 720 pixels
Height : 480 pixels
Display aspect ratio : 4:3
Frame rate : 29.970 fps
Standard : NTSC
Color space : YUV
Chroma subsampling : 4:2:0
Bit depth : 8 bits
Scan type : Interlaced
Scan order : Bottom Field First
Compression mode : Lossy
Bits/(Pixel*Frame) : 0.372
Time code of first frame : 00:00:00;00
Time code source : Group of pictures header
Stream size : 717 MiB (70%)
Color primaries : BT.601 NTSC
Transfer characteristics : BT.601
Matrix coefficients : BT.601

Audio
ID : 189 (0xBD)-160 (0xA0)
Format : PCM
Format settings, Endianness : Big
Format settings, Sign : Signed
Muxing mode : DVD-Video
Duration : 26mn 1s
Bit rate mode : Constant
Bit rate : 1 536 Kbps
Channel(s) : 2 channels
Sampling rate : 48.0 KHz
Bit depth : 16 bits
Stream size : 286 MiB (28%)

Screenshots

Gene Hoglan - The Atomic Clock (2010)

Gene Hoglan - The Atomic Clock (2010)

Gene Hoglan - The Atomic Clock (2010)

no mirrors please.
Visit Polik88 Blog Here
no password

Gene Hoglan - The Atomic Clock (2010)